osu file format v14

[General]
AudioFilename: audio.mp3
AudioLeadIn: 0
PreviewTime: 115242
Countdown: 0
SampleSet: Soft
StackLeniency: 0.4
Mode: 0
LetterboxInBreaks: 0
WidescreenStoryboard: 1

[Editor]
Bookmarks: 15231,89055
DistanceSpacing: 1.5
BeatDivisor: 4
GridSize: 32
TimelineZoom: 5.999997

[Metadata]
Title:True truly love
TitleUnicode:True truly love
Artist:Horie Yui
ArtistUnicode:堀江由衣
Creator:[Karcher]
Version:Riana's Reunion
Source:DIVINA
Tags:divina online ディビーナ MMORPG theme song opening 秘密 Himitsu video game jpop pop j-pop japanese riana miyohashikoori
BeatmapID:2917625
BeatmapSetID:1415113

[Difficulty]
HPDrainRate:6
CircleSize:4
OverallDifficulty:9.2
ApproachRate:9.4
SliderMultiplier:1.8
SliderTickRate:1

[Events]
//Background and Video events
0,0,"cute_suimya.jpg",0,0
//Break Periods
2,160809,174187
//Storyboard Layer 0 (Background)
//Storyboard Layer 1 (Fail)
//Storyboard Layer 2 (Pass)
//Storyboard Layer 3 (Foreground)
//Storyboard Layer 4 (Overlay)
//Storyboard Sound Samples

[TimingPoints]
610,294.117647058824,4,2,1,45,1,0
610,-160,4,2,1,45,0,0
4139,-400,4,2,1,45,0,0
4727,-160,4,2,1,45,0,0
5315,-74.0740740740741,4,2,1,65,0,1
5757,-76.9230769230769,4,2,1,65,0,1
6712,-76.9230769230769,4,2,1,65,0,1
6786,-76.9230769230769,4,2,1,65,0,1
7668,-66.6666666666667,4,2,1,65,0,1
8110,-76.9230769230769,4,2,1,65,0,1
9065,-76.9230769230769,4,2,1,65,0,1
9139,-76.9230769230769,4,2,1,65,0,1
10021,-66.6666666666667,4,2,1,65,0,1
10462,-76.9230769230769,4,2,1,65,0,1
11418,-76.9230769230769,4,2,1,65,0,1
11492,-76.9230769230769,4,2,1,65,0,1
11933,-83.3333333333333,4,2,1,65,0,1
12374,-90.9090909090909,4,2,1,70,0,0
12668,-90.9090909090909,4,2,1,65,0,0
12962,-90.9090909090909,4,2,1,60,0,0
13257,-90.9090909090909,4,2,1,55,0,0
13551,-90.9090909090909,4,2,1,50,0,0
13845,-90.9090909090909,4,2,1,45,0,0
14139,-90.9090909090909,4,2,1,40,0,0
14727,-100,4,2,1,50,0,0
15536,-100,4,2,1,50,0,0
15610,-100,4,2,1,50,0,0
24139,-100,4,2,1,60,0,0
25315,-100,4,2,1,50,0,0
28845,-133.333333333333,4,2,1,50,0,0
29139,-100,4,2,1,50,0,0
29433,-80,4,2,1,50,0,0
29727,-66.6666666666667,4,2,1,50,0,0
30021,-100,4,2,1,50,0,0
32374,-100,4,2,1,60,0,0
34727,-76.9230769230769,4,2,1,60,0,0
36198,-83.3333333333333,4,2,1,60,0,0
36492,-90.9090909090909,4,2,1,60,0,0
36786,-76.9230769230769,4,2,1,60,0,0
40904,-83.3333333333333,4,2,1,60,0,0
41198,-90.9090909090909,4,2,1,60,0,0
41492,-76.9230769230769,4,2,1,60,0,0
41786,-76.9230769230769,4,2,1,70,0,0
43845,-100,4,2,1,70,0,0
44139,-133.333333333333,4,2,1,50,0,0
48845,-133.333333333333,4,2,1,65,0,0
51198,-66.6666666666667,4,2,1,75,0,1
55904,-66.6666666666667,4,2,1,75,0,1
55977,-66.6666666666667,4,2,1,75,0,1
59433,-66.6666666666667,4,2,1,75,0,1
59874,-100,4,2,1,75,0,1
60610,-66.6666666666667,4,2,1,75,0,1
67521,-66.6666666666667,4,2,2,75,0,1
67668,-66.6666666666667,4,2,1,75,0,1
70021,-100,4,2,1,60,0,0
71786,-83.3333333333333,4,2,1,60,0,0
79433,-83.3333333333333,4,2,1,45,0,0
88845,-83.3333333333333,4,2,1,60,0,0
89727,-100,4,2,1,60,0,0
90021,-100,4,2,1,50,0,0
93551,-133.333333333333,4,2,1,50,0,0
93845,-100,4,2,1,50,0,0
94139,-80,4,2,1,50,0,0
94433,-66.6666666666667,4,2,1,50,0,0
94727,-100,4,2,1,50,0,0
97080,-83.3333333333333,4,2,1,60,0,0
99433,-76.9230769230769,4,2,1,60,0,0
100904,-83.3333333333333,4,2,1,60,0,0
101198,-90.9090909090909,4,2,1,60,0,0
101492,-76.9230769230769,4,2,1,60,0,0
105610,-83.3333333333333,4,2,1,60,0,0
105904,-90.9090909090909,4,2,1,60,0,0
106198,-76.9230769230769,4,2,1,60,0,0
106492,-76.9230769230769,4,2,1,70,0,0
108551,-100,4,2,1,70,0,0
108845,-133.333333333333,4,2,1,50,0,0
113551,-133.333333333333,4,2,1,65,0,0
114727,-100,4,2,1,65,0,0
115315,-66.6666666666667,4,2,1,65,0,0
115389,-62.5,4,2,1,65,0,0
115462,-58.8235294117647,4,2,1,65,0,0
115536,-55.5555555555556,4,2,1,65,0,0
115610,-52.6315789473684,4,2,1,65,0,0
115683,-50,4,2,1,65,0,0
115757,-47.6190476190476,4,2,1,65,0,0
115830,-45.4545454545455,4,2,1,65,0,0
115904,-66.6666666666667,4,2,1,75,0,1
120610,-66.6666666666667,4,2,1,75,0,1
120683,-66.6666666666667,4,2,1,75,0,1
124139,-66.6666666666667,4,2,1,75,0,1
124580,-100,4,2,1,75,0,1
125316,-66.6666666666667,4,2,1,75,0,1
132227,-66.6666666666667,4,2,2,75,0,1
132374,-66.6666666666667,4,2,1,75,0,1
134727,-66.6666666666667,4,2,1,75,0,1
137080,-100,4,2,1,60,0,0
139433,-100,4,2,1,55,0,0
148845,-100,4,2,1,60,0,0
158257,-150.000000015,4,2,1,60,0,0
159433,-200,4,2,1,60,0,0
160610,-200,4,2,1,45,0,0
174727,-200,4,2,1,55,0,0
176492,-200,4,2,1,5,0,0
177080,-150.00000000015,4,2,1,55,0,0
181786,-150.00000000015,4,2,1,60,0,0
183551,-150.00000000015,4,2,1,65,0,0
183845,-150.00000000015,4,2,1,70,0,0
184139,-66.6666666666667,4,2,1,75,0,1
188845,-66.6666666666667,4,2,1,75,0,1
188918,-66.6666666666667,4,2,1,75,0,1
192374,-66.6666666666667,4,2,1,75,0,1
192815,-100,4,2,1,75,0,1
193551,-66.6666666666667,4,2,1,75,0,1
200462,-66.6666666666667,4,2,2,75,0,1
200610,-66.6666666666667,4,2,1,75,0,1
202962,-66.6666666666667,4,2,1,60,0,0
210021,-66.6666666666667,4,2,1,65,0,1
210462,-76.9230769230769,4,2,1,65,0,1
211418,-76.9230769230769,4,2,1,65,0,1
211492,-76.9230769230769,4,2,1,65,0,1
212374,-66.6666666666667,4,2,1,65,0,1
212815,-76.9230769230769,4,2,1,65,0,1
213771,-76.9230769230769,4,2,1,65,0,1
213845,-76.9230769230769,4,2,1,65,0,1
214727,-66.6666666666667,4,2,1,65,0,1
215168,-76.9230769230769,4,2,1,65,0,1
216124,-76.9230769230769,4,2,1,65,0,1
216198,-76.9230769230769,4,2,1,65,0,1
216639,-83.3333333333333,4,2,1,65,0,1
217080,-83.3333333333333,4,2,1,70,0,0
217374,-83.3333333333333,4,2,1,65,0,0
217668,-83.3333333333333,4,2,1,60,0,0
217962,-83.3333333333333,4,2,1,55,0,0
218257,-100,4,2,1,50,0,1
218404,-100,4,2,1,55,0,1
218551,-66.6666666666667,4,2,1,60,0,1
218698,-66.6666666666667,4,2,1,65,0,1
218845,-50,4,2,1,70,0,1
218992,-50,4,2,1,75,0,1
219139,-40,4,2,1,80,0,1
219286,-40,4,2,1,85,0,1
219433,-100,4,2,1,70,0,0
220609,-117.647058823529,4,2,1,85,0,0
221786,-117.647058823529,4,2,1,70,0,0
224286,-117.647058823529,4,2,1,5,0,0

[Colours]
Combo1 : 215,255,215
Combo2 : 255,166,255
Combo3 : 179,236,255
Combo4 : 255,157,157

[HitObjects]
22,204,610,6,0,P|32:185|122:156,1,112.500004291535,2|2,0:0|0:0,0:0:0:0:
284,187,1198,2,0,P|286:129|255:81,1,112.500004291535,2|2,0:0|0:0,0:0:0:0:
433,303,1786,6,0,P|422:284|341:250,1,112.500004291535,2|2,0:0|0:0,0:0:0:0:
173,280,2374,2,0,P|170:222|201:174,1,112.500004291535,2|2,0:0|0:0,0:0:0:0:
426,86,2962,6,0,P|418:60|337:14,1,112.500004291535,2|2,0:0|0:0,0:0:0:0:
402,217,3551,2,0,P|424:234|506:240,1,112.500004291535,2|2,0:0|0:0,0:0:0:0:
336,337,4139,6,0,P|294:344|257:332,1,78.7499975967408,2|0,0:0|0:0,0:0:0:0:
198,281,4727,6,0,P|182:282|167:288,3,28.1250010728836,2|0|0|0,0:0|0:0|0:0|0:0,0:0:0:0:
101,251,5021,6,0,P|93:265|91:273,2,18.75
20,304,5168,2,0,P|28:317|38:324,2,18.75,2|2|2,0:0|0:0|0:0,0:0:0:0:
92,267,5315,6,0,P|122:227|97:140,2,121.500000463486,6|2|10,1:2|0:0|0:0,0:0:0:0:
207,163,5757,2,0,P|263:150|333:186,1,116.999994644165,2|0,0:0|1:2,0:0:0:0:
372,52,6051,2,0,P|401:101|389:178,1,116.999994644165,2|8,1:2|0:0,0:0:0:0:
310,253,6345,1,2,0:0:0:0:
469,364,6492,6,0,P|416:341|381:272,1,116.999994644165,2|0,1:2|0:0,0:0:0:0:
475,271,6786,1,10,0:0:0:0:
267,355,6933,2,0,P|272:297|309:252,1,116.999994644165,2|0,0:0|1:2,0:0:0:0:
317,170,7227,5,2,1:2:0:0:
125,210,7374,1,8,0:0:0:0:
235,259,7521,1,0,0:0:0:0:
194,17,7668,6,0,P|224:56|169:156,2,135.000005149842,2|2|10,1:2|0:0|0:0,0:0:0:0:
11,129,8110,2,0,P|67:116|137:152,1,116.999994644165,2|0,0:0|1:2,0:0:0:0:
331,135,8404,2,0,P|360:184|348:261,1,116.999994644165,2|8,1:2|0:0,0:0:0:0:
162,211,8698,1,2,0:0:0:0:
349,337,8845,6,0,P|296:314|261:245,1,116.999994644165,2|0,1:2|0:0,0:0:0:0:
357,243,9139,5,10,0:0:0:0:
384,187,9286,1,2,0:0:0:0:
367,121,9433,1,2,1:2:0:0:
305,84,9580,1,2,1:2:0:0:
233,98,9727,1,10,0:0:0:0:
188,164,9874,1,2,0:0:0:0:
207,270,10021,6,0,P|167:240|68:295,2,135.000005149842,2|2|10,1:2|0:0|0:0,0:0:0:0:
139,123,10463,2,0,P|126:67|162:-3,1,116.999994644165,2|0,0:0|1:2,0:0:0:0:
239,167,10757,2,0,P|181:160|128:102,1,116.999994644165,2|8,1:2|0:0,0:0:0:0:
309,24,11051,1,2,0:0:0:0:
361,222,11198,6,0,P|390:173|378:96,1,116.999994644165,2|0,1:2|0:0,0:0:0:0:
214,80,11492,1,10,0:0:0:0:
325,308,11639,2,0,P|381:308|442:259,1,116.999994644165,2|0,0:0|1:2,0:0:0:0:
386,114,11933,6,0,P|379:61|406:16,2,107.999996704102,2|8|2,1:2|0:0|0:0,0:0:0:0:
283,251,12374,5,2,1:2:0:0:
290,155,12521,1,2,0:0:0:0:
204,203,12668,5,10,0:0:0:0:
257,140,12815,1,2,0:0:0:0:
177,124,12962,5,2,1:2:0:0:
245,110,13110,1,2,1:2:0:0:
213,59,13257,5,10,0:0:0:0:
242,73,13404,1,2,0:0:0:0:
331,32,13551,5,10,0:0:0:0:
331,32,13624,1,2,0:0:0:0:
331,32,13698,2,0,P|325:68|310:99,1,49.5000015106202,2|2,1:2|0:0,0:0:0:0:
376,145,13845,5,10,0:0:0:0:
376,145,13918,1,2,0:0:0:0:
376,145,13992,2,0,P|341:157|307:160,1,49.5000015106202,2|2,1:2|0:0,0:0:0:0:
297,238,14139,5,2,1:2:0:0:
297,238,14212,1,2,0:0:0:0:
297,238,14286,2,0,P|268:214|249:186,1,49.5000015106202,2|2,1:2|0:0,0:0:0:0:
181,213,14433,5,10,0:0:0:0:
181,213,14506,1,2,0:0:0:0:
181,213,14580,2,0,P|187:177|202:145,1,49.5000015106202,2|2,0:0|0:0,0:0:0:0:
214,88,14727,6,0,P|146:118|102:102,1,90,6|0,1:2|0:0,0:0:0:0:
30,201,15021,2,0,P|38:127|73:97,1,90,10|0,0:0|0:0,0:0:0:0:
258,7,15315,2,0,P|295:54|253:174,1,180,2|10,1:2|0:0,0:0:0:0:
150,304,15757,6,0,P|204:288|241:303,1,90,2|0,0:0|1:2,0:0:0:0:
359,379,16051,2,0,P|438:363|485:277,1,180,2|2,0:0|0:0,0:0:0:0:
386,282,16492,1,2,1:2:0:0:
386,282,16639,1,0,0:0:0:0:
277,145,16786,2,0,P|292:221|312:238,1,90,10|0,0:0|0:0,0:0:0:0:
234,298,17080,6,0,P|172:249|146:248,1,90,2|0,1:2|0:0,0:0:0:0:
15,335,17374,2,0,P|87:306|101:284,1,90,10|0,0:0|0:0,0:0:0:0:
92,127,17668,2,0,P|81:203|93:226,1,90,2|0,1:2|0:0,0:0:0:0:
306,132,17962,5,10,0:0:0:0:
171,77,18110,1,2,0:0:0:0:
267,217,18257,6,0,P|330:216|388:181,1,90,0|0,1:2|0:0,0:0:0:0:
441,239,18551,2,0,P|410:271|370:291,1,90,8|0,0:0|0:0,0:0:0:0:
172,336,18845,6,0,P|165:251|118:314,1,180,2|8,1:2|0:0,0:0:0:0:
115,282,19286,1,0,0:0:0:0:
306,132,19433,5,2,1:2:0:0:
91,116,19580,2,0,P|78:52|117:3,1,90,2|8,0:0|0:0,0:0:0:0:
240,187,19874,1,2,0:0:0:0:
115,282,20021,2,0,P|44:284|17:263,2,90,2|0|10,1:2|0:0|0:0,0:0:0:0:
240,187,20462,6,0,P|311:185|375:279,1,180,2|2,0:0|0:0,0:0:0:0:
207,270,20904,1,10,0:0:0:0:
435,112,21051,1,2,0:0:0:0:
374,264,21198,6,0,P|357:213|369:163,1,90,2|0,1:2|0:0,0:0:0:0:
454,296,21492,2,0,P|401:285|364:249,1,90,10|0,0:0|0:0,0:0:0:0:
357,20,21786,6,0,P|319:112|211:114,1,180,2|8,1:2|0:0,0:0:0:0:
247,128,22227,1,2,0:0:0:0:
109,36,22374,2,0,P|169:114|148:170,1,135,2|0,1:2|0:0,0:0:0:0:
164,142,22668,2,0,P|174:85|210:56,1,90,8|0,0:0|0:0,0:0:0:0:
268,255,22962,6,0,P|211:244|180:203,1,90,0|0,1:2|0:0,0:0:0:0:
362,321,23257,2,0,P|317:325|283:353,1,90,8|0,0:0|0:0,0:0:0:0:
334,203,23551,6,0,P|309:239|267:254,1,90,0|0,1:2|0:0,0:0:0:0:
429,373,23846,2,0,P|390:329|339:322,1,90,8|8,0:0|0:0,0:0:0:0:
361,321,24065,1,8,0:0:0:0:
361,321,24139,5,0,1:2:0:0:
442,293,24237,5,2,0:0:0:0:
486,226,24335,5,2,0:0:0:0:
497,150,24433,5,10,0:3:0:0:
465,85,24531,5,2,0:0:0:0:
413,44,24629,5,2,0:0:0:0:
358,33,24727,5,6,0:3:0:0:
309,42,24825,5,2,0:0:0:0:
272,65,24923,5,2,0:0:0:0:
248,98,25021,6,0,P|240:155|281:202,1,90,10|0,0:3|0:0,0:0:0:0:
395,150,25315,5,6,1:2:0:0:
472,267,25462,1,2,0:0:0:0:
379,380,25610,1,10,0:0:0:0:
248,318,25757,2,0,P|303:290|369:306,1,90,10|0,0:0|0:0,0:0:0:0:
187,234,26051,5,2,1:2:0:0:
38,288,26198,2,0,P|59:238|112:213,1,90,10|0,0:0|0:0,0:0:0:0:
206,145,26492,5,2,1:2:0:0:
87,79,26639,1,2,0:0:0:0:
291,117,26786,5,10,0:0:0:0:
179,60,26933,1,10,0:0:0:0:
388,101,27080,5,2,1:2:0:0:
317,213,27227,1,0,0:0:0:0:
179,60,27374,1,8,0:0:0:0:
298,124,27521,5,0,0:0:0:0:
298,124,27595,1,0,0:0:0:0:
298,124,27668,1,2,1:2:0:0:
208,224,27815,1,2,0:0:0:0:
93,160,27962,1,10,0:0:0:0:
126,36,28110,1,8,0:0:0:0:
252,20,28257,5,2,0:0:0:0:
302,68,28330,1,2,0:0:0:0:
306,135,28404,1,2,1:2:0:0:
208,224,28551,1,10,0:0:0:0:
93,160,28698,1,2,0:0:0:0:
93,160,28845,6,0,P|140:144|183:153,1,67.5000025749208,2|2,3:0|0:0,0:0:0:0:
228,98,29139,2,0,P|276:107|317:164,1,90,2|2,3:0|0:0,0:0:0:0:
378,98,29433,2,0,P|411:131|431:196,1,112.5,2|2,3:0|0:0,0:0:0:0:
494,244,29727,2,0,P|503:292|452:386,1,135.000005149842,2|2,3:0|0:0,0:0:0:0:
74,156,30021,5,6,1:2:0:0:
227,187,30168,1,2,0:0:0:0:
243,342,30315,2,0,P|196:380|126:380,1,90,10|8,0:0|0:0,0:0:0:0:
139,216,30610,5,2,0:0:0:0:
230,89,30757,1,2,1:2:0:0:
386,126,30904,1,10,0:0:0:0:
398,288,31051,2,0,P|338:297|277:262,1,90,2|0,0:0|1:2,0:0:0:0:
301,138,31345,5,2,0:0:0:0:
432,49,31492,2,0,P|469:95|469:165,1,90,10|8,0:0|0:0,0:0:0:0:
398,288,31786,5,2,0:0:0:0:
301,138,31933,1,2,1:2:0:0:
132,193,32080,1,10,0:0:0:0:
301,138,32227,1,2,0:0:0:0:
241,4,32374,5,14,0:0:0:0:
229,85,32521,1,2,0:0:0:0:
309,50,32668,1,2,0:0:0:0:
241,4,32815,1,2,0:0:0:0:
132,193,32962,5,14,0:0:0:0:
36,74,33110,2,0,P|83:80|123:118,1,90,2|0,0:0|0:0,0:0:0:0:
132,193,33404,1,2,0:0:0:0:
292,95,33551,5,14,0:0:0:0:
210,374,33845,1,14,0:0:0:0:
292,95,34139,5,14,0:0:0:0:
319,95,34212,1,0,3:0:0:0:
340,113,34286,1,0,3:0:0:0:
343,140,34359,1,0,3:0:0:0:
328,163,34433,1,0,3:0:0:0:
301,170,34506,1,0,3:0:0:0:
276,158,34580,1,0,3:0:0:0:
266,133,34653,1,0,3:0:0:0:
275,107,34727,6,0,P|337:89|403:205,1,175.499991966248,6|0,1:2|0:0,0:0:0:0:
409,160,35021,2,0,P|376:87|395:40,1,116.999994644165,10|0,0:0|0:0,0:0:0:0:
489,33,35315,2,0,P|522:106|503:153,1,116.999994644165,2|0,1:2|0:0,0:0:0:0:
328,293,35610,5,10,0:0:0:0:
212,166,35757,1,2,0:0:0:0:
55,338,35904,6,0,P|138:350|193:298,1,116.999994644165,2|0,1:2|0:0,0:0:0:0:
41,166,36198,2,0,P|2:239|25:300,1,107.999996704102,10|0,0:0|0:0,0:0:0:0:
261,339,36492,6,0,P|231:270|169:249,1,99.0000030212403,2|0,1:2|0:0,0:0:0:0:
177,73,36786,2,0,P|206:141|275:163,1,116.999994644165,8|0,0:0|0:0,0:0:0:0:
376,42,37080,6,0,P|291:50|249:99,1,116.999994644165,2|0,1:2|0:0,0:0:0:0:
247,253,37374,1,10,0:0:0:0:
356,194,37521,1,2,0:0:0:0:
23,223,37668,6,0,P|56:301|116:326,1,116.999994644165,2|0,1:2|0:0,0:0:0:0:
247,253,37962,1,10,0:0:0:0:
158,167,38109,1,2,0:0:0:0:
230,343,38257,6,0,P|296:329|314:189,1,175.499991966248,2|0,1:1|0:0,0:0:0:0:
355,151,38551,2,0,P|333:215|445:300,1,175.499991966248,10|0,0:1|0:0,0:0:0:0:
458,356,38845,2,0,P|412:305|283:359,1,175.499991966248,2|0,1:1|0:0,0:0:0:0:
230,343,39139,2,0,P|296:329|330:255,1,116.999994644165,8|0,0:0|0:0,0:0:0:0:
154,119,39433,5,2,1:2:0:0:
244,252,39580,1,2,0:0:0:0:
371,1,39727,1,10,0:0:0:0:
246,161,39874,1,2,0:0:0:0:
446,187,40021,6,0,P|453:115|425:68,1,116.999994644165,2|0,1:2|0:0,0:0:0:0:
355,241,40315,2,0,P|413:283|468:282,1,116.999994644165,10|0,0:0|0:0,0:0:0:0:
114,204,40610,6,0,P|42:159|33:84,1,116.999994644165,2|0,1:2|0:0,0:0:0:0:
214,70,40904,2,0,P|211:154|161:195,1,107.999996704102,10|0,0:0|0:0,0:0:0:0:
52,43,41198,2,0,P|119:10|180:33,1,99.0000030212403,2|0,1:2|0:0,0:0:0:0:
414,125,41492,6,0,P|348:158|281:130,1,116.999994644165,8|0,0:0|0:0,0:0:0:0:
140,12,41786,5,10,0:1:0:0:
188,220,41933,1,10,0:0:0:0:
83,139,42080,1,2,0:0:0:0:
83,139,42227,1,2,0:0:0:0:
252,269,42374,5,10,0:1:0:0:
59,384,42521,1,10,0:0:0:0:
111,253,42668,1,2,0:0:0:0:
111,253,42815,1,2,0:0:0:0:
374,340,42962,5,10,0:1:0:0:
286,133,43109,1,10,0:0:0:0:
252,269,43256,1,2,0:0:0:0:
252,269,43403,1,2,0:0:0:0:
309,56,43550,5,10,0:1:0:0:
85,76,43697,1,10,0:0:0:0:
205,151,43845,2,0,P|194:97|161:62,1,90,2|2,0:0|0:0,0:0:0:0:
115,261,44139,6,0,P|194:238|250:287,1,135.000005149842,6|0,1:2|0:0,0:0:0:0:
293,335,44580,1,0,1:2:0:0:
293,335,44727,2,0,P|321:281|320:246,2,67.5000025749208,10|0|0,0:0|1:2|0:0,0:0:0:0:
288,196,45168,1,8,0:0:0:0:
174,127,45315,6,0,P|183:159|202:186,2,67.5000025749208,2|8|0,1:2|0:0|1:2,0:0:0:0:
232,69,45756,1,0,0:0:0:0:
232,69,45903,2,0,P|172:41|111:67,1,135.000005149842,10|0,0:0|1:2,0:0:0:0:
95,150,46344,1,8,0:0:0:0:
37,31,46492,5,6,1:2:0:0:
256,192,46565,12,8,48698,0:0:0:0:
0,275,48845,5,6,1:2:0:0:
29,92,48992,1,2,0:0:0:0:
0,275,49139,1,10,0:0:0:0:
121,88,49286,5,2,0:0:0:0:
144,298,49433,1,6,1:2:0:0:
121,88,49580,1,2,0:0:0:0:
294,369,49727,5,10,0:0:0:0:
412,125,49874,1,2,0:0:0:0:
212,343,50021,5,10,0:0:0:0:
367,237,50168,1,2,1:2:0:0:
161,247,50315,5,10,0:0:0:0:
322,144,50462,1,2,1:2:0:0:
489,219,50610,5,10,0:0:0:0:
489,219,50683,1,0,0:0:0:0:
489,219,50757,1,2,1:2:0:0:
488,375,50904,5,10,0:0:0:0:
460,325,50977,1,8,0:0:0:0:
411,300,51051,1,10,0:0:0:0:
357,309,51124,1,8,0:0:0:0:
316,347,51198,6,0,P|230:366|158:301,1,135.000005149842,6|0,1:2|0:0,0:0:0:0:
77,141,51492,1,10,0:0:0:0:
254,277,51639,1,2,0:0:0:0:
30,360,51786,2,0,P|56:276|148:246,2,135.000005149842,2|2|10,1:2|1:2|0:0,0:0:0:0:
236,203,52227,6,0,P|223:137|173:94,1,135.000005149842,2|0,0:0|1:2,0:0:0:0:
175,274,52521,1,2,0:0:0:0:
419,148,52668,1,10,0:0:0:0:
188,0,52815,2,0,P|140:109|227:203,1,270.000010299683,2|0,0:0|1:2,0:0:0:0:
415,237,53257,2,0,P|330:243|290:296,1,135.000005149842,10|0,0:0|0:0,0:0:0:0:
117,265,53551,6,0,P|153:144|235:205,1,270.000010299683,2|10,1:2|0:0,0:0:0:0:
91,355,53992,2,0,P|22:282|11:205,1,135.000005149842,2|0,0:0|1:2,0:0:0:0:
349,244,54286,1,2,1:2:0:0:
91,355,54433,1,10,0:0:0:0:
349,244,54580,1,2,0:0:0:0:
41,152,54727,6,0,P|108:127|193:170,1,135.000005149842,0|0,1:2|0:0,0:0:0:0:
278,24,55021,2,0,P|320:74|323:141,1,135.000005149842,8|0,0:0|0:0,0:0:0:0:
208,298,55315,2,0,P|259:218|363:275,1,202.500007724762,2|0,1:2|0:0,0:0:0:0:
349,244,55610,2,0,P|265:230|223:164,1,135.000005149842,8|0,0:0|0:0,0:0:0:0:
433,181,55904,6,0,P|455:251|388:338,1,135.000005149842,6|0,1:2|0:0,0:0:0:0:
334,145,56198,2,0,P|383:90|492:105,2,135.000005149842,8|0|0,0:0|0:0|1:2,0:0:0:0:
323,335,56639,1,2,1:2:0:0:
433,181,56786,1,10,0:0:0:0:
136,265,56933,1,2,0:0:0:0:
146,62,57080,5,2,1:1:0:0:
145,61,57227,2,0,P|190:110|194:176,1,135.000005149842,0|8,0:0|0:0,0:0:0:0:
136,265,57521,2,0,P|197:197|362:223,1,270.000010299683,2|0,0:1|1:2,0:0:0:0:
441,384,57962,1,8,0:0:0:0:
271,255,58257,6,0,P|295:152|357:123,2,135.000005149842,14|2|2,0:3|0:0|0:0,0:0:0:0:
136,265,58698,2,0,P|46:210|37:142,2,135.000005149842,10|2|2,0:3|0:0|0:0,0:0:0:0:
81,69,59139,2,0,P|38:121|36:186,1,135.000005149842,10|2,0:3|0:0,0:0:0:0:
199,329,59433,5,6,3:0:0:0:
310,53,59727,1,6,3:0:0:0:
199,329,60021,1,10,0:0:0:0:
137,168,60168,2,0,P|207:190|232:263,1,135,14|2,0:0|0:0,0:0:0:0:
199,329,60462,5,2,0:0:0:0:
199,329,60536,1,2,0:0:0:0:
199,329,60610,2,0,P|286:317|331:231,1,135.000005149842,6|2,1:2|0:0,0:0:0:0:
352,53,60904,1,10,0:0:0:0:
232,241,61051,1,2,0:0:0:0:
471,243,61198,2,0,P|417:172|321:176,2,135.000005149842,2|2|10,1:2|1:2|0:0,0:0:0:0:
279,243,61639,6,0,P|313:185|375:162,1,135.000005149842,2|0,0:0|1:2,0:0:0:0:
311,329,61933,1,2,0:0:0:0:
116,131,62080,1,10,0:0:0:0:
393,68,62227,2,0,P|400:186|286:245,1,270.000010299683,2|0,0:0|1:2,0:0:0:0:
250,0,62668,1,10,0:0:0:0:
405,172,62815,1,2,0:0:0:0:
193,337,62962,6,0,P|278:242|396:289,1,270.000010299683,2|10,1:2|0:0,0:0:0:0:
193,337,63404,2,0,P|162:254|188:187,1,135.000005149842,2|0,0:0|1:2,0:0:0:0:
356,21,63698,2,0,P|299:89|228:99,1,135.000005149842,2|8,1:2|0:0,0:0:0:0:
23,31,63992,1,2,0:0:0:0:
0,206,64139,6,0,P|45:150|140:145,1,135.000005149842,0|0,1:2|0:0,0:0:0:0:
159,21,64433,2,0,P|220:43|256:99,1,135.000005149842,8|0,0:0|0:0,0:0:0:0:
198,240,64727,1,2,1:2:0:0:
197,214,64800,1,2,0:0:0:0:
205,190,64874,1,2,1:2:0:0:
220,169,64947,1,2,0:0:0:0:
240,154,65021,1,10,0:0:0:0:
264,148,65094,1,2,0:0:0:0:
289,148,65168,1,2,0:0:0:0:
314,158,65241,1,2,0:0:0:0:
330,176,65315,6,0,P|250:205|180:169,1,135.000005149842,6|0,1:2|0:0,0:0:0:0:
404,116,65610,2,0,P|427:185|359:272,2,135.000005149842,8|0|0,0:0|0:0|1:2,0:0:0:0:
208,26,66051,1,2,1:2:0:0:
205,191,66198,1,10,0:0:0:0:
373,0,66345,1,2,0:0:0:0:
112,105,66492,6,0,P|182:143|206:209,1,135.000005149842,2|0,1:2|0:0,0:0:0:0:
1,153,66786,1,10,0:0:0:0:
91,0,66933,1,2,0:0:0:0:
124,285,67080,2,0,P|165:215|316:235,1,202.500007724762,2|0,1:2|0:0,0:0:0:0:
335,268,67374,1,8,0:0:0:0:
423,100,67521,5,2,0:0:0:0:
442,88,67595,1,2,0:0:0:0:
464,84,67668,2,0,P|438:169|247:181,1,270.000010299683,14|0,3:0|0:0,0:0:0:0:
264,380,68110,2,0,P|238:295|47:283,1,270.000010299683,10|0,3:0|0:0,0:0:0:0:
407,199,68551,6,0,P|320:218|214:59,1,270.000010299683,10|0,3:0|0:0,0:0:0:0:
210,268,68992,2,0,P|123:248|17:407,1,270.000010299683,10|0,3:0|0:0,0:0:0:0:
381,32,69433,5,10,3:0:0:0:
381,32,69727,5,10,0:0:0:0:
436,22,69800,1,8,0:0:0:0:
485,51,69874,1,8,0:0:0:0:
509,103,69947,1,8,0:0:0:0:
498,160,70021,1,14,0:0:0:0:
256,192,70095,12,0,71198,0:0:0:0:
331,250,71786,6,0,P|261:340|46:300,1,323.999990112305,2|0,0:0|0:0,0:0:0:0:
67,323,72374,5,14,0:0:0:0:
33,308,72815,5,2,1:2:0:0:
234,234,72962,1,14,0:0:0:0:
266,216,73551,5,6,1:2:0:0:
62,140,73698,1,2,0:0:0:0:
275,133,73845,5,14,0:0:0:0:
69,59,73992,1,2,0:0:0:0:
275,133,74139,5,6,1:2:0:0:
44,384,74433,5,8,0:0:0:0:
65,334,74506,1,8,0:0:0:0:
107,302,74580,1,8,0:0:0:0:
160,294,74653,1,8,0:0:0:0:
210,312,74727,2,0,P|279:313|323:250,2,107.999996704102,6|2|10,1:2|0:0|0:0,0:0:0:0:
402,311,75168,2,0,P|437:251|404:182,1,107.999996704102,2|0,0:0|1:2,0:0:0:0:
171,156,75462,2,0,P|204:216|281:222,1,107.999996704102,2|8,1:2|0:0,0:0:0:0:
381,131,75757,1,2,0:0:0:0:
464,368,75904,6,0,P|418:286|283:315,1,215.999993408203,2|10,1:2|0:0,0:0:0:0:
171,156,76345,2,0,P|125:238|76:244,1,107.999996704102,2|0,0:0|1:2,0:0:0:0:
0,328,76639,2,0,P|94:326|123:366,2,107.999996704102,2|10|2,1:2|0:0|0:0,0:0:0:0:
46,61,77080,6,0,P|75:105|83:158,1,107.999996704102,2|0,1:2|0:0,0:0:0:0:
220,157,77374,1,8,0:0:0:0:
220,157,77521,2,0,P|196:204|153:238,1,107.999996704102,0|0,0:0|1:2,0:0:0:0:
245,364,77815,1,0,1:2:0:0:
245,364,77962,2,0,P|191:367|141:347,1,107.999996704102,8|0,0:0|0:0,0:0:0:0:
333,318,78257,6,0,P|344:260|336:221,1,71.9999978027344,2|0,1:2|0:0,0:0:0:0:
435,244,78453,2,0,P|415:188|389:158,1,71.9999978027344,10|0,0:0|0:0,0:0:0:0:
480,122,78649,2,0,P|435:83|397:70,1,71.9999978027344,10|0,0:0|0:0,0:0:0:0:
401,50,78845,6,0,P|435:63|464:84,1,71.9999978027344,10|0,0:0|0:0,0:0:0:0:
403,151,79041,2,0,P|426:179|441:212,1,71.9999978027344,10|0,0:3|0:0,0:0:0:0:
351,231,79237,2,0,P|357:267|353:302,1,71.9999978027344,6|0,0:3|0:0,0:0:0:0:
206,163,79433,5,6,1:2:0:0:
353,330,80610,5,2,1:2:0:0:
368,54,81786,5,2,1:2:0:0:
154,241,82962,5,2,1:2:0:0:
0,20,83551,1,2,1:1:0:0:
377,230,84139,5,2,1:2:0:0:
181,349,85315,5,2,1:2:0:0:
323,57,86492,5,2,1:2:0:0:
471,246,87668,5,2,1:2:0:0:
206,55,88698,2,0,P|202:106|195:137,1,53.9999983520508,8|8,0:0|0:0,0:0:0:0:
127,182,88845,5,2,1:2:0:0:
190,206,88943,5,2,0:0:0:0:
251,187,89041,5,2,0:0:0:0:
298,146,89139,5,10,0:3:0:0:
348,120,89237,5,2,0:0:0:0:
401,121,89335,5,2,0:0:0:0:
441,142,89433,5,6,0:3:0:0:
466,173,89531,5,2,0:0:0:0:
477,206,89629,5,2,0:0:0:0:
471,244,89727,6,0,P|441:293|321:277,1,180,10|6,0:3|1:2,0:0:0:0:
152,223,90168,5,2,0:0:0:0:
223,141,90315,1,10,0:0:0:0:
256,247,90462,1,10,0:0:0:0:
182,325,90610,5,2,0:0:0:0:
83,299,90757,1,2,1:2:0:0:
256,247,90904,5,10,0:0:0:0:
349,277,91051,1,2,0:0:0:0:
394,103,91198,5,2,1:2:0:0:
420,201,91345,1,2,0:0:0:0:
394,103,91492,1,10,0:0:0:0:
461,26,91639,1,10,0:0:0:0:
272,6,91786,6,0,P|274:50|294:91,1,90,2|0,0:0|1:2,0:0:0:0:
325,179,92080,1,8,0:0:0:0:
236,164,92227,5,0,0:0:0:0:
236,164,92301,1,0,0:0:0:0:
236,164,92374,1,0,1:2:0:0:
205,286,92521,1,2,0:0:0:0:
332,316,92668,1,10,0:0:0:0:
357,187,92816,1,10,0:0:0:0:
207,149,92963,5,2,0:0:0:0:
230,274,93110,1,2,1:2:0:0:
98,306,93257,1,10,0:0:0:0:
72,171,93404,1,2,0:0:0:0:
72,171,93551,6,0,P|81:122|110:89,1,67.5000025749208,2|2,3:0|0:0,0:0:0:0:
178,88,93845,2,0,P|209:50|279:43,1,90,2|2,3:0|0:0,0:0:0:0:
316,86,94139,2,0,P|361:73|427:89,1,112.5,2|2,3:0|0:0,0:0:0:0:
415,170,94433,2,0,P|461:186|516:277,1,135.000005149842,2|2,3:0|0:0,0:0:0:0:
223,352,94727,5,6,1:2:0:0:
265,219,94874,1,0,0:0:0:0:
356,327,95021,1,10,0:0:0:0:
223,352,95168,2,0,P|191:289|193:238,1,90,10|0,0:0|0:0,0:0:0:0:
454,119,95462,5,2,1:2:0:0:
389,228,95609,1,8,0:0:0:0:
325,116,95756,2,0,P|363:56|408:33,1,90,2|0,0:0|1:2,0:0:0:0:
389,228,96051,5,2,0:0:0:0:
297,333,96198,1,10,0:0:0:0:
178,281,96345,1,10,0:0:0:0:
181,156,96492,6,0,P|247:173|280:217,1,90,2|0,0:0|1:2,0:0:0:0:
389,228,96786,2,0,P|408:187|443:161,1,90,8|0,0:0|0:0,0:0:0:0:
195,384,97080,6,0,P|169:323|29:280,1,215.999993408203,14|2,0:0|0:0,0:0:0:0:
36,278,97668,5,14,0:0:0:0:
77,230,97741,1,2,0:0:0:0:
67,168,97815,1,2,0:0:0:0:
308,26,98257,5,14,0:0:0:0:
199,252,98551,1,10,0:0:0:0:
308,26,98845,5,14,0:0:0:0:
308,53,98918,1,0,3:0:0:0:
290,74,98992,1,0,3:0:0:0:
263,77,99065,1,0,3:0:0:0:
240,62,99139,1,0,3:0:0:0:
233,35,99212,1,0,3:0:0:0:
245,10,99286,1,0,3:0:0:0:
270,0,99359,1,0,3:0:0:0:
296,7,99433,6,0,P|325:69|301:138,1,116.999994644165,6|0,1:2|0:0,0:0:0:0:
395,241,99727,2,0,P|326:235|288:197,1,116.999994644165,10|0,0:0|0:0,0:0:0:0:
200,146,100021,1,2,1:2:0:0:
108,205,100168,1,0,0:0:0:0:
34,37,100315,1,10,0:0:0:0:
229,149,100462,1,2,0:0:0:0:
426,96,100609,6,0,P|343:84|288:136,1,116.999994644165,2|0,1:2|0:0,0:0:0:0:
187,10,100904,2,0,P|136:76|148:140,1,107.999996704102,10|0,0:0|0:0,0:0:0:0:
17,197,101198,6,0,P|47:266|109:287,1,99.0000030212403,2|0,1:2|0:0,0:0:0:0:
314,311,101492,2,0,P|285:243|216:221,1,116.999994644165,8|0,0:0|0:0,0:0:0:0:
307,68,101785,6,0,P|392:60|434:11,1,116.999994644165,2|0,1:2|0:0,0:0:0:0:
187,10,102079,1,10,0:0:0:0:
201,138,102226,1,2,0:0:0:0:
56,20,102374,5,2,1:2:0:0:
75,154,102521,1,2,0:0:0:0:
129,81,102667,1,10,0:0:0:0:
0,100,102814,1,2,0:0:0:0:
27,284,102962,6,0,P|72:233|202:288,1,175.499991966248,2|0,1:1|0:0,0:0:0:0:
255,271,103256,2,0,P|188:258|170:118,1,175.499991966248,10|0,0:1|0:0,0:0:0:0:
129,81,103550,2,0,P|150:146|38:231,1,175.499991966248,2|0,1:1|0:0,0:0:0:0:
27,284,103845,2,0,P|72:233|153:241,1,116.999994644165,8|0,0:0|0:0,0:0:0:0:
318,286,104139,6,0,P|261:274|226:229,1,116.999994644165,2|0,1:2|0:0,0:0:0:0:
404,41,104432,1,10,0:0:0:0:
386,207,104579,1,2,0:0:0:0:
229,125,104726,6,0,P|287:82|342:83,1,116.999994644165,2|0,1:2|0:0,0:0:0:0:
227,230,105020,2,0,P|161:200|134:152,1,116.999994644165,10|0,0:0|0:0,0:0:0:0:
0,87,105315,6,0,P|84:84|130:23,1,116.999994644165,2|0,1:2|0:0,0:0:0:0:
229,125,105610,2,0,P|232:41|282:0,1,107.999996704102,10|0,0:0|0:0,0:0:0:0:
0,87,105904,5,2,1:2:0:0:
0,87,106051,1,0,0:0:0:0:
125,157,106198,2,0,P|198:152|242:94,1,116.999994644165,8|0,0:0|0:0,0:0:0:0:
374,1,106491,5,10,0:1:0:0:
421,242,106638,1,10,0:0:0:0:
397,126,106785,1,2,0:0:0:0:
397,126,106932,1,2,0:0:0:0:
148,57,107079,5,10,0:1:0:0:
123,264,107226,1,10,0:0:0:0:
138,163,107373,1,2,0:0:0:0:
138,163,107520,1,2,0:0:0:0:
325,384,107667,5,10,0:1:0:0:
275,150,107814,1,10,0:0:0:0:
301,270,107961,1,2,0:0:0:0:
301,270,108110,1,2,0:0:0:0:
20,238,108257,5,10,0:1:0:0:
67,18,108404,1,10,0:0:0:0:
121,169,108551,2,0,P|68:151|38:114,1,90,2|2,0:0|0:0,0:0:0:0:
134,284,108845,6,0,P|190:224|263:239,1,135.000005149842,6|0,1:2|0:0,0:0:0:0:
273,142,109285,1,0,1:2:0:0:
273,142,109432,2,0,P|245:88|246:53,2,67.5000025749208,10|0|0,0:0|1:2|0:0,0:0:0:0:
326,218,109873,1,8,0:0:0:0:
420,226,110020,6,0,P|411:258|392:285,2,67.5000025749208,2|8|0,1:2|0:0|1:2,0:0:0:0:
379,138,110461,1,0,0:0:0:0:
379,138,110610,2,0,P|439:110|500:136,1,135.000005149842,10|0,0:0|1:2,0:0:0:0:
498,134,111051,1,8,0:0:0:0:
464,35,111198,5,6,1:2:0:0:
256,192,111270,12,8,113403,0:0:0:0:
366,36,113551,5,6,1:2:0:0:
142,66,113698,1,2,0:0:0:0:
366,36,113845,1,10,0:0:0:0:
10,138,113992,5,2,0:0:0:0:
277,165,114139,1,6,1:2:0:0:
10,138,114286,1,2,0:0:0:0:
347,244,114433,5,10,0:0:0:0:
127,300,114580,1,2,0:0:0:0:
399,145,114727,6,0,P|406:120|410:92,1,45,10|0,0:0|0:0,0:0:0:0:
370,281,114874,2,0,P|366:309|359:334,1,45,2|0,1:2|0:0,0:0:0:0:
240,68,115021,6,0,P|241:46|232:14,1,45,10|0,0:0|0:0,0:0:0:0:
259,205,115168,2,0,P|267:237|266:258,1,45,2|0,1:2|0:0,0:0:0:0:
127,208,115315,6,0,P|127:184|124:167,1,33.7500012874604,10|0,0:0|0:0,0:0:0:0:
109,201,115389,6,0,P|96:162|79:138,1,36,2|0,0:0|0:0,0:0:0:0:
89,205,115462,6,0,P|58:165|45:156,1,38.2500007295609,2|0,1:2|0:0,0:0:0:0:
69,217,115536,6,0,P|31:194|18:190,1,40.4999987640381,2|0,0:0|0:0,0:0:0:0:
54,235,115610,6,0,P|10:229|-19:235,1,42.7499988584519,10|0,0:0|0:0,0:0:0:0:
50,264,115683,6,0,P|4:276|-5:287,1,45,10|0,0:0|0:0,0:0:0:0:
63,289,115757,6,0,P|26:306|16:319,1,47.2499985580445,10|0,0:0|0:0,0:0:0:0:
95,305,115830,6,0,P|64:345|64:358,1,49.5000015106202,10|0,0:0|0:0,0:0:0:0:
124,301,115904,6,0,P|198:348|288:311,1,135.000005149842,6|2,1:2|0:0,0:0:0:0:
353,125,116198,1,10,0:0:0:0:
212,243,116345,1,2,0:0:0:0:
494,347,116492,2,0,P|442:305|376:304,2,135.000005149842,2|2|10,1:2|1:2|0:0,0:0:0:0:
205,144,116933,6,0,P|218:78|268:35,1,135.000005149842,2|0,0:0|1:2,0:0:0:0:
404,117,117227,2,0,P|391:183|341:226,1,135.000005149842,2|8,0:0|0:0,0:0:0:0:
206,376,117521,2,0,P|135:279|-2:305,1,270.000010299683,2|0,0:0|1:2,0:0:0:0:
242,234,117962,1,10,0:0:0:0:
143,73,118110,1,2,0:0:0:0:
423,195,118257,6,0,P|387:74|305:135,1,270.000010299683,2|10,1:2|0:0,0:0:0:0:
382,294,118698,2,0,P|483:280|530:212,1,135.000005149842,2|0,0:0|1:2,0:0:0:0:
203,138,118992,1,2,1:2:0:0:
301,371,119139,1,10,0:0:0:0:
203,138,119286,1,2,0:0:0:0:
33,272,119433,6,0,P|100:297|185:254,1,135.000005149842,0|0,1:2|0:0,0:0:0:0:
278,360,119727,2,0,P|320:310|323:243,1,135.000005149842,8|0,0:0|0:0,0:0:0:0:
177,35,120021,2,0,P|228:115|332:58,1,202.500007724762,2|0,1:2|0:0,0:0:0:0:
318,89,120316,2,0,P|234:103|192:169,1,135.000005149842,8|0,0:0|0:0,0:0:0:0:
397,262,120610,6,0,P|419:192|352:105,1,135.000005149842,6|0,1:2|0:0,0:0:0:0:
298,298,120904,2,0,P|347:353|456:338,2,135.000005149842,8|0|0,0:0|0:0|1:2,0:0:0:0:
318,89,121345,1,2,1:2:0:0:
211,243,121492,1,10,0:0:0:0:
132,62,121639,1,2,0:0:0:0:
48,351,121786,5,2,1:1:0:0:
47,352,121933,2,0,P|92:303|96:237,1,135.000005149842,0|8,0:0|0:0,0:0:0:0:
0,264,122227,2,0,P|86:235|226:337,1,270.000010299683,2|0,0:1|1:2,0:0:0:0:
444,162,122668,1,8,0:0:0:0:
29,21,122962,5,14,0:3:0:0:
182,176,123110,2,0,P|158:73|96:44,1,135.000005149842,2|2,0:0|0:0,0:0:0:0:
388,272,123404,5,10,0:3:0:0:
177,329,123552,2,0,P|249:251|317:257,1,135.000005149842,2|2,0:0|0:0,0:0:0:0:
400,41,123845,6,0,P|443:93|445:158,1,135.000005149842,10|0,0:3|0:0,0:0:0:0:
313,329,124139,5,6,3:0:0:0:
202,53,124433,1,6,3:0:0:0:
313,329,124727,1,10,0:0:0:0:
375,168,124874,2,0,P|305:190|280:263,1,135,14|2,0:0|0:0,0:0:0:0:
313,329,125168,5,2,0:0:0:0:
313,329,125242,1,2,0:0:0:0:
313,329,125316,2,0,P|226:317|181:231,1,135.000005149842,6|2,1:2|0:0,0:0:0:0:
160,53,125610,1,10,0:0:0:0:
280,241,125757,1,2,0:0:0:0:
38,254,125904,2,0,P|92:183|188:187,2,135.000005149842,2|2|8,1:2|1:2|0:0,0:0:0:0:
255,133,126345,6,0,P|221:75|159:52,1,135.000005149842,2|0,0:0|1:2,0:0:0:0:
144,293,126639,1,2,0:0:0:0:
349,179,126786,1,10,0:0:0:0:
159,52,126933,2,0,P|131:166|233:244,1,270.000010299683,2|0,0:0|1:2,0:0:0:0:
435,189,127374,2,0,P|435:100|388:46,1,135.000005149842,10|0,0:0|0:0,0:0:0:0:
166,370,127668,6,0,P|262:261|402:312,1,270.000010299683,2|10,1:2|0:0,0:0:0:0:
435,189,128110,2,0,P|435:100|388:46,1,135.000005149842,2|0,0:0|1:2,0:0:0:0:
207,107,128404,2,0,P|283:151|353:136,1,135.000005149842,2|8,1:2|0:0,0:0:0:0:
294,27,128698,1,2,0:0:0:0:
284,282,128845,6,0,P|230:242|163:241,2,135.000005149842,0|0|8,1:2|0:0|0:0,0:0:0:0:
89,141,129286,1,0,0:0:0:0:
197,63,129433,1,2,1:2:0:0:
196,88,129506,1,2,0:0:0:0:
204,112,129580,1,2,1:2:0:0:
219,133,129653,1,2,0:0:0:0:
239,148,129727,1,10,0:0:0:0:
263,154,129800,1,2,0:0:0:0:
288,154,129874,1,2,0:0:0:0:
313,144,129947,1,2,0:0:0:0:
329,127,130021,6,0,P|249:98|179:134,1,135.000005149842,6|0,1:2|0:0,0:0:0:0:
309,365,130316,2,0,P|345:302|297:203,1,135.000005149842,8|0,0:0|0:0,0:0:0:0:
72,277,130610,1,0,1:2:0:0:
254,284,130757,1,2,1:2:0:0:
334,111,130904,1,10,0:0:0:0:
309,365,131051,1,2,0:0:0:0:
111,197,131198,6,0,P|181:159|205:93,1,135.000005149842,2|0,1:2|0:0,0:0:0:0:
9,155,131492,1,10,0:0:0:0:
130,312,131639,1,2,0:0:0:0:
96,83,131786,2,0,P|72:58|40:45,2,67.5000025749208,2|0|0,1:2|0:0|1:2,0:0:0:0:
28,271,132080,1,8,0:0:0:0:
428,193,132227,5,2,0:0:0:0:
447,203,132301,1,2,0:0:0:0:
462,220,132374,2,0,P|375:239|269:80,1,270.000010299683,14|0,0:3|0:0,0:0:0:0:
237,384,132816,2,0,P|241:295|66:218,1,270.000010299683,10|0,0:3|0:0,0:0:0:0:
334,228,133257,6,0,P|274:162|358:-9,1,270.000010299683,10|0,0:3|0:0,0:0:0:0:
222,260,133698,2,0,P|147:211|-6:324,1,270.000010299683,10|0,0:3|0:0,0:0:0:0:
450,85,134139,5,10,0:3:0:0:
407,199,134286,5,0,1:2:0:0:
370,313,134433,5,10,0:3:0:0:
315,303,134506,1,0,0:0:0:0:
266,332,134580,1,0,0:0:0:0:
303,8,134727,6,0,P|277:52|65:60,1,270.000010299683,14|0,0:3|0:0,0:0:0:0:
73,306,135168,6,0,P|119:285|296:402,1,270.000010299683,10|0,0:3|0:0,0:0:0:0:
433,198,135610,6,0,P|383:187|309:-11,1,270.000010299683,10|0,0:3|0:0,0:0:0:0:
80,75,136051,6,0,P|114:112|56:317,1,270.000010299683,10|0,0:3|0:0,0:0:0:0:
291,382,136492,6,0,P|286:331|451:199,1,270.000010299683,14|0,0:3|0:0,0:0:0:0:
238,193,137080,5,14,0:0:0:0:
485,151,137521,5,2,1:2:0:0:
230,33,137668,1,14,0:0:0:0:
165,111,138257,5,6,1:2:0:0:
429,49,138404,1,2,0:0:0:0:
165,111,138551,5,14,0:0:0:0:
429,49,138698,1,2,0:0:0:0:
96,193,138845,5,6,1:2:0:0:
312,250,139139,5,8,0:0:0:0:
224,364,139286,1,8,0:0:0:0:
224,364,139360,1,8,0:0:0:0:
224,364,139433,2,0,P|155:291|51:291,1,180,6|0,1:2|3:0,0:0:0:0:
78,283,140021,2,0,P|147:356|251:356,1,180,8|0,0:0|1:2,0:0:0:0:
212,231,140462,5,8,0:0:0:0:
212,231,140610,2,0,P|150:151|163:48,1,180,2|0,1:2|1:2,0:0:0:0:
150,75,141198,2,0,P|212:155|199:258,1,180,8|0,0:0|1:2,0:0:0:0:
405,89,141786,6,0,P|345:74|348:166,1,180,2|0,0:0|3:0,0:0:0:0:
345,164,142154,1,0,3:0:0:0:
345,164,142227,1,0,3:0:0:0:
345,164,142301,1,0,3:0:0:0:
345,164,142374,1,8,0:0:0:0:
352,338,142668,1,0,1:2:0:0:
202,384,142815,5,8,0:0:0:0:
202,384,142962,2,0,P|137:310|41:298,1,180,2|0,1:2|1:2,0:0:0:0:
60,294,143551,2,0,P|110:209|92:114,1,180,10|0,0:0|3:0,0:0:0:0:
329,274,144139,6,0,P|272:207|267:119,1,180,2|0,1:2|3:0,0:0:0:0:
267,119,144727,2,0,P|185:153|100:131,1,180,8|0,0:0|1:2,0:0:0:0:
63,228,145168,1,8,0:0:0:0:
63,228,145315,6,0,P|141:279|156:367,1,180,2|0,1:2|1:2,0:0:0:0:
157,359,145904,2,0,P|162:265|230:208,1,180,8|0,0:0|1:2,0:0:0:0:
426,302,146492,6,0,P|342:344|258:313,1,180,2|2,1:2|3:0,0:0:0:0:
275,326,146860,1,0,3:0:0:0:
275,326,146933,1,0,3:0:0:0:
275,326,147007,1,0,3:0:0:0:
275,326,147080,1,10,0:0:0:0:
325,155,147374,1,2,1:2:0:0:
197,268,147668,5,2,3:0:0:0:
197,268,147742,1,0,3:0:0:0:
197,268,147815,1,0,3:0:0:0:
197,268,147889,1,0,3:0:0:0:
197,268,147962,1,0,3:0:0:0:
197,268,148036,1,0,3:0:0:0:
197,268,148109,1,0,3:0:0:0:
197,268,148183,1,0,3:0:0:0:
197,268,148257,1,10,0:0:0:0:
197,268,148331,1,0,3:0:0:0:
197,268,148404,1,0,3:0:0:0:
197,268,148478,1,0,3:0:0:0:
197,268,148551,1,0,3:0:0:0:
197,268,148625,1,0,3:0:0:0:
197,268,148698,1,0,3:0:0:0:
197,268,148772,1,0,3:0:0:0:
197,268,148845,6,0,P|147:189|44:200,1,180,6|2,1:2|3:0,0:0:0:0:
67,185,149212,1,0,3:0:0:0:
67,185,149286,1,0,3:0:0:0:
67,185,149360,1,0,3:0:0:0:
67,185,149433,1,10,0:0:0:0:
271,119,149727,1,2,0:0:0:0:
372,291,149874,5,8,0:0:0:0:
372,291,150021,2,0,P|290:232|210:235,1,180,2|0,1:2|1:2,0:0:0:0:
285,10,150610,2,0,P|243:102|172:139,1,180,10|0,0:0|1:2,0:0:0:0:
15,197,151051,5,2,0:0:0:0:
9,225,151124,1,2,0:0:0:0:
3,250,151198,2,0,P|63:243|170:318,1,180,2|0,1:2|3:0,0:0:0:0:
161,303,151565,1,0,3:0:0:0:
161,303,151639,1,0,3:0:0:0:
161,303,151712,1,0,3:0:0:0:
161,303,151786,1,8,0:0:0:0:
286,184,152080,1,2,1:2:0:0:
427,260,152227,5,10,0:0:0:0:
427,260,152374,2,0,P|441:178|509:112,1,180,2|0,1:2|1:2,0:0:0:0:
298,8,152962,2,0,P|383:34|467:6,1,180,10|0,0:0|1:2,0:0:0:0:
303,195,153551,6,0,P|247:171|192:52,1,180,2|0,1:2|3:0,0:0:0:0:
192,70,153918,1,0,3:0:0:0:
192,70,153992,1,0,3:0:0:0:
192,70,154065,1,0,3:0:0:0:
192,70,154139,1,8,0:0:0:0:
47,49,154433,1,2,1:2:0:0:
97,198,154580,5,10,0:0:0:0:
97,198,154727,2,0,P|152:221|207:340,2,180,2|2|10,1:2|1:2|0:0,0:0:0:0:
413,320,155904,6,0,P|357:296|302:177,1,180,2|2,1:2|3:0,0:0:0:0:
302,195,156271,1,0,3:0:0:0:
302,195,156345,1,2,3:0:0:0:
302,195,156418,1,0,3:0:0:0:
302,195,156492,1,10,0:0:0:0:
270,27,156639,5,2,0:0:0:0:
242,133,156786,1,2,1:2:0:0:
210,239,156933,1,10,0:0:0:0:
210,239,157080,6,0,P|109:259|68:357,1,180,2|2,1:2|1:2,0:0:0:0:
430,112,157668,2,0,P|329:92|288:-6,1,180,10|2,0:0|1:2,0:0:0:0:
471,297,158257,6,0,P|321:241|331:386,1,360,6|0,1:1|0:0,0:0:0:0:
470,326,159286,1,2,0:0:0:0:
475,312,159360,1,2,0:0:0:0:
471,297,159433,2,0,P|320:243|420:138,1,360,6|6,0:1|0:0,0:0:0:0:
256,192,174727,12,0,176492,0:0:0:0:
153,251,177080,6,0,P|273:252|327:148,1,240,14|2,0:0|3:0,0:0:0:0:
460,329,178183,1,2,0:0:0:0:
448,345,178257,2,0,P|328:346|274:242,1,240,2|2,3:0|3:0,0:0:0:0:
46,96,179433,5,2,1:2:0:0:
48,125,179727,1,0,1:2:0:0:
50,155,180021,1,0,1:2:0:0:
52,185,180315,1,2,1:2:0:0:
218,235,180610,5,2,1:2:0:0:
215,264,180904,1,0,1:2:0:0:
213,294,181198,1,0,1:2:0:0:
211,324,181492,1,0,1:2:0:0:
354,160,181786,5,6,0:1:0:0:
355,174,181859,1,2,0:0:0:0:
356,188,181933,1,2,0:0:0:0:
357,202,182006,1,2,0:0:0:0:
358,216,182080,1,2,0:0:0:0:
360,230,182153,1,2,0:0:0:0:
361,244,182227,1,2,0:0:0:0:
362,258,182300,1,2,0:0:0:0:
363,272,182374,1,2,0:0:0:0:
365,286,182447,1,2,0:0:0:0:
366,300,182521,1,2,0:0:0:0:
367,314,182594,1,2,0:0:0:0:
368,328,182668,1,2,0:0:0:0:
370,342,182741,1,2,0:0:0:0:
371,356,182815,1,2,0:0:0:0:
372,370,182888,1,2,0:0:0:0:
372,384,182962,5,6,1:1:0:0:
282,373,183110,1,2,0:0:0:0:
224,299,183257,1,2,0:0:0:0:
145,349,183404,1,2,0:0:0:0:
55,312,183551,5,6,0:0:0:0:
50,330,183624,1,2,0:0:0:0:
60,349,183698,1,2,0:0:0:0:
77,356,183771,1,2,0:0:0:0:
95,352,183845,1,2,0:0:0:0:
137,306,183918,1,2,0:0:0:0:
136,243,183992,1,2,0:0:0:0:
92,195,184065,1,2,0:0:0:0:
21,182,184139,6,0,P|-11:124|0:58,1,135.000005149842,6|0,1:2|0:0,0:0:0:0:
271,222,184433,1,10,0:0:0:0:
91,102,184580,1,2,0:0:0:0:
295,8,184727,2,0,P|354:72|334:167,2,135.000005149842,2|2|10,1:2|1:2|0:0,0:0:0:0:
269,265,185168,6,0,P|332:286|394:264,1,135.000005149842,2|0,0:0|1:2,0:0:0:0:
216,115,185462,1,2,0:0:0:0:
191,384,185609,1,10,0:0:0:0:
469,328,185756,2,0,P|398:231|273:260,1,270.000010299683,2|0,0:0|1:2,0:0:0:0:
16,263,186198,2,0,P|101:257|141:204,1,135.000005149842,10|0,0:0|0:0,0:0:0:0:
355,189,186492,6,0,P|319:310|237:249,1,270.000010299683,2|10,1:2|0:0,0:0:0:0:
364,42,186933,2,0,P|291:111|214:122,1,135.000005149842,2|0,0:0|1:2,0:0:0:0:
64,0,187227,1,2,1:2:0:0:
124,310,187374,1,10,0:0:0:0:
64,0,187521,1,2,0:0:0:0:
361,241,187668,6,0,P|294:266|209:223,1,135.000005149842,0|0,1:2|0:0,0:0:0:0:
124,310,187962,2,0,P|82:260|79:193,1,135.000005149842,8|0,0:0|0:0,0:0:0:0:
302,80,188256,2,0,P|251:160|147:103,1,202.500007724762,2|0,1:2|0:0,0:0:0:0:
161,134,188551,2,0,P|245:148|287:214,1,135.000005149842,8|0,0:0|0:0,0:0:0:0:
202,384,188845,6,0,P|180:314|247:227,1,135.000005149842,6|0,1:2|0:0,0:0:0:0:
408,213,189139,2,0,P|359:268|250:253,1,135.000005149842,8|0,0:0|0:0,0:0:0:0:
157,191,189433,1,0,1:2:0:0:
102,87,189580,1,2,1:2:0:0:
109,289,189727,1,10,0:0:0:0:
276,182,189874,1,2,0:0:0:0:
274,379,190021,5,2,1:1:0:0:
275,380,190168,2,0,P|230:331|226:265,1,135.000005149842,0|8,0:0|0:0,0:0:0:0:
422,62,190462,2,0,P|373:139|206:142,1,270.000010299683,2|0,0:1|1:2,0:0:0:0:
71,0,190903,1,8,0:0:0:0:
74,298,191198,5,14,0:3:0:0:
162,235,191345,1,2,0:0:0:0:
122,134,191492,1,2,0:0:0:0:
346,22,191639,5,14,0:3:0:0:
273,140,191786,1,2,0:0:0:0:
356,251,191933,1,2,0:0:0:0:
276,384,192080,6,0,P|224:341|159:339,1,135.000005149842,14|2,0:3|0:0,0:0:0:0:
25,153,192374,5,6,3:0:0:0:
293,260,192668,1,6,3:0:0:0:
25,153,192962,5,10,0:0:0:0:
293,260,193109,2,0,P|315:190|388:165,1,135,14|2,0:0|0:0,0:0:0:0:
454,198,193403,5,2,0:0:0:0:
454,198,193477,1,2,0:0:0:0:
454,198,193551,2,0,P|442:111|356:66,1,135.000005149842,6|2,1:2|0:0,0:0:0:0:
170,87,193845,1,10,0:0:0:0:
293,260,193992,1,2,0:0:0:0:
74,292,194139,2,0,P|128:221|224:225,2,135.000005149842,2|2|10,1:2|1:2|0:0,0:0:0:0:
346,191,194580,6,0,P|288:157|265:95,1,135.000005149842,2|0,0:0|1:2,0:0:0:0:
432,159,194874,1,2,0:0:0:0:
234,354,195021,1,10,0:0:0:0:
136,108,195168,2,0,P|247:85|348:209,1,270.000010299683,2|0,0:0|1:2,0:0:0:0:
359,296,195609,1,10,0:0:0:0:
125,207,195756,1,2,0:0:0:0:
214,5,195903,6,0,P|136:106|14:69,1,270.000010299683,2|10,1:2|0:0,0:0:0:0:
226,257,196345,2,0,P|270:333|256:403,1,135.000005149842,2|0,0:0|1:2,0:0:0:0:
347,193,196639,2,0,P|391:116|459:93,1,135.000005149842,2|8,1:2|0:0,0:0:0:0:
228,115,196933,1,2,0:0:0:0:
432,297,197080,6,0,P|397:359|304:381,1,135.000005149842,0|0,1:2|0:0,0:0:0:0:
164,340,197374,2,0,P|100:328|54:280,1,135.000005149842,8|0,0:0|0:0,0:0:0:0:
237,86,197668,1,2,1:2:0:0:
262,85,197741,1,2,0:0:0:0:
286,93,197815,1,2,1:2:0:0:
307,108,197888,1,2,0:0:0:0:
322,128,197962,1,10,0:0:0:0:
328,152,198035,1,2,0:0:0:0:
328,177,198109,1,2,0:0:0:0:
318,202,198182,1,2,0:0:0:0:
301,218,198256,6,0,P|272:138|308:68,1,135.000005149842,6|0,1:2|0:0,0:0:0:0:
509,149,198551,2,0,P|440:172|353:104,1,135.000005149842,8|0,0:0|0:0,0:0:0:0:
155,39,198845,1,0,1:2:0:0:
403,15,198992,1,2,1:2:0:0:
306,238,199139,1,10,0:0:0:0:
155,39,199286,1,2,0:0:0:0:
47,200,199433,6,0,P|122:170|187:194,1,135.000005149842,2|0,1:2|0:0,0:0:0:0:
0,361,199727,1,10,0:0:0:0:
53,74,199874,1,2,0:0:0:0:
265,262,200021,5,2,1:2:0:0:
265,262,200168,1,0,1:2:0:0:
421,34,200315,1,8,0:0:0:0:
89,284,200462,5,2,0:0:0:0:
70,296,200536,1,2,0:0:0:0:
48,300,200609,2,0,P|74:215|265:203,1,270.000010299683,14|0,3:0|0:0,0:0:0:0:
248,4,201051,2,0,P|274:89|465:101,1,270.000010299683,10|0,3:0|0:0,0:0:0:0:
105,185,201492,6,0,P|192:166|298:325,1,270.000010299683,14|0,3:0|0:0,0:0:0:0:
302,116,201933,2,0,P|389:136|495:-23,1,270.000010299683,10|0,3:0|0:0,0:0:0:0:
209,204,202374,5,14,3:0:0:0:
209,204,202668,5,10,0:0:0:0:
154,214,202741,1,8,0:0:0:0:
105,185,202815,1,8,0:0:0:0:
81,133,202888,1,8,0:0:0:0:
92,76,202962,1,14,0:0:0:0:
256,192,203036,12,2,204139,0:0:0:0:
211,127,204727,6,0,P|304:254|297:127,1,405.000015449525,2|0,0:0|0:0,0:0:0:0:
256,192,205315,5,14,0:0:0:0:
438,313,205756,5,2,1:2:0:0:
256,216,205903,1,14,0:0:0:0:
60,320,206492,5,6,1:2:0:0:
256,192,206639,1,2,0:0:0:0:
438,313,206786,5,14,0:0:0:0:
256,216,206933,1,2,0:0:0:0:
60,320,207080,5,6,1:2:0:0:
211,114,207374,5,8,0:0:0:0:
159,126,207447,1,8,0:0:0:0:
124,166,207521,1,8,0:0:0:0:
119,219,207594,1,8,0:0:0:0:
145,265,207668,1,14,0:0:0:0:
364,266,208109,5,2,1:2:0:0:
68,104,208256,1,14,0:0:0:0:
145,265,208845,5,6,1:2:0:0:
414,101,208992,1,2,0:0:0:0:
257,13,209139,5,14,0:0:0:0:
490,238,209286,1,2,0:0:0:0:
239,309,209433,5,14,1:2:0:0:
214,258,209506,1,8,0:0:0:0:
220,208,209580,1,8,0:0:0:0:
251,167,209653,1,8,0:0:0:0:
296,143,209727,1,8,0:0:0:0:
349,144,209800,1,8,0:0:0:0:
393,169,209874,1,8,0:0:0:0:
422,213,209947,1,8,0:0:0:0:
420,267,210021,6,0,P|390:227|445:128,2,135.000005149842,6|2|10,1:2|0:0|0:0,0:0:0:0:
305,163,210463,2,0,P|249:150|179:186,1,116.999994644165,2|0,0:0|1:2,0:0:0:0:
119,49,210757,2,0,P|90:98|102:175,1,116.999994644165,2|8,1:2|0:0,0:0:0:0:
207,267,211051,1,2,0:0:0:0:
36,384,211198,6,0,P|89:361|124:292,1,116.999994644165,2|0,1:2|0:0,0:0:0:0:
30,291,211492,1,10,0:0:0:0:
248,369,211639,2,0,P|243:311|206:266,1,116.999994644165,2|0,0:0|1:2,0:0:0:0:
188,144,211933,5,2,1:2:0:0:
400,117,212080,1,8,0:0:0:0:
293,55,212227,1,0,0:0:0:0:
318,309,212374,6,0,P|287:270|343:170,2,135.000005149842,2|2|10,1:2|0:0|0:0,0:0:0:0:
494,235,212816,2,0,P|438:222|368:258,1,116.999994644165,2|0,0:0|1:2,0:0:0:0:
202,277,213110,2,0,P|173:326|185:403,1,116.999994644165,2|8,1:2|0:0,0:0:0:0:
383,242,213404,1,2,0:0:0:0:
103,161,213551,6,0,P|126:108|195:73,1,116.999994644165,2|0,1:2|0:0,0:0:0:0:
197,169,213845,5,10,0:0:0:0:
249,196,213992,1,2,0:0:0:0:
314,170,214139,1,2,1:2:0:0:
366,117,214286,1,2,1:2:0:0:
445,106,214433,1,10,0:0:0:0:
507,161,214580,1,2,0:0:0:0:
512,246,214727,6,0,P|475:280|512:387,2,135.000005149842,2|2|10,1:2|0:0|0:0,0:0:0:0:
342,312,215169,2,0,P|345:254|297:191,1,116.999994644165,2|0,0:0|1:2,0:0:0:0:
251,373,215463,2,0,P|306:356|349:289,1,116.999994644165,2|8,1:2|0:0,0:0:0:0:
157,244,215757,1,2,0:0:0:0:
277,108,215904,6,0,P|228:79|151:91,1,116.999994644165,2|0,1:2|0:0,0:0:0:0:
135,255,216198,1,10,0:0:0:0:
363,144,216345,2,0,P|363:88|314:27,1,116.999994644165,2|0,0:0|1:2,0:0:0:0:
169,82,216639,6,0,P|116:75|71:102,2,107.999996704102,2|8|2,1:2|0:0|0:0,0:0:0:0:
229,251,217080,5,2,1:2:0:0:
222,155,217227,1,2,0:0:0:0:
308,203,217374,5,10,0:0:0:0:
255,140,217521,1,2,0:0:0:0:
335,124,217668,5,2,1:2:0:0:
267,110,217816,1,2,1:2:0:0:
299,59,217963,5,10,0:0:0:0:
270,73,218110,1,2,0:0:0:0:
422,279,218257,6,0,P|444:274|467:275,1,45,10|0,0:2|0:0,0:0:0:0:
495,289,218404,2,0,P|473:294|450:293,1,45,2|0,1:2|0:0,0:0:0:0:
299,305,218551,6,0,P|330:316|356:338,1,67.5000025749208,10|0,0:0|0:0,0:0:0:0:
367,359,218698,2,0,P|336:348|310:326,1,67.5000025749208,2|0,0:0|0:0,0:0:0:0:
143,266,218845,6,0,P|171:302|184:345,1,90,2|0,1:2|0:0,0:0:0:0:
183,365,218992,2,0,P|154:330|141:287,1,90,2|0,1:2|0:0,0:0:0:0:
22,130,219140,6,0,P|30:186|15:240,1,112.5,10|0,0:0|0:0,0:0:0:0:
3,256,219286,2,0,P|-4:201|9:147,1,112.5,2|0,0:0|0:0,0:0:0:0:
354,236,219433,6,0,P|367:292|340:346,1,90,14|2,0:0|1:2,0:0:0:0:
159,168,219727,1,10,0:0:0:0:
332,31,219874,1,2,1:2:0:0:
232,293,220021,6,0,P|177:277|144:227,1,90,10|2,0:0|1:2,0:0:0:0:
293,145,220315,1,10,0:0:0:0:
436,267,220462,1,2,1:2:0:0:
293,56,220609,5,14,0:0:0:0:
170,347,220756,1,2,1:2:0:0:
57,38,220903,5,14,0:0:0:0:
170,378,221051,1,2,1:2:0:0:
370,132,221198,5,14,0:0:0:0:
1,267,221345,1,2,1:2:0:0:
436,344,221492,5,14,0:0:0:0:
49,178,221639,1,2,1:2:0:0:
453,110,221786,6,0,B|463:17|348:-24|297:49|297:49|259:-38|121:-11|126:98|126:98|135:202|273:293|273:293|418:241|434:189|434:189|403:322|607:351|442:460|355:402|366:317|422:297|455:298,1,1300.50002480507,14|0,0:0|0:0,0:0:0:0:
