osu file format v14

[General]
AudioFilename: audio.mp3
AudioLeadIn: 0
PreviewTime: 115242
Countdown: 0
SampleSet: Soft
StackLeniency: 0.3
Mode: 0
LetterboxInBreaks: 0
WidescreenStoryboard: 1

[Editor]
DistanceSpacing: 1
BeatDivisor: 4
GridSize: 32
TimelineZoom: 3.399999

[Metadata]
Title:True truly love
TitleUnicode:True truly love
Artist:Horie Yui
ArtistUnicode:堀江由衣
Creator:[Karcher]
Version:Koori's Insane
Source:DIVINA
Tags:divina online ディビーナ MMORPG theme song opening 秘密 Himitsu video game jpop pop j-pop japanese riana miyohashikoori
BeatmapID:2953364
BeatmapSetID:1415113

[Difficulty]
HPDrainRate:5
CircleSize:4
OverallDifficulty:8
ApproachRate:9
SliderMultiplier:1.8
SliderTickRate:1

[Events]
//Background and Video events
0,0,"cute_suimya.jpg",0,0
//Break Periods
2,160810,178833
//Storyboard Layer 0 (Background)
//Storyboard Layer 1 (Fail)
//Storyboard Layer 2 (Pass)
//Storyboard Layer 3 (Foreground)
//Storyboard Layer 4 (Overlay)
//Storyboard Sound Samples

[TimingPoints]
610,294.117647058824,4,2,1,45,1,0
610,-400,4,2,1,45,0,0
1786,-200,4,2,1,45,0,0
2962,-133.333333333333,4,2,1,45,0,0
4139,-100,4,2,1,45,0,0
5315,-100,4,2,1,65,0,0
12374,-100,4,2,1,70,0,0
12668,-111.111111111111,4,2,1,65,0,0
12962,-125,4,2,1,60,0,0
13257,-142.857142857143,4,2,1,55,0,0
13551,-166.666666666667,4,2,1,50,0,0
13845,-200,4,2,1,45,0,0
14139,-250,4,2,1,40,0,0
14433,-333.333333333333,4,2,1,40,0,0
14727,-133.333333333333,4,2,1,50,0,0
24139,-133.333333333333,4,2,1,60,0,0
25315,-200,4,2,1,50,0,0
32374,-200,4,2,1,60,0,0
33551,-80,4,2,1,60,0,0
34139,-100,4,2,1,60,0,0
41786,-66.6666666666667,4,2,1,70,0,0
44139,-200,4,2,1,50,0,0
44727,-133.333333333333,4,2,1,50,0,0
45315,-100,4,2,1,50,0,0
45904,-83.3333333333333,4,2,1,50,0,0
46492,-100,4,2,1,50,0,0
48845,-100,4,2,1,65,0,0
50021,-133.333333333333,4,2,1,65,0,0
51198,-100,4,2,1,75,0,1
59433,-80,4,2,1,75,0,1
60610,-100,4,2,1,75,0,1
67521,-100,4,2,2,75,0,1
67668,-200,4,2,1,75,0,0
68110,-166.666666666667,4,2,1,75,0,0
68551,-142.857142857143,4,2,1,75,0,0
68992,-125,4,2,1,75,0,0
69433,-200,4,2,1,75,0,0
70021,-200,4,2,1,60,0,0
72301,-200,4,2,1,5,0,0
72374,-66.6666666666667,4,2,1,60,0,0
74727,-100,4,2,1,60,0,0
79433,-200,4,2,1,45,0,0
88845,-200,4,2,1,60,0,0
90021,-200,4,2,1,50,0,0
93845,-166.666666666667,4,2,1,50,0,0
94139,-142.857142857143,4,2,1,50,0,0
94433,-125,4,2,1,50,0,0
94727,-200,4,2,1,50,0,0
97080,-200,4,2,1,60,0,0
98257,-80,4,2,1,60,0,0
98845,-100,4,2,1,60,0,0
106492,-66.6666666666667,4,2,1,70,0,0
108845,-200,4,2,1,50,0,0
109433,-133.333333333333,4,2,1,50,0,0
110021,-100,4,2,1,50,0,0
110610,-83.3333333333333,4,2,1,50,0,0
111198,-100,4,2,1,50,0,0
113551,-100,4,2,1,65,0,0
114727,-133.333333333333,4,2,1,65,0,0
115315,-100,4,2,1,65,0,0
115904,-100,4,2,1,75,0,1
124139,-80,4,2,1,75,0,1
125315,-100,4,2,1,75,0,1
132227,-100,4,2,2,75,0,1
132374,-200,4,2,1,75,0,0
132815,-166.666666666667,4,2,1,75,0,0
133257,-142.857142857143,4,2,1,75,0,0
133698,-125,4,2,1,75,0,0
134139,-200,4,2,1,75,0,0
134727,-133.333333333333,4,2,1,75,0,0
135168,-133.333333333333,4,2,1,75,0,0
135610,-100,4,2,1,75,0,0
136051,-80,4,2,1,75,0,0
136492,-200,4,2,1,75,0,0
137080,-66.6666666666667,4,2,1,60,0,0
139433,-133.333333333333,4,2,1,55,0,0
148845,-133.333333333333,4,2,1,60,0,0
160610,-133.333333333333,4,2,1,45,0,0
174727,-133.333333333333,4,2,1,55,0,0
177080,-133.333333333333,4,2,1,55,0,0
179433,-200,4,2,1,55,0,0
180610,-100,4,2,1,55,0,0
181786,-100,4,2,1,60,0,0
182962,-200,4,2,1,60,0,0
183551,-133.333333333333,4,2,1,65,0,0
183845,-133.333333333333,4,2,1,70,0,0
184139,-100,4,2,1,75,0,1
192374,-80,4,2,1,75,0,1
193551,-100,4,2,1,75,0,1
200462,-100,4,2,2,75,0,1
200610,-200,4,2,1,75,0,0
201051,-166.666666666667,4,2,1,75,0,0
201492,-142.857142857143,4,2,1,75,0,0
201933,-125,4,2,1,75,0,0
202374,-200,4,2,1,75,0,0
202668,-100,4,2,1,75,0,0
202962,-200,4,2,1,60,0,0
205242,-200,4,2,1,5,0,0
205315,-66.6666666666667,4,2,1,60,0,0
210021,-100,4,2,1,65,0,0
217080,-100,4,2,1,70,0,0
217374,-111.111111111111,4,2,1,65,0,0
217668,-125,4,2,1,60,0,0
217962,-142.857142857143,4,2,1,55,0,0
218257,-100,4,2,1,50,0,1
218404,-100,4,2,1,55,0,1
218551,-100,4,2,1,60,0,1
218698,-100,4,2,1,65,0,1
218845,-100,4,2,1,70,0,1
218992,-100,4,2,1,75,0,1
219139,-100,4,2,1,80,0,1
219286,-100,4,2,1,85,0,1
219433,-200,4,2,1,70,0,1
220021,-100,4,2,1,70,0,1
220610,-100,4,2,1,85,0,1
221786,-100,4,2,1,70,0,0

[Colours]
Combo1 : 255,225,193
Combo2 : 183,163,224

[HitObjects]
43,291,610,6,0,L|50:335,3,45,2|2|2|2,0:0|0:0|0:0|0:0,0:0:0:0:
229,264,1786,6,0,L|217:369,3,90,2|2|2|2,0:0|0:0|0:0|0:0,0:0:0:0:
103,167,2962,6,0,L|83:21,3,135.000005149842,2|2|2|2,0:0|0:0|0:0|0:0,0:0:0:0:
297,147,4139,6,0,L|308:91,11,45,2|0|0|0|0|0|0|0|0|0|0|0,0:0|0:0|0:0|0:0|0:0|0:0|0:0|0:0|0:0|0:0|0:0|0:0,0:0:0:0:
378,27,5021,1,2,0:0:0:0:
402,39,5095,1,2,0:0:0:0:
415,61,5168,1,2,0:0:0:0:
418,87,5242,1,2,0:0:0:0:
412,113,5315,6,0,P|378:180|292:122,1,180,6|10,1:2|0:0,0:0:0:0:
360,270,5757,2,0,B|347:229|370:184|370:184|424:158|410:106,1,180,2|2,0:0|1:2,0:0:0:0:
252,63,6198,1,8,0:0:0:0:
296,146,6345,1,2,0:0:0:0:
146,76,6492,6,0,P|151:23|190:-10,1,90,2|0,1:2|0:0,0:0:0:0:
139,157,6786,1,10,0:0:0:0:
63,178,6933,2,0,P|23:142|13:72,1,90,2|0,0:0|1:2,0:0:0:0:
92,252,7227,1,2,1:2:0:0:
28,298,7374,1,8,0:0:0:0:
100,334,7521,1,0,0:0:0:0:
10,292,7668,6,0,B|52:266|97:273|97:273|106:283|106:283|151:295|194:260,1,180,2|10,1:2|0:0,0:0:0:0:
296,204,8110,2,0,B|309:149|251:120|251:120|231:158|170:163,1,180,2|2,0:0|1:2,0:0:0:0:
90,76,8551,1,8,0:0:0:0:
103,154,8698,1,2,0:0:0:0:
208,31,8845,6,0,B|257:1|322:21|292:35|343:53|402:20,1,180,2|10,1:2|0:0,0:0:0:0:
491,157,9286,2,0,B|479:132|438:133|438:133|399:167|348:134,1,135,2|0,0:0|0:0,0:0:0:0:
353,130,9580,1,2,1:2:0:0:
414,269,9727,2,0,P|472:260|500:214,1,90,8|0,0:0|0:0,0:0:0:0:
280,161,10021,6,0,L|301:348,1,180,2|10,1:2|0:0,0:0:0:0:
98,314,10462,2,0,P|138:322|166:205,1,180,2|2,0:0|1:2,0:0:0:0:
0,216,10904,1,8,0:0:0:0:
22,290,11051,1,2,0:0:0:0:
87,136,11198,6,0,B|-10:112,1,90,2|0,1:2|0:0,0:0:0:0:
166,53,11492,1,10,0:0:0:0:
151,178,11639,2,0,B|122:211|122:211|55:221,1,90,2|0,0:0|1:2,0:0:0:0:
166,53,11933,1,2,1:2:0:0:
243,97,12080,1,8,0:0:0:0:
246,7,12227,1,2,0:0:0:0:
340,156,12374,6,0,L|346:49,1,90,2|2,1:2|0:0,0:0:0:0:
441,195,12668,6,0,L|438:107,1,80.9999975280763,10|2,0:0|0:0,0:0:0:0:
334,227,12962,6,0,L|339:155,1,72,2|2,1:2|1:2,0:0:0:0:
444,257,13257,6,0,L|440:188,1,62.9999980773926,10|2,0:0|0:0,0:0:0:0:
345,368,13551,6,0,L|403:361,1,53.9999983520508,10|2,0:0|1:2,0:0:0:0:
289,232,13845,6,0,L|333:227,1,45,10|2,0:0|1:2,0:0:0:0:
224,336,14139,6,0,L|267:329,1,36,2|2,1:2|1:2,0:0:0:0:
257,117,14433,6,0,L|265:96,3,13.4999995880127,10|2|2|2,0:0|0:0|0:0|0:0,0:0:0:0:
176,160,14727,6,0,B|146:200|146:200|175:293,2,135.000005149842,6|10|2,1:2|0:0|1:2,0:0:0:0:
176,160,15610,1,10,0:0:0:0:
247,90,15757,2,0,L|231:7,1,67.5000025749208,2|0,0:0|1:2,0:0:0:0:
273,202,16051,2,0,L|260:268,1,67.5000025749208,2|8,0:0|0:0,0:0:0:0:
89,333,16345,1,2,0:0:0:0:
181,347,16492,2,0,L|170:272,1,67.5000025749208,2|0,1:2|0:0,0:0:0:0:
46,98,16786,2,0,B|25:126|25:126|41:208,1,101.250003862381,10|0,0:0|0:0,0:0:0:0:
37,191,17080,6,0,P|66:205|103:205,1,67.5000025749208,2|0,1:2|0:0,0:0:0:0:
166,80,17374,2,0,P|139:98|120:130,1,67.5000025749208,10|0,0:0|0:0,0:0:0:0:
206,243,17668,2,0,P|203:210|185:178,1,67.5000025749208,2|0,1:2|0:0,0:0:0:0:
324,97,17962,1,10,0:0:0:0:
280,170,18110,1,2,0:0:0:0:
229,19,18257,6,0,L|298:8,1,67.5000025749208,0|0,1:2|0:0,0:0:0:0:
406,133,18551,1,8,0:0:0:0:
324,97,18698,1,0,0:0:0:0:
482,30,18845,2,0,B|477:87|477:87|489:110|489:110|482:177,1,135.000005149842,2|8,1:2|0:0,0:0:0:0:
474,177,19433,6,0,L|466:249,1,67.5000025749208,2|2,1:2|0:0,0:0:0:0:
414,307,19727,1,8,0:0:0:0:
500,322,19874,1,2,0:0:0:0:
339,349,20021,2,0,P|327:317|332:284,1,67.5000025749208,2|0,1:2|0:0,0:0:0:0:
388,223,20315,1,10,0:0:0:0:
336,150,20462,2,0,L|257:144,1,67.5000025749208,2|0,0:0|1:2,0:0:0:0:
132,61,20757,5,2,0:0:0:0:
151,146,20904,1,10,0:0:0:0:
175,230,21051,1,2,0:0:0:0:
19,223,21198,2,0,L|92:213,1,67.5000025749208,2|0,1:2|0:0,0:0:0:0:
177,323,21492,2,0,L|103:313,1,67.5000025749208,10|0,0:0|0:0,0:0:0:0:
295,213,21786,6,0,B|275:256|295:295|306:277|318:315|297:360,1,135.000005149842,2|8,1:2|0:0,0:0:0:0:
380,238,22227,1,2,0:0:0:0:
442,178,22374,2,0,P|454:145|448:113,1,67.5000025749208,2|0,1:2|0:0,0:0:0:0:
326,61,22668,2,0,P|314:94|320:126,1,67.5000025749208,8|0,0:0|0:0,0:0:0:0:
443,307,22962,6,0,B|462:240|462:240|433:152,2,135.000005149842,0|8|0,1:2|0:0|1:2,0:0:0:0:
285,322,23698,1,0,0:0:0:0:
362,366,23845,1,8,0:0:0:0:
367,285,23992,1,8,0:0:0:0:
367,285,24065,1,8,0:0:0:0:
367,285,24139,5,0,1:2:0:0:
256,192,24212,12,0,25242,0:0:0:0:
134,48,25315,6,0,L|122:102,1,45,6|2,1:2|0:0,0:0:0:0:
111,165,25610,1,10,0:0:0:0:
92,253,25757,2,0,L|115:145,1,90,10|2,0:0|1:2,0:0:0:0:
205,130,26198,2,0,L|193:184,1,45,10|0,0:0|0:0,0:0:0:0:
134,48,26492,5,2,1:2:0:0:
227,10,26639,1,2,0:0:0:0:
298,168,26786,1,10,0:0:0:0:
205,130,26933,1,10,0:0:0:0:
323,67,27080,2,0,L|373:69,1,45,2|0,1:2|0:0,0:0:0:0:
506,0,27374,6,0,P|503:41|460:73,1,90,8|2,0:0|1:2,0:0:0:0:
412,146,27815,1,2,0:0:0:0:
467,212,27962,2,0,L|470:262,1,45,10|8,0:0|0:0,0:0:0:0:
508,347,28257,1,2,0:0:0:0:
508,347,28330,1,2,0:0:0:0:
508,347,28404,1,2,1:2:0:0:
428,332,28551,1,10,0:0:0:0:
348,317,28698,1,2,0:0:0:0:
270,210,28845,6,0,P|275:158|314:134,1,90,2|2,3:0|3:0,0:0:0:0:
321,139,29433,2,0,L|373:141,1,45,2|2,3:0|0:0,0:0:0:0:
351,53,29727,2,0,L|299:51,1,45,2|2,3:0|0:0,0:0:0:0:
187,34,30021,6,0,B|180:62|180:62|194:94,1,45,6|2,1:2|0:0,0:0:0:0:
150,182,30315,1,10,0:0:0:0:
74,173,30462,1,8,0:0:0:0:
30,109,30610,2,0,P|27:84|38:53,1,45,2|2,0:0|1:2,0:0:0:0:
74,173,30904,1,10,0:0:0:0:
158,265,31051,6,0,P|165:213|143:175,1,90,2|2,0:0|0:0,0:0:0:0:
47,289,31492,2,0,L|38:341,1,45,10|8,0:0|0:0,0:0:0:0:
135,352,31786,1,2,0:0:0:0:
158,265,31933,1,2,1:2:0:0:
231,233,32080,1,10,0:0:0:0:
279,337,32227,1,2,0:0:0:0:
402,340,32374,5,14,0:0:0:0:
425,199,32962,5,14,0:0:0:0:
309,51,33551,6,0,B|343:67|383:37|383:37|409:82|456:76,1,168.75,14|0,0:0|0:0,0:0:0:0:
285,137,33845,6,0,B|332:130|358:175|358:175|398:145|433:162,1,168.75,14|0,0:0|0:0,0:0:0:0:
475,336,34139,6,0,B|441:329|420:296|420:296|374:282|334:315|334:315|312:272|263:275|263:275|232:306|167:290,1,315,14|0,0:0|3:0,0:0:0:0:
145,233,34727,6,0,P|126:204|145:153,1,90,6|0,1:2|0:0,0:0:0:0:
288,126,35021,2,0,P|272:156|218:166,1,90,10|0,0:0|0:0,0:0:0:0:
118,47,35315,2,0,P|152:45|187:87,1,90,2|0,1:2|0:0,0:0:0:0:
35,179,35610,1,10,0:0:0:0:
25,100,35757,1,2,0:0:0:0:
145,233,35904,6,0,B|112:257|112:257|63:262,1,90,2|0,1:2|0:0,0:0:0:0:
200,162,36198,2,0,B|237:177|237:177|266:217,1,90,10|0,0:0|0:0,0:0:0:0:
115,157,36492,2,0,B|109:116|109:116|129:71,1,90,2|0,1:2|0:0,0:0:0:0:
285,31,36786,1,8,0:0:0:0:
210,52,36933,1,0,0:0:0:0:
415,108,37080,6,0,P|418:51|342:8,1,135,2|0,1:2|0:0,0:0:0:0:
285,31,37374,2,0,L|274:141,1,90,10|2,0:0|0:0,0:0:0:0:
406,197,37668,2,0,L|417:87,1,90,2|0,1:2|0:0,0:0:0:0:
267,201,37962,1,10,0:0:0:0:
276,120,38109,1,2,0:0:0:0:
392,302,38257,6,0,P|339:300|311:272,1,90,2|0,1:1|0:0,0:0:0:0:
173,359,38551,2,0,P|207:331|251:333,1,90,10|2,0:1|0:0,0:0:0:0:
150,231,38845,2,0,L|141:179,2,45,2|0|0,1:1|0:0|0:0,0:0:0:0:
54,310,39139,2,0,L|44:366,2,45,8|0|0,0:0|0:0|0:0,0:0:0:0:
30,131,39433,5,2,1:2:0:0:
142,186,39580,1,2,0:0:0:0:
222,50,39727,1,10,0:0:0:0:
110,105,39874,1,2,0:0:0:0:
305,181,40021,2,0,P|307:135|279:93,1,90,2|0,1:2|0:0,0:0:0:0:
119,20,40315,2,0,P|101:62|113:111,1,90,10|0,0:0|0:0,0:0:0:0:
210,240,40610,6,0,B|212:190|212:190|191:146,1,90,2|0,1:2|0:0,0:0:0:0:
135,315,40904,2,0,B|176:342|176:342|225:345,1,90,10|0,0:0|0:0,0:0:0:0:
108,220,41198,2,0,B|64:241|64:241|36:283,1,90,2|0,1:2|0:0,0:0:0:0:
216,344,41492,1,8,0:0:0:0:
210,240,41639,1,0,0:0:0:0:
293,133,41786,6,0,P|310:157|319:195,1,67.5000025749208,10|0,0:1|0:0,0:0:0:0:
288,296,41933,1,10,0:0:0:0:
307,125,42374,6,0,P|325:151|335:193,1,67.5000025749208,10|0,0:1|0:0,0:0:0:0:
301,304,42521,1,10,0:0:0:0:
317,113,42962,6,0,P|337:142|348:188,1,67.5000025749208,10|0,0:1|0:0,0:0:0:0:
310,309,43109,1,10,0:0:0:0:
326,98,43551,6,0,P|348:129|360:180,1,67.5000025749208,10|0,0:1|0:0,0:0:0:0:
318,314,43698,1,10,0:0:0:0:
109,211,44139,6,0,B|152:239|209:220|180:203|226:188|266:211,1,157.5,6|0,1:2|0:0,0:0:0:0:
332,180,44727,6,0,B|391:138|382:61|345:41|274:73|297:125,1,202.500007724762,10|8,0:0|0:0,0:0:0:0:
158,101,45315,6,0,B|118:121|73:100|99:83|60:69|9:79|9:79|24:8|71:1|71:1|107:17|109:46,1,315,2|0,1:2|0:0,0:0:0:0:
36,153,45904,6,0,B|17:235|61:218|69:286|69:286|84:219|134:236|121:181|121:181|99:206|56:213,1,323.999990112305,10|8,0:0|0:0,0:0:0:0:
158,297,46492,6,0,B|189:316|228:300|228:300|223:306|223:306|264:289|299:310|299:310|281:360|318:392|360:390|396:372|397:308|367:285|320:297,3,360,6|8|0|8,1:2|0:0|1:2|0:0,0:0:0:0:
351,296,48551,1,0,1:2:0:0:
429,192,48698,1,8,0:0:0:0:
429,192,48771,1,8,0:0:0:0:
429,192,48845,5,6,1:2:0:0:
331,176,48992,1,2,0:0:0:0:
279,91,49139,1,10,0:0:0:0:
424,16,49286,6,0,L|427:111,2,90,2|6|2,0:0|1:2|0:0,0:0:0:0:
279,91,49727,5,10,0:0:0:0:
195,37,49874,1,2,0:0:0:0:
102,139,50021,6,0,L|179:103,1,67.5000025749208,10|2,0:0|1:2,0:0:0:0:
233,232,50315,1,10,0:0:0:0:
171,187,50462,1,2,1:2:0:0:
91,299,50610,5,10,0:0:0:0:
160,267,50757,1,2,1:2:0:0:
102,139,50904,5,10,0:0:0:0:
95,214,51051,1,10,0:0:0:0:
158,342,51198,6,0,P|218:365|284:316,1,135,6|0,1:2|0:0,0:0:0:0:
275,331,51492,1,10,0:0:0:0:
316,261,51639,1,2,0:0:0:0:
439,295,51786,1,2,1:2:0:0:
461,374,51933,1,2,1:2:0:0:
344,185,52080,1,10,0:0:0:0:
365,106,52227,6,0,B|424:66|424:66|468:125,1,135,2|0,0:0|0:0,0:0:0:0:
463,118,52521,1,2,0:0:0:0:
448,197,52668,1,10,0:0:0:0:
287,129,52815,2,0,P|242:111|223:61,1,90,2|0,0:0|1:2,0:0:0:0:
277,16,53110,1,0,1:2:0:0:
140,6,53257,2,0,P|146:53|113:95,1,90,10|0,0:0|0:0,0:0:0:0:
65,212,53551,6,0,P|122:167|201:179,1,135,2|0,1:2|0:0,0:0:0:0:
181,169,53845,1,10,0:0:0:0:
112,299,53992,2,0,P|74:316|23:301,1,90,2|0,0:0|1:2,0:0:0:0:
262,299,54286,1,2,1:2:0:0:
192,257,54433,1,10,0:0:0:0:
224,384,54580,1,2,0:0:0:0:
343,234,54727,6,0,B|302:211|302:211|246:223,1,90,0|0,1:2|0:0,0:0:0:0:
318,357,55021,2,0,B|365:356|365:356|407:318,1,90,8|0,0:0|0:0,0:0:0:0:
489,192,55315,2,0,B|439:192|461:169|399:171,1,90,2|0,1:2|1:2,0:0:0:0:
272,112,55610,2,0,P|333:97|335:31,1,135,8|0,0:0|0:0,0:0:0:0:
264,12,55904,6,0,B|199:16|199:16|172:0|172:0|82:6,1,180,6|8,1:2|0:0,0:0:0:0:
13,86,56345,2,0,P|51:114|51:166,1,90,0|0,0:0|1:2,0:0:0:0:
0,265,56639,1,2,1:2:0:0:
96,243,56786,1,10,0:0:0:0:
192,221,56933,1,2,0:0:0:0:
296,325,57080,6,0,B|319:209|319:209|270:133,1,180,2|8,1:1|0:0,0:0:0:0:
395,16,57521,2,0,B|372:132|372:132|421:208,1,180,2|0,0:1|1:2,0:0:0:0:
453,247,57962,1,8,0:0:0:0:
459,257,58257,6,0,L|442:366,1,90,14|2,0:3|0:0,0:0:0:0:
405,183,58551,1,2,0:0:0:0:
365,353,58698,6,0,L|378:264,1,90,10|2,0:3|0:0,0:0:0:0:
313,175,58992,1,2,0:0:0:0:
213,254,59139,6,0,P|169:257|124:221,1,90,10|2,0:3|0:0,0:0:0:0:
75,91,59433,6,0,B|109:56|172:63|147:87|205:92|243:51,1,168.75,6|0,3:0|0:0,0:0:0:0:
296,12,59727,6,0,B|338:-8|395:19|363:33|416:58|453:37,1,168.75,6|0,3:0|0:0,0:0:0:0:
502,101,60021,6,0,L|492:163,1,56.25,10|0,0:0|0:0,0:0:0:0:
423,206,60168,6,0,P|359:197|421:149,1,168.75,14|2,0:0|0:0,0:0:0:0:
504,243,60462,6,0,L|507:305,1,56.25,2|2,0:0|0:0,0:0:0:0:
424,375,60610,6,0,L|423:280,1,90,6|2,1:2|0:0,0:0:0:0:
286,253,60904,1,10,0:0:0:0:
314,329,61051,1,2,0:0:0:0:
344,187,61198,1,2,1:2:0:0:
264,173,61345,1,2,1:2:0:0:
371,269,61492,1,10,0:0:0:0:
423,206,61639,6,0,B|447:127|447:127|413:59,1,135,2|0,0:0|0:0,0:0:0:0:
423,80,61933,1,2,0:0:0:0:
344,187,62080,1,10,0:0:0:0:
291,29,62227,2,0,L|387:17,1,90,2|0,0:0|1:2,0:0:0:0:
231,95,62522,1,0,1:2:0:0:
163,141,62668,1,10,0:0:0:0:
146,22,62815,1,2,0:0:0:0:
61,156,62963,6,0,P|88:222|153:239,1,135,2|0,1:2|0:0,0:0:0:0:
144,240,63257,1,10,0:0:0:0:
280,190,63404,2,0,P|270:233|262:277,1,90,2|0,0:0|1:2,0:0:0:0:
374,362,63698,1,2,1:2:0:0:
335,295,63845,1,8,0:0:0:0:
379,166,63992,6,0,P|423:153|473:134,1,90,2|0,0:0|1:2,0:0:0:0:
310,92,64286,1,0,0:0:0:0:
291,4,64433,2,0,P|302:49|311:102,1,90,8|0,0:0|0:0,0:0:0:0:
206,194,64727,2,0,P|160:200|113:159,1,90,2|2,1:2|1:2,0:0:0:0:
156,0,65022,2,0,P|185:93|174:141,1,135,10|2,0:0|0:0,0:0:0:0:
124,178,65316,6,0,B|85:192|93:245|93:245|88:239|88:239|96:296|44:317,1,180,6|8,1:2|0:0,0:0:0:0:
131,362,65757,2,0,P|175:335|220:336,1,90,0|0,0:0|1:2,0:0:0:0:
345,370,66051,1,2,1:2:0:0:
367,282,66198,1,10,0:0:0:0:
388,194,66345,1,2,0:0:0:0:
302,64,66492,6,0,L|311:157,1,90,2|0,1:2|0:0,0:0:0:0:
458,93,66786,1,10,0:0:0:0:
382,77,66933,1,2,0:0:0:0:
290,247,67080,2,0,P|354:234|440:224,1,135,2|0,1:2|0:0,0:0:0:0:
423,225,67374,1,8,0:0:0:0:
361,315,67521,1,2,0:0:0:0:
361,315,67595,1,2,0:0:0:0:
361,315,67668,6,0,P|306:294|290:240,1,112.5,14|0,3:0|0:0,0:0:0:0:
319,131,68110,6,0,P|329:199|283:249,1,134.999995880127,10|0,3:0|0:0,0:0:0:0:
155,288,68551,6,0,P|219:235|299:253,1,157.499995193482,10|0,3:0|0:0,0:0:0:0:
457,205,68992,6,0,B|389:213|389:213|373:233|373:233|279:246,1,180,10|0,3:0|0:0,0:0:0:0:
199,156,69433,6,0,L|195:103,1,45,10|0,3:0|0:0,0:0:0:0:
232,7,69727,1,10,0:0:0:0:
254,10,69801,1,8,0:0:0:0:
275,15,69874,1,8,0:0:0:0:
296,21,69948,1,8,0:0:0:0:
309,38,70021,5,14,0:0:0:0:
256,192,70095,12,0,72301,0:0:0:0:
121,84,72374,5,14,0:0:0:0:
130,99,72815,2,0,B|146:134|146:134|143:174,1,67.5000025749208,2|0,1:2|0:0,0:0:0:0:
102,255,72962,5,14,0:0:0:0:
103,265,73551,5,6,1:2:0:0:
21,372,73698,1,2,0:0:0:0:
91,256,73845,5,14,0:0:0:0:
260,363,73992,1,2,0:0:0:0:
147,177,74139,6,0,B|112:162|115:124|115:124|95:158|47:165,1,135.000005149842,6|0,1:2|0:0,0:0:0:0:
273,152,74433,1,8,0:0:0:0:
281,185,74507,1,8,0:0:0:0:
308,204,74580,1,8,0:0:0:0:
341,203,74654,1,8,0:0:0:0:
363,183,74727,6,0,B|399:192|432:172|432:172|458:238|411:301,1,180,6|10,1:2|0:0,0:0:0:0:
477,79,75168,2,0,B|431:100|433:165|433:165|407:198|348:178,1,180,2|2,0:0|1:2,0:0:0:0:
236,117,75610,1,8,0:0:0:0:
281,185,75757,1,2,0:0:0:0:
348,40,75904,6,0,B|308:18|308:18|237:31,1,90,2|0,1:2|0:0,0:0:0:0:
183,44,76198,1,10,0:0:0:0:
281,185,76345,2,0,B|272:136|272:136|219:109,1,90,2|0,0:0|1:2,0:0:0:0:
61,121,76639,1,2,1:2:0:0:
142,122,76786,1,10,0:0:0:0:
97,48,76933,1,2,0:0:0:0:
236,117,77080,6,0,B|248:170|210:199|210:199|176:208|149:235|139:274,1,180,2|8,1:2|0:0,0:0:0:0:
279,311,77521,2,0,P|219:320|277:286,1,180,0|0,0:0|1:2,0:0:0:0:
419,297,77963,1,8,0:0:0:0:
407,217,78110,1,0,0:0:0:0:
344,268,78257,5,2,1:2:0:0:
284,137,78453,5,10,0:0:0:0:
325,15,78649,5,10,0:0:0:0:
131,112,78845,5,10,0:0:0:0:
293,142,79041,5,10,0:3:0:0:
414,52,79237,5,6,0:3:0:0:
305,148,79433,5,6,1:2:0:0:
319,154,80021,1,2,1:2:0:0:
99,339,80610,5,2,1:2:0:0:
104,325,81198,1,2,1:2:0:0:
406,83,81786,5,2,1:2:0:0:
399,95,82374,1,2,1:2:0:0:
349,169,82668,1,2,0:0:0:0:
363,297,82962,5,2,1:2:0:0:
440,343,83257,1,2,0:0:0:0:
450,254,83551,1,2,1:1:0:0:
227,367,84139,5,2,1:2:0:0:
222,354,84727,1,2,1:2:0:0:
128,77,85168,1,2,0:0:0:0:
128,77,85242,1,0,0:0:0:0:
128,77,85315,5,2,1:2:0:0:
30,314,85904,1,2,1:2:0:0:
34,298,86198,1,2,0:0:0:0:
114,200,86492,6,0,L|217:181,1,90,2|0,1:2|0:0,0:0:0:0:
288,99,87080,1,2,1:2:0:0:
254,251,87374,1,0,0:0:0:0:
414,91,87668,5,2,1:2:0:0:
430,179,87962,1,0,0:0:0:0:
373,249,88257,1,0,1:2:0:0:
379,338,88551,1,0,0:0:0:0:
475,353,88698,1,8,0:0:0:0:
475,353,88771,1,8,0:0:0:0:
475,353,88845,6,0,L|487:303,2,30,2|2|2,1:2|0:0|0:0,0:0:0:0:
427,346,89139,5,10,0:3:0:0:
379,338,89237,5,2,0:0:0:0:
331,328,89335,5,2,0:0:0:0:
283,318,89433,5,6,0:3:0:0:
195,227,89580,5,0,0:0:0:0:
195,227,89654,1,0,0:0:0:0:
195,227,89727,2,0,L|189:149,1,67.5,10|0,0:3|0:0,0:0:0:0:
190,160,90021,5,6,1:2:0:0:
291,89,90168,2,0,L|282:144,1,45,2|10,0:0|0:0,0:0:0:0:
177,72,90462,2,0,L|168:17,1,45,10|2,0:0|0:0,0:0:0:0:
15,91,90757,1,2,1:2:0:0:
96,66,90904,2,0,L|91:113,1,45,10|2,0:0|0:0,0:0:0:0:
17,237,91198,6,0,L|25:186,1,45,2|2,1:2|0:0,0:0:0:0:
90,275,91492,1,10,0:0:0:0:
22,316,91639,1,10,0:0:0:0:
152,373,91786,2,0,P|153:347|141:327,1,45,2|0,0:0|1:2,0:0:0:0:
169,195,92080,2,0,P|159:215|161:237,1,45,8|0,0:0|0:0,0:0:0:0:
361,290,92374,6,0,B|342:269|342:269|311:267,1,45,0|2,1:2|0:0,0:0:0:0:
226,304,92668,2,0,B|244:324|244:324|275:326,1,45,10|10,0:0|0:0,0:0:0:0:
331,166,92962,1,2,0:0:0:0:
263,223,93110,1,2,1:2:0:0:
243,141,93257,2,0,L|236:90,1,45,10|10,0:0|0:0,0:0:0:0:
319,25,93551,6,0,L|324:-10,3,22.5,2|0|2|0,3:0|0:0|0:0|0:0,0:0:0:0:
358,116,93845,6,0,L|366:154,3,26.9999991760254,2|0|2|0,3:0|0:0|0:0|0:0,0:0:0:0:
414,34,94139,6,0,L|425:-8,3,31.4999990386963,2|0|2|0,3:0|0:0|0:0|0:0,0:0:0:0:
446,118,94433,6,0,L|457:160,3,36,2|0|2|0,3:0|0:0|0:0|0:0,0:0:0:0:
401,212,94727,6,0,L|397:270,1,45,6|0,1:2|0:0,0:0:0:0:
330,347,95021,1,10,0:0:0:0:
252,370,95168,1,10,0:0:0:0:
188,319,95316,1,0,0:0:0:0:
186,238,95463,2,0,L|241:226,1,45,2|8,1:2|0:0,0:0:0:0:
320,139,95757,6,0,P|292:112|235:114,1,90,2|2,0:0|0:0,0:0:0:0:
167,71,96198,2,0,L|161:17,1,45,10|10,0:0|0:0,0:0:0:0:
115,135,96492,2,0,L|109:189,1,45,2|0,0:0|1:2,0:0:0:0:
186,317,96786,1,8,0:0:0:0:
101,347,96933,1,0,0:0:0:0:
0,316,97080,5,14,0:0:0:0:
205,230,97668,5,14,0:0:0:0:
388,180,98257,6,0,B|418:83|418:83|392:18,1,168.75,14|0,0:0|0:0,0:0:0:0:
312,180,98551,6,0,B|282:83|282:83|308:18,1,168.75,10|0,0:0|0:0,0:0:0:0:
178,18,98845,6,0,B|136:13|95:62|94:135|144:165|144:165|205:196|188:283,1,315,14|0,0:0|3:0,0:0:0:0:
93,272,99433,6,0,P|81:243|99:270,1,90,6|0,1:2|0:0,0:0:0:0:
240,340,99727,2,0,P|220:364|235:335,1,90,10|0,0:0|0:0,0:0:0:0:
258,169,100021,2,0,P|289:173|256:175,1,90,2|0,1:2|0:0,0:0:0:0:
405,277,100316,1,10,0:0:0:0:
328,302,100463,1,2,0:0:0:0:
408,148,100610,6,0,B|450:163|450:163|457:172|457:172|497:188,1,90,2|0,1:2|0:0,0:0:0:0:
258,169,100904,2,0,B|250:124|250:124|255:113|255:113|248:70,1,90,10|0,0:0|0:0,0:0:0:0:
328,302,101198,2,0,B|293:330|293:330|281:332|281:332|248:359,1,90,2|0,1:2|0:0,0:0:0:0:
93,280,101492,1,8,0:0:0:0:
125,354,101639,1,0,0:0:0:0:
182,177,101786,6,0,P|152:137|51:155,1,135,2|0,1:2|0:0,0:0:0:0:
11,194,102080,2,0,B|-3:252|32:230|15:305,1,90,10|2,0:0|0:0,0:0:0:0:
137,376,102374,2,0,B|143:316|169:349|178:273,1,90,2|2,1:2|0:0,0:0:0:0:
325,196,102668,1,10,0:0:0:0:
284,266,102815,1,2,0:0:0:0:
226,69,102963,6,0,P|296:58|362:45,1,135,2|0,1:1|0:0,0:0:0:0:
442,13,103257,2,0,P|440:47|437:110,1,90,10|2,0:1|0:0,0:0:0:0:
454,241,103551,2,0,L|466:284,2,45,2|0|0,1:1|0:0|0:0,0:0:0:0:
325,196,103845,2,0,L|337:153,2,45,8|0|0,0:0|0:0|0:0,0:0:0:0:
252,335,104139,5,2,1:2:0:0:
370,279,104286,1,0,0:0:0:0:
211,268,104433,1,10,0:0:0:0:
93,212,104580,1,2,0:0:0:0:
234,79,104727,2,0,L|226:174,1,90,2|0,1:2|0:0,0:0:0:0:
401,210,105021,2,0,L|409:115,1,90,10|0,0:0|0:0,0:0:0:0:
336,349,105315,6,0,P|375:360|420:340,1,90,2|0,1:2|0:0,0:0:0:0:
211,268,105610,2,0,P|181:296|176:345,1,90,10|0,0:0|0:0,0:0:0:0:
330,227,105904,2,0,P|320:187|280:158,1,90,2|0,1:2|0:0,0:0:0:0:
122,107,106198,1,8,0:0:0:0:
167,201,106345,1,0,0:0:0:0:
316,64,106492,6,0,P|273:53|226:59,1,67.5000025749208,10|0,0:1|0:0,0:0:0:0:
118,117,106639,1,10,0:0:0:0:
331,71,107080,6,0,P|283:58|232:65,1,67.5000025749208,10|0,0:1|0:0,0:0:0:0:
113,129,107227,1,10,0:0:0:0:
350,78,107668,6,0,P|297:64|241:71,1,67.5000025749208,10|0,0:1|0:0,0:0:0:0:
110,141,107815,1,10,0:0:0:0:
371,85,108257,6,0,P|313:70|251:78,1,67.5000025749208,10|0,0:1|0:0,0:0:0:0:
107,154,108404,1,10,0:0:0:0:
100,167,108845,6,0,B|66:199|82:246|82:246|118:274|107:326,1,157.5,6|0,1:2|0:0,0:0:0:0:
63,375,109433,6,0,B|120:410|187:376|148:355|210:327|271:360,1,202.500007724762,10|8,0:0|0:0,0:0:0:0:
365,286,110021,6,0,B|351:318|400:332|421:289|420:271|399:242|347:241|347:241|326:253|296:253|296:253|264:198|194:212,1,315,2|0,1:2|0:0,0:0:0:0:
121,231,110610,6,0,B|132:207|122:174|101:196|93:141|101:124|131:103|131:103|174:95|195:138|195:138|237:133|252:90|232:80|208:86|198:103,1,323.999990112305,10|8,0:0|0:0,0:0:0:0:
317,73,111198,6,0,B|323:34|365:9|365:9|402:15|430:69|410:48|414:85|439:124|439:124|412:167|360:160|362:125|362:125|368:144|391:149,3,360,6|8|4|8,1:2|0:0|1:2|0:0,0:0:0:0:
379,145,113257,1,0,1:2:0:0:
332,272,113404,1,8,0:0:0:0:
332,272,113477,1,8,0:0:0:0:
332,272,113551,5,6,1:2:0:0:
404,339,113698,1,2,0:0:0:0:
502,344,113845,1,10,0:0:0:0:
307,363,113992,6,0,L|212:342,2,90,2|6|2,0:0|1:2|0:0,0:0:0:0:
443,250,114433,5,10,0:0:0:0:
404,339,114580,1,2,0:0:0:0:
348,181,114727,6,0,L|426:167,1,67.5000025749208,10|2,0:0|1:2,0:0:0:0:
332,272,115021,2,0,L|253:256,1,67.5000025749208,10|2,0:0|1:2,0:0:0:0:
169,177,115315,6,0,L|160:151,14,22.5,10|0|2|0|2|0|2|0|10|0|10|0|10|0|10,0:0|0:0|0:0|0:0|1:2|0:0|0:0|0:0|0:0|0:0|0:0|0:0|0:0|0:0|0:0,0:0:0:0:
169,177,115904,6,0,L|274:163,1,90,6|2,1:2|0:0,0:0:0:0:
342,14,116198,1,10,0:0:0:0:
294,93,116345,1,2,0:0:0:0:
452,130,116492,1,2,1:2:0:0:
441,26,116639,1,2,1:2:0:0:
364,168,116786,1,10,0:0:0:0:
389,269,116933,6,0,B|400:324|400:324|312:341,1,135,2|0,0:0|0:0,0:0:0:0:
252,300,117227,2,0,B|238:258|238:258|263:214,1,90,2|8,0:0|0:0,0:0:0:0:
294,93,117521,2,0,B|327:122|327:122|327:172,1,90,2|0,0:0|1:2,0:0:0:0:
180,125,117816,1,0,1:2:0:0:
129,46,117963,2,0,L|219:32,1,90,10|2,0:0|0:0,0:0:0:0:
219,197,118257,6,0,P|154:205|103:143,1,135,2|0,1:2|0:0,0:0:0:0:
107,159,118551,1,10,0:0:0:0:
85,323,118698,2,0,P|126:292|164:286,1,90,2|0,0:0|1:2,0:0:0:0:
255,351,118992,1,2,1:2:0:0:
219,197,119139,1,10,0:0:0:0:
272,273,119286,1,2,0:0:0:0:
336,127,119433,6,0,P|289:121|239:116,1,90,0|0,1:2|0:0,0:0:0:0:
176,31,119727,2,0,P|223:25|273:20,1,90,8|0,0:0|0:0,0:0:0:0:
409,89,120021,2,0,P|419:143|391:184,1,90,2|0,1:2|1:2,0:0:0:0:
323,251,120316,2,0,P|373:203|438:238,1,135,8|0,0:0|0:0,0:0:0:0:
448,298,120610,6,0,L|260:280,1,180,6|8,1:2|0:0,0:0:0:0:
138,356,121051,2,0,L|124:254,1,90,0|0,0:0|1:2,0:0:0:0:
229,169,121345,1,2,1:2:0:0:
132,147,121492,1,10,0:0:0:0:
35,124,121639,1,2,0:0:0:0:
118,13,121786,6,0,B|139:40|150:58|150:58|149:89|132:147|132:147|128:120|105:104,1,180,2|8,1:1|0:0,0:0:0:0:
35,227,122227,2,0,B|14:200|3:182|3:182|4:151|21:93|21:93|25:120|48:136,1,180,2|0,0:1|1:2,0:0:0:0:
129,244,122668,1,8,0:0:0:0:
136,256,122963,6,0,P|190:263|224:238,1,90,14|2,0:3|0:0,0:0:0:0:
272,163,123257,1,2,0:0:0:0:
387,287,123404,6,0,P|373:245|337:221,1,90,10|2,0:3|0:0,0:0:0:0:
272,163,123698,1,2,0:0:0:0:
265,16,123845,6,0,P|231:59|232:101,1,90,10|0,0:3|0:0,0:0:0:0:
465,94,124139,6,0,B|428:113|383:92|383:92|385:88|385:88|338:64|277:94,1,168.75,6|0,3:0|0:0,0:0:0:0:
229,92,124433,6,0,B|187:94|158:134|158:134|162:137|162:137|134:181|66:186,1,168.75,6|0,3:0|0:0,0:0:0:0:
24,160,124727,6,0,P|21:196|38:232,1,56.25,10|0,0:0|0:0,0:0:0:0:
105,313,124874,6,0,B|135:287|180:285|161:319|224:298|224:298|191:300|171:274,1,168.75,14|2,0:0|0:0,0:0:0:0:
239,167,125168,6,0,L|228:232,1,56.25,2|2,0:0|0:0,0:0:0:0:
358,308,125316,6,0,L|338:215,1,90,6|2,1:2|0:0,0:0:0:0:
411,73,125610,1,10,0:0:0:0:
492,84,125757,1,2,0:0:0:0:
387,159,125904,1,2,1:2:0:0:
398,78,126051,1,2,1:2:0:0:
478,180,126198,1,8,0:0:0:0:
397,169,126345,6,0,L|254:154,1,135,2|0,0:0|0:0,0:0:0:0:
262,154,126639,1,2,0:0:0:0:
207,254,126786,1,10,0:0:0:0:
164,92,126933,2,0,P|204:61|249:67,1,90,2|0,0:0|1:2,0:0:0:0:
119,208,127228,1,0,1:2:0:0:
68,97,127374,2,0,P|27:90|-1:52,1,90,10|0,0:0|0:0,0:0:0:0:
17,301,127669,6,0,B|32:282|73:271|73:271|107:299|154:277,1,135,2|0,1:2|0:0,0:0:0:0:
139,282,127962,1,10,0:0:0:0:
247,375,128110,2,0,P|203:377|147:381,1,90,2|0,0:0|1:2,0:0:0:0:
119,208,128404,1,2,1:2:0:0:
204,223,128551,1,8,0:0:0:0:
367,176,128698,6,0,B|390:137|390:137|372:93,1,90,2|0,0:0|1:2,0:0:0:0:
400,306,128992,1,0,0:0:0:0:
334,260,129139,2,0,B|356:299|356:299|402:306,1,90,8|0,0:0|0:0,0:0:0:0:
277,188,129433,2,0,B|231:187|231:187|202:224,1,90,2|2,1:2|1:2,0:0:0:0:
84,300,129728,2,0,B|171:284|132:330|213:318,1,135,10|2,0:0|0:0,0:0:0:0:
203,222,130022,6,0,B|199:191|164:182|164:182|134:237|69:231|30:195,1,180,6|8,1:2|0:0,0:0:0:0:
59,74,130463,2,0,P|93:106|94:159,1,90,0|0,0:0|1:2,0:0:0:0:
0,269,130757,1,2,1:2:0:0:
84,300,130904,1,10,0:0:0:0:
166,335,131051,1,2,0:0:0:0:
291,204,131198,6,0,L|191:224,1,90,2|0,1:2|0:0,0:0:0:0:
260,361,131492,1,10,0:0:0:0:
279,286,131639,1,2,0:0:0:0:
377,193,131786,2,0,P|349:135|285:116,1,135,2|0,1:2|0:0,0:0:0:0:
284,116,132080,1,8,0:0:0:0:
448,122,132227,1,2,0:0:0:0:
448,122,132301,1,2,0:0:0:0:
448,122,132374,6,0,B|398:136|398:136|369:210,1,112.5,14|0,0:3|0:0,0:0:0:0:
417,306,132815,6,0,B|429:255|429:255|369:184,1,134.999995880127,10|0,0:3|0:0,0:0:0:0:
235,176,133257,6,0,B|272:211|272:211|382:191,1,157.499995193482,10|0,0:3|0:0,0:0:0:0:
371,21,133698,6,0,B|390:55|370:96|370:96|374:104|374:104|347:151|385:209,1,180,10|0,0:3|0:0,0:0:0:0:
375,192,134139,5,10,0:3:0:0:
327,328,134286,1,0,1:2:0:0:
237,218,134433,2,0,L|305:209,1,67.5,10|0,0:3|0:0,0:0:0:0:
375,192,134727,6,0,P|386:272|327:329,1,168.750006437302,14|0,0:3|0:0,0:0:0:0:
237,218,135168,6,0,P|294:166|378:197,1,168.750006437302,10|0,0:3|0:0,0:0:0:0:
327,328,135610,6,0,B|251:338|218:263|237:217|237:217|208:239|156:221,1,225,10|0,0:3|0:0,0:0:0:0:
187,228,136051,6,0,B|165:172|201:119|208:162|253:108|262:68|218:26|172:26|138:58|140:94|155:120,1,281.25,10|0,0:3|0:0,0:0:0:0:
139,125,136492,6,0,B|214:115|214:115|230:119|230:119|302:109,1,157.5,14|0,0:3|0:0,0:0:0:0:
294,110,137080,5,14,0:0:0:0:
304,126,137521,2,0,L|293:201,1,67.5000025749208,2|0,1:2|0:0,0:0:0:0:
277,287,137668,5,14,0:0:0:0:
271,304,138257,5,6,1:2:0:0:
200,188,138404,1,2,0:0:0:0:
285,303,138551,5,14,0:0:0:0:
409,192,138698,1,2,0:0:0:0:
178,289,138845,6,0,B|144:258|101:272|101:272|63:254|29:253|29:253|59:236|74:206|74:206|71:242|101:272,1,270.000010299683,6|8,1:2|0:0,0:0:0:0:
127,117,139286,1,8,0:0:0:0:
127,117,139360,1,8,0:0:0:0:
127,117,139433,6,0,L|54:97,1,67.5000025749208,6|0,1:2|0:0,0:0:0:0:
199,59,139727,1,0,3:0:0:0:
220,157,139874,1,0,3:0:0:0:
308,31,140021,2,0,B|350:84|350:84|315:156,1,135.000005149842,8|0,0:0|1:2,0:0:0:0:
239,256,140462,1,8,0:0:0:0:
342,242,140610,6,0,B|383:213|429:222|400:244|457:247|487:216,1,135.000005149842,2|0,1:2|1:2,0:0:0:0:
488,142,141051,1,0,0:0:0:0:
458,37,141198,1,8,0:0:0:0:
410,110,141345,1,0,1:2:0:0:
277,45,141492,1,0,1:2:0:0:
364,39,141639,1,8,0:0:0:0:
312,138,141786,6,0,P|248:146|190:76,1,135.000005149842,2|0,0:0|3:0,0:0:0:0:
92,223,142227,1,0,3:0:0:0:
92,223,142301,1,0,3:0:0:0:
92,223,142374,2,0,B|125:213|146:180|146:180|168:214|208:219,1,135.000005149842,8|0,0:0|1:2,0:0:0:0:
195,306,142815,1,8,0:0:0:0:
5,380,142962,6,0,B|-16:300|-16:300|4:234,2,135.000005149842,2|0|10,1:2|1:2|0:0,0:0:0:0:
92,223,143845,1,0,3:0:0:0:
191,87,144139,6,0,B|266:148|357:143|387:72|371:26|348:-19|291:-23|233:-13|213:55|237:103|294:153|290:117|330:167|307:226,1,506.250019311906,2|0,1:2|0:0,0:0:0:0:
310,215,145315,6,0,B|243:278|184:291|145:252|134:229|190:160|239:144|269:226|237:290|240:318|294:341|342:326|362:283,1,405.000015449525,2|0,1:2|1:2,0:0:0:0:
403,217,146492,6,0,B|424:142|424:142|391:73,1,135.000005149842,2|2,1:2|3:0,0:0:0:0:
379,86,146860,1,0,3:0:0:0:
359,83,146933,1,0,3:0:0:0:
338,80,147007,1,0,3:0:0:0:
317,78,147080,2,0,B|288:63|253:75|253:75|246:39|196:20,1,135.000005149842,10|2,0:0|1:2,0:0:0:0:
95,101,147668,6,0,L|83:147,3,33.7500012874604,2|0|0|0,3:0|3:0|3:0|3:0,0:0:0:0:
167,156,147962,2,0,L|173:189,3,33.7500012874604,0|0|0|0,3:0|3:0|3:0|3:0,0:0:0:0:
75,246,148257,5,10,0:0:0:0:
75,246,148330,1,0,3:0:0:0:
75,246,148404,2,0,L|61:298,1,33.7500012874604,0|0,3:0|3:0,0:0:0:0:
173,300,148551,1,0,3:0:0:0:
173,300,148624,1,0,3:0:0:0:
173,300,148698,2,0,L|159:248,1,33.7500012874604,0|0,3:0|3:0,0:0:0:0:
283,322,148845,5,6,1:2:0:0:
288,299,149139,1,2,3:0:0:0:
292,279,149212,1,0,3:0:0:0:
294,258,149286,1,0,3:0:0:0:
297,237,149360,1,0,3:0:0:0:
300,217,149433,1,10,0:0:0:0:
302,196,149727,1,2,0:0:0:0:
319,103,149874,1,8,0:0:0:0:
333,10,150021,6,0,L|177:-2,1,135.000005149842,2|0,1:2|1:2,0:0:0:0:
95,103,150610,2,0,L|251:91,1,135.000005149842,10|0,0:0|1:2,0:0:0:0:
396,186,151198,6,0,P|401:235|325:287,1,135.000005149842,2|0,1:2|3:0,0:0:0:0:
320,283,151565,1,0,3:0:0:0:
300,277,151639,1,0,3:0:0:0:
282,267,151712,1,0,3:0:0:0:
271,249,151786,1,8,0:0:0:0:
266,227,152080,1,2,1:2:0:0:
180,264,152227,1,10,0:0:0:0:
95,311,152374,6,0,B|63:250|63:250|91:160,1,135.000005149842,2|0,1:2|1:2,0:0:0:0:
253,102,152962,2,0,B|285:163|285:163|257:253,1,135.000005149842,10|0,0:0|1:2,0:0:0:0:
115,87,153551,5,2,1:2:0:0:
97,81,153845,1,0,3:0:0:0:
77,75,153918,1,0,3:0:0:0:
59,69,153992,1,0,3:0:0:0:
40,65,154065,1,0,3:0:0:0:
20,58,154139,1,8,0:0:0:0:
4,54,154433,1,2,1:2:0:0:
19,147,154580,1,10,0:0:0:0:
33,240,154727,6,0,B|47:325|6:285|14:378,1,135.000005149842,2|2,1:2|1:2,0:0:0:0:
104,350,155168,1,0,0:0:0:0:
156,226,155315,2,0,B|156:312|190:265|198:358,1,135.000005149842,10|0,0:0|1:2,0:0:0:0:
250,229,155757,1,0,0:0:0:0:
274,128,155904,6,0,B|213:121|213:121|201:125|201:125|131:116,1,135.000005149842,2|2,1:2|3:0,0:0:0:0:
120,115,156271,1,0,3:0:0:0:
101,106,156345,1,2,3:0:0:0:
94,87,156418,1,0,3:0:0:0:
94,66,156492,1,10,0:0:0:0:
109,48,156786,1,2,1:2:0:0:
202,32,156933,1,10,0:0:0:0:
294,13,157080,6,0,B|294:63|294:63|252:107,1,101.250003862381,2|0,1:2|0:0,0:0:0:0:
259,99,157374,2,0,B|302:73|302:73|361:88,1,101.250003862381,2|0,1:2|0:0,0:0:0:0:
351,85,157668,2,0,B|307:60|307:60|290:1,1,101.250003862381,10|0,0:0|0:0,0:0:0:0:
293,11,157962,1,2,1:2:0:0:
443,2,158110,1,0,0:0:0:0:
443,2,158184,1,0,0:0:0:0:
443,2,158257,6,0,P|439:54|433:154,1,135.000005149842,6|0,1:1|0:0,0:0:0:0:
279,300,158845,2,0,P|283:248|289:148,1,135.000005149842,2|0,0:1|0:0,0:0:0:0:
451,350,159286,1,2,0:0:0:0:
451,350,159360,1,2,0:0:0:0:
451,350,159433,5,6,0:1:0:0:
256,192,159507,12,6,160610,0:0:0:0:
105,226,179433,6,0,P|110:264|109:313,1,67.5,2|0,1:2|0:0,0:0:0:0:
172,220,179727,6,0,P|134:225|85:224,1,67.5,0|0,1:2|0:0,0:0:0:0:
177,287,180021,6,0,P|172:249|173:200,1,67.5,0|0,1:2|0:0,0:0:0:0:
110,293,180315,6,0,P|148:288|197:289,1,67.5,2|0,1:2|0:0,0:0:0:0:
277,328,180610,6,0,B|279:247|292:276|287:189,1,135,2|0,1:2|0:0,0:0:0:0:
411,338,180904,6,0,B|330:336|359:323|272:328,1,135,0|0,1:2|0:0,0:0:0:0:
421,203,181198,6,0,B|419:284|406:255|411:342,1,135,0|0,1:2|0:0,0:0:0:0:
287,193,181492,6,0,B|368:195|339:208|426:203,1,135,0|0,1:2|0:0,0:0:0:0:
285,171,181786,6,0,B|259:145|212:152|232:169|178:182|128:159|90:147|84:83|89:40|142:4|182:35|182:35|229:5|285:49|284:112|259:199|169:140|126:163|118:224,1,630,6|2,0:1|0:0,0:0:0:0:
77,245,182962,6,0,L|102:379,1,135,6|0,1:1|0:0,0:0:0:0:
23,190,183551,6,0,L|29:168,14,16.8750006437302,6|0|2|0|2|0|2|0|2|0|2|0|2|0|2,0:0|0:0|0:0|0:0|0:0|0:0|0:0|0:0|0:0|0:0|0:0|0:0|0:0|0:0|0:0,0:0:0:0:
23,190,184139,6,0,P|93:204|136:149,1,135,6|0,1:2|0:0,0:0:0:0:
132,162,184433,1,10,0:0:0:0:
167,244,184580,1,2,0:0:0:0:
225,146,184727,1,2,1:2:0:0:
190,64,184874,1,2,1:2:0:0:
317,130,185021,1,10,0:0:0:0:
282,212,185168,6,0,P|317:273|384:246,1,135,2|0,0:0|0:0,0:0:0:0:
371,262,185462,1,2,0:0:0:0:
408,334,185610,1,10,0:0:0:0:
490,179,185756,2,0,L|396:151,1,90,2|0,0:0|1:2,0:0:0:0:
317,130,186051,1,0,1:2:0:0:
438,0,186198,2,0,L|460:95,1,90,10|0,0:0|0:0,0:0:0:0:
317,130,186492,6,0,B|371:71|371:71|356:5,1,135,2|0,1:2|0:0,0:0:0:0:
358,17,186786,1,10,0:0:0:0:
234,107,186933,2,0,L|127:90,1,90,2|0,0:0|1:2,0:0:0:0:
68,153,187227,1,2,1:2:0:0:
121,213,187374,1,10,0:0:0:0:
145,92,187521,1,2,0:0:0:0:
37,227,187668,6,0,P|85:232|130:201,1,90,0|0,1:2|0:0,0:0:0:0:
171,355,187962,2,0,P|131:334|87:340,1,90,8|0,0:0|0:0,0:0:0:0:
228,232,188256,2,0,B|271:236|271:236|278:234|278:234|330:238,1,90,2|0,1:2|1:2,0:0:0:0:
445,361,188551,2,0,P|439:293|399:330,1,135,8|0,0:0|0:0,0:0:0:0:
460,381,188845,6,0,P|465:271|476:188,1,180,6|8,1:2|0:0,0:0:0:0:
358,116,189286,2,0,B|408:126|408:126|447:97,1,90,0|0,0:0|1:2,0:0:0:0:
268,34,189580,1,2,1:2:0:0:
242,129,189727,1,10,0:0:0:0:
220,225,189874,1,2,0:0:0:0:
146,354,190021,6,0,B|236:340|236:340|251:329|251:329|340:318,1,180,2|8,1:1|0:0,0:0:0:0:
484,241,190462,2,0,B|394:227|394:227|379:216|379:216|290:205,1,180,2|0,0:1|1:2,0:0:0:0:
220,225,190903,1,8,0:0:0:0:
212,234,191198,6,0,P|169:238|126:205,1,90,14|2,0:3|0:0,0:0:0:0:
241,152,191492,1,2,0:0:0:0:
309,207,191639,6,0,P|333:242|326:295,1,90,14|2,0:3|0:0,0:0:0:0:
241,152,191933,1,2,0:0:0:0:
220,74,192080,6,0,P|238:34|288:14,1,90,14|2,0:3|0:0,0:0:0:0:
477,22,192374,6,0,B|447:56|452:114|452:114|439:62|387:57,1,168.75,6|0,3:0|0:0,0:0:0:0:
398,175,192668,6,0,B|370:165|340:210|340:210|364:157|348:115,1,168.75,6|0,3:0|0:0,0:0:0:0:
275,79,192962,6,0,L|198:71,1,56.25,10|0,0:0|0:0,0:0:0:0:
88,181,193109,6,0,B|141:154|141:154|203:174|203:174|259:140,1,168.75,14|2,0:0|0:0,0:0:0:0:
254,237,193403,6,0,L|242:291,1,56.25,2|2,0:0|0:0,0:0:0:0:
120,347,193551,6,0,L|105:255,1,90,6|2,1:2|0:0,0:0:0:0:
6,147,193845,1,10,0:0:0:0:
88,181,193992,1,2,0:0:0:0:
110,8,194139,1,2,1:2:0:0:
76,90,194286,1,2,1:2:0:0:
240,157,194433,1,10,0:0:0:0:
158,123,194580,6,0,B|214:71|214:71|297:85,1,135,2|0,0:0|0:0,0:0:0:0:
271,80,194874,1,2,0:0:0:0:
355,211,195021,1,10,0:0:0:0:
443,70,195168,2,0,L|350:53,1,90,2|0,0:0|1:2,0:0:0:0:
437,216,195463,1,0,1:2:0:0:
400,141,195610,1,10,0:0:0:0:
426,329,195757,1,2,0:0:0:0:
258,235,195904,6,0,B|233:217|193:223|212:235|163:244|120:213,1,135,2|0,1:2|0:0,0:0:0:0:
128,218,196198,1,10,0:0:0:0:
150,63,196345,2,0,L|179:157,1,90,2|0,0:0|1:2,0:0:0:0:
44,255,196639,1,2,1:2:0:0:
56,174,196786,1,8,0:0:0:0:
192,323,196933,6,0,P|143:329|102:294,1,90,2|0,0:0|1:2,0:0:0:0:
258,235,197227,1,0,0:0:0:0:
311,332,197374,1,8,0:0:0:0:
331,154,197521,1,0,0:0:0:0:
169,251,197668,2,0,L|280:230,1,90,2|2,1:2|1:2,0:0:0:0:
411,139,197963,2,0,P|385:88|282:87,1,135,10|2,0:0|0:0,0:0:0:0:
246,117,198257,6,0,B|204:132|147:108|188:92|128:60|69:89,1,180,6|8,1:2|0:0,0:0:0:0:
46,213,198698,2,0,P|98:196|112:148,1,90,0|0,0:0|1:2,0:0:0:0:
13,307,198992,1,2,1:2:0:0:
101,323,199139,1,10,0:0:0:0:
188,344,199286,1,2,0:0:0:0:
318,266,199433,6,0,L|333:359,1,90,2|0,1:2|0:0,0:0:0:0:
260,205,199727,1,10,0:0:0:0:
336,184,199874,1,2,0:0:0:0:
394,287,200021,1,2,1:2:0:0:
318,266,200168,1,0,1:2:0:0:
192,346,200315,1,8,0:0:0:0:
166,335,200389,1,0,0:0:0:0:
158,309,200462,1,2,0:0:0:0:
169,284,200536,1,2,0:0:0:0:
192,270,200610,6,0,B|188:213|188:213|192:205|192:205|190:156,1,112.5,14|0,3:0|0:0,0:0:0:0:
304,90,201051,6,0,B|247:127|247:127|236:127|236:127|187:159,1,134.999995880127,10|0,3:0|0:0,0:0:0:0:
54,82,201492,6,0,B|129:119|129:119|136:131|136:131|202:164,1,157.499995193482,14|0,3:0|0:0,0:0:0:0:
348,219,201933,6,0,B|316:194|316:194|271:189|271:189|264:177|264:177|223:177|223:177|176:151,1,180,10|0,3:0|0:0,0:0:0:0:
191,68,202375,6,0,L|185:21,1,45,14|0,3:0|0:0,0:0:0:0:
37,81,202668,1,10,0:0:0:0:
40,111,202741,1,8,0:0:0:0:
61,133,202815,1,8,0:0:0:0:
91,136,202888,1,8,0:0:0:0:
118,120,202962,5,14,0:0:0:0:
256,192,203036,12,0,205242,0:0:0:0:
134,134,205315,5,14,0:0:0:0:
142,146,205757,2,0,L|131:226,1,67.5000025749208,2|0,1:2|0:0,0:0:0:0:
186,312,205904,5,14,0:0:0:0:
187,325,206492,5,6,1:2:0:0:
311,364,206639,1,2,0:0:0:0:
178,319,206786,5,14,0:0:0:0:
142,146,206933,1,2,0:0:0:0:
311,226,207081,6,0,B|321:205|311:181|311:181|253:158|219:220,1,135.000005149842,6|0,1:2|0:0,0:0:0:0:
375,316,207374,1,8,0:0:0:0:
398,326,207449,1,8,0:0:0:0:
422,335,207522,1,8,0:0:0:0:
447,344,207596,1,8,0:0:0:0:
471,353,207668,5,14,0:0:0:0:
485,358,208110,2,0,P|488:318|468:280,1,67.5000025749208,2|0,1:2|0:0,0:0:0:0:
404,202,208257,5,14,0:0:0:0:
390,190,208845,5,6,1:2:0:0:
239,94,208992,1,2,0:0:0:0:
375,179,209139,5,14,0:0:0:0:
462,45,209286,1,2,0:0:0:0:
223,82,209433,6,0,L|207:155,3,67.5000025749208,14|8|8|8,1:2|0:0|0:0|0:0,0:0:0:0:
67,176,209727,1,8,0:0:0:0:
56,201,209801,1,8,0:0:0:0:
57,227,209874,1,8,0:0:0:0:
70,250,209948,1,8,0:0:0:0:
93,259,210021,6,0,B|216:259|216:259|226:217|263:211,1,180,6|10,1:2|0:0,0:0:0:0:
149,152,210463,2,0,B|125:203|160:259|160:259|78:259,1,180,2|2,0:0|1:2,0:0:0:0:
2,91,210904,1,8,0:0:0:0:
74,121,211051,1,2,0:0:0:0:
172,0,211198,6,0,B|193:38|193:38|170:104,1,90,2|0,1:2|0:0,0:0:0:0:
149,152,211492,1,10,0:0:0:0:
307,118,211639,6,0,B|284:147|284:147|209:155,1,90,2|0,0:0|1:2,0:0:0:0:
115,300,211933,1,2,1:2:0:0:
162,234,212080,1,8,0:0:0:0:
198,306,212227,1,0,0:0:0:0:
36,336,212374,6,0,B|12:277|41:214|63:272|83:197|61:155,1,180,2|10,1:2|0:0,0:0:0:0:
17,52,212815,2,0,B|58:13|117:13|117:13|149:47|207:33,1,180,2|2,0:0|1:2,0:0:0:0:
290,145,213257,1,8,0:0:0:0:
214,182,213404,1,2,0:0:0:0:
358,48,213551,6,0,B|390:70|394:107|394:107|365:222,1,180,2|10,1:2|0:0,0:0:0:0:
275,332,213992,2,0,L|375:298,1,90,2|0,0:0|1:2,0:0:0:0:
367,212,214286,1,2,1:2:0:0:
512,327,214433,2,0,L|427:268,1,90,8|0,0:0|0:0,0:0:0:0:
330,129,214727,6,0,B|387:104|443:136|406:148|464:179|517:160,1,180,2|10,1:2|0:0,0:0:0:0:
415,49,215168,2,0,B|372:31|329:45|329:45|323:40|323:40|284:56|222:33,1,180,2|2,0:0|1:2,0:0:0:0:
100,111,215610,1,8,0:0:0:0:
167,171,215757,1,2,0:0:0:0:
145,29,215904,6,0,B|102:18|102:18|38:33,1,90,2|0,1:2|0:0,0:0:0:0:
204,88,216198,1,10,0:0:0:0:
167,171,216345,2,0,B|128:195|128:195|84:200,1,90,2|0,0:0|1:2,0:0:0:0:
3,355,216639,1,2,1:2:0:0:
61,286,216786,1,8,0:0:0:0:
98,367,216933,1,2,0:0:0:0:
163,260,217080,6,0,L|167:162,1,90,2|2,1:2|0:0,0:0:0:0:
4,107,217374,6,0,L|4:200,1,80.9999975280763,10|2,0:0|0:0,0:0:0:0:
172,263,217668,6,0,L|250:252,1,72,2|2,1:2|1:2,0:0:0:0:
166,170,217962,6,0,L|97:159,1,62.9999980773926,10|2,0:0|0:0,0:0:0:0:
185,16,218257,5,10,0:0:0:0:
253,73,218404,1,2,1:2:0:0:
342,76,218551,1,10,0:0:0:0:
409,16,218698,1,2,0:0:0:0:
431,131,218845,5,2,1:2:0:0:
336,183,218992,1,2,1:2:0:0:
296,283,219139,1,10,0:0:0:0:
338,382,219286,1,2,0:0:0:0:
458,301,219433,6,0,L|452:245,1,45,14|2,0:0|1:2,0:0:0:0:
336,183,219727,2,0,L|328:242,1,45,10|2,0:0|1:2,0:0:0:0:
500,165,220021,6,0,L|491:73,1,90,10|2,0:0|1:2,0:0:0:0:
314,6,220315,2,0,L|297:106,1,90,10|2,0:0|1:2,0:0:0:0:
476,244,220610,5,14,0:0:0:0:
336,183,220757,1,2,1:2:0:0:
265,274,220904,5,14,0:0:0:0:
405,213,221051,1,2,1:2:0:0:
266,151,221198,5,14,0:0:0:0:
334,329,221345,1,2,1:2:0:0:
257,360,221492,5,14,0:0:0:0:
336,183,221639,1,2,1:2:0:0:
229,20,221786,5,14,0:0:0:0:
256,192,221860,12,0,224286,0:0:0:0:
