osu file format v14

[General]
AudioFilename: audio.mp3
AudioLeadIn: 0
PreviewTime: 115242
Countdown: 0
SampleSet: Soft
StackLeniency: 0.4
Mode: 0
LetterboxInBreaks: 0
WidescreenStoryboard: 0

[Editor]
DistanceSpacing: 1.5
BeatDivisor: 4
GridSize: 32
TimelineZoom: 3.899999

[Metadata]
Title:True truly love
TitleUnicode:True truly love
Artist:Horie Yui
ArtistUnicode:堀江由衣
Creator:[Karcher]
Version:Kizuna
Source:DIVINA
Tags:divina online ディビーナ MMORPG theme song opening 秘密 Himitsu video game jpop pop j-pop japanese riana miyohashikoori
BeatmapID:2916562
BeatmapSetID:1415113

[Difficulty]
HPDrainRate:6.2
CircleSize:4.2
OverallDifficulty:9.4
ApproachRate:9.6
SliderMultiplier:2
SliderTickRate:1

[Events]
//Background and Video events
0,0,"cute_suimya.jpg",0,0
//Break Periods
//Storyboard Layer 0 (Background)
//Storyboard Layer 1 (Fail)
//Storyboard Layer 2 (Pass)
//Storyboard Layer 3 (Foreground)
//Storyboard Layer 4 (Overlay)
//Storyboard Sound Samples

[TimingPoints]
610,294.117647058824,4,2,1,45,1,0
610,-100,4,2,1,45,0,0
4139,-125,4,2,1,45,0,0
5242,-125,4,2,1,5,0,0
5315,-90.9090909090909,4,2,1,65,0,1
12374,-90.9090909090909,4,2,1,70,0,1
12668,-90.9090909090909,4,2,1,65,0,1
12962,-90.9090909090909,4,2,1,60,0,1
13257,-90.9090909090909,4,2,1,55,0,1
13551,-90.9090909090909,4,2,1,50,0,1
13845,-111.111111111111,4,2,1,45,0,1
14139,-142.857142857143,4,2,1,40,0,1
14433,-200,4,2,1,40,0,1
14727,-125,4,2,1,50,0,0
24139,-125,4,2,1,60,0,0
25315,-142.857142857143,4,2,1,50,0,0
28845,-76.9230769230769,4,2,1,50,0,0
29139,-100,4,2,1,50,0,0
29433,-142.857142857143,4,2,1,50,0,0
29727,-100,4,2,1,50,0,0
30021,-142.857142857143,4,2,1,50,0,0
32374,-142.857142857143,4,2,1,60,0,0
34727,-100,4,2,1,60,0,0
38551,-86.9565217391304,4,2,1,60,0,0
38845,-76.9230769230769,4,2,1,60,0,0
39433,-100,4,2,1,60,0,0
41786,-66.6666666666667,4,2,1,70,0,0
41860,-66.6666666666667,4,2,1,5,0,0
41933,-66.6666666666667,4,2,1,70,0,0
42007,-66.6666666666667,4,2,1,5,0,0
42080,-66.6666666666667,4,2,1,70,0,0
42448,-66.6666666666667,4,2,1,5,0,0
42521,-66.6666666666667,4,2,1,70,0,0
42595,-66.6666666666667,4,2,1,5,0,0
42668,-66.6666666666667,4,2,1,70,0,0
43036,-66.6666666666667,4,2,1,5,0,0
43110,-66.6666666666667,4,2,1,70,0,0
43183,-66.6666666666667,4,2,1,5,0,0
43257,-66.6666666666667,4,2,1,70,0,0
43624,-66.6666666666667,4,2,1,5,0,0
43698,-66.6666666666667,4,2,1,70,0,0
43771,-66.6666666666667,4,2,1,5,0,0
43845,-66.6666666666667,4,2,1,70,0,0
44139,-142.857142857143,4,2,1,50,0,0
48845,-142.857142857143,4,2,1,65,0,0
51198,-83.3333333333333,4,2,1,75,0,1
58257,-100,4,2,1,75,0,1
60610,-83.3333333333333,4,2,1,75,0,1
67521,-83.3333333333333,4,2,2,75,0,1
67668,-125,4,2,1,75,0,1
68110,-100,4,2,1,75,0,1
68551,-83.3333333333333,4,2,1,75,0,1
68992,-71.4285714285714,4,2,1,75,0,1
69433,-83.3333333333333,4,2,1,75,0,1
70021,-83.3333333333333,4,2,1,60,0,0
74727,-90.9090909090909,4,2,1,60,0,0
78257,-66.6666666666667,4,2,1,60,0,0
78845,-100,4,2,1,60,0,0
79433,-100,4,2,1,45,0,0
83551,-200,4,2,1,45,0,0
83624,-200,4,2,1,5,0,0
84139,-200,4,2,1,45,0,0
88698,-125,4,2,1,45,0,0
88845,-125,4,2,1,60,0,0
90021,-142.857142857143,4,2,1,50,0,0
93551,-76.9230769230769,4,2,1,50,0,0
93845,-100,4,2,1,50,0,0
94139,-142.857142857143,4,2,1,50,0,0
94433,-100,4,2,1,50,0,0
94727,-142.857142857143,4,2,1,50,0,0
97080,-142.857142857143,4,2,1,60,0,0
99433,-100,4,2,1,60,0,0
103257,-86.9565217391304,4,2,1,60,0,0
103551,-76.9230769230769,4,2,1,60,0,0
104139,-100,4,2,1,60,0,0
106492,-66.6666666666667,4,2,1,70,0,0
106565,-66.6666666666667,4,2,1,5,0,0
106639,-66.6666666666667,4,2,1,70,0,0
106712,-66.6666666666667,4,2,1,5,0,0
106786,-66.6666666666667,4,2,1,70,0,0
107154,-66.6666666666667,4,2,1,5,0,0
107227,-66.6666666666667,4,2,1,70,0,0
107301,-66.6666666666667,4,2,1,5,0,0
107374,-66.6666666666667,4,2,1,70,0,0
107742,-66.6666666666667,4,2,1,5,0,0
107815,-66.6666666666667,4,2,1,70,0,0
107889,-66.6666666666667,4,2,1,5,0,0
107962,-66.6666666666667,4,2,1,70,0,0
108330,-66.6666666666667,4,2,1,5,0,0
108404,-66.6666666666667,4,2,1,70,0,0
108477,-66.6666666666667,4,2,1,5,0,0
108551,-66.6666666666667,4,2,1,70,0,0
108845,-142.857142857143,4,2,1,50,0,0
113551,-142.857142857143,4,2,1,65,0,0
114727,-100,4,2,1,65,0,0
115315,-50,4,2,1,65,0,0
115904,-83.3333333333333,4,2,1,75,0,1
122962,-100,4,2,1,75,0,1
125315,-83.3333333333333,4,2,1,75,0,1
132227,-83.3333333333333,4,2,2,75,0,1
132374,-125,4,2,1,75,0,1
132815,-100,4,2,1,75,0,1
133257,-83.3333333333333,4,2,1,75,0,1
133698,-71.4285714285714,4,2,1,75,0,1
134139,-83.3333333333333,4,2,1,75,0,1
134727,-71.4285714285714,4,2,1,75,0,1
135168,-83.3333333333333,4,2,1,75,0,1
135610,-100,4,2,1,75,0,1
136051,-125,4,2,1,75,0,1
136492,-500,4,2,1,75,0,1
137007,-500,4,2,1,5,0,0
137080,-500,4,2,1,60,0,0
139433,-142.857142857143,4,2,1,55,0,0
148845,-117.647058823529,4,2,1,60,0,0
149948,-117.647058823529,4,2,1,5,0,0
150021,-117.647058823529,4,2,1,60,0,0
158257,-250,4,2,1,60,0,0
159433,-166.666666666667,4,2,1,60,0,0
160610,-200,4,2,1,45,0,0
167668,-250,4,2,1,45,0,0
170021,-200,4,2,1,45,0,0
174727,-200,4,2,1,55,0,0
176492,-500,4,2,1,55,0,0
177080,-142.857142857143,4,2,1,55,0,0
178257,-111.111111111111,4,2,1,55,0,0
181786,-111.111111111111,4,2,1,60,0,0
183551,-50,4,2,1,65,0,0
183845,-100,4,2,1,70,0,0
184139,-83.3333333333333,4,2,1,75,0,1
191198,-100,4,2,1,75,0,1
193551,-83.3333333333333,4,2,1,75,0,1
200462,-83.3333333333333,4,2,2,75,0,1
200610,-125,4,2,1,75,0,1
201051,-100,4,2,1,75,0,1
201492,-83.3333333333333,4,2,1,75,0,1
201933,-71.4285714285714,4,2,1,75,0,1
202374,-83.3333333333333,4,2,1,75,0,1
202962,-83.3333333333333,4,2,1,60,0,0
210021,-90.9090909090909,4,2,1,65,0,1
217080,-90.9090909090909,4,2,1,70,0,1
217374,-90.9090909090909,4,2,1,65,0,1
217668,-90.9090909090909,4,2,1,60,0,1
217962,-90.9090909090909,4,2,1,55,0,1
218257,-100,4,2,1,50,0,1
218404,-100,4,2,1,55,0,1
218551,-76.9230769230769,4,2,1,60,0,1
218698,-76.9230769230769,4,2,1,65,0,1
218845,-62.5,4,2,1,70,0,1
218992,-62.5,4,2,1,75,0,1
219139,-52.6315789473684,4,2,1,80,0,1
219286,-52.6315789473684,4,2,1,85,0,1
219433,-52.6315789473684,4,2,1,70,0,1
220610,-52.6315789473684,4,2,1,85,0,1
221786,-52.6315789473684,4,2,1,70,0,0

[Colours]
Combo1 : 255,225,193
Combo2 : 183,163,224

[HitObjects]
60,117,610,5,2,0:0:0:0:
141,148,904,1,2,0:0:0:0:
43,284,1198,5,2,0:0:0:0:
74,203,1492,1,2,0:0:0:0:
210,301,1786,5,2,0:0:0:0:
129,270,2080,1,2,0:0:0:0:
227,134,2374,5,2,0:0:0:0:
196,215,2668,1,2,0:0:0:0:
60,117,2962,5,2,0:0:0:0:
227,134,3257,1,2,0:0:0:0:
210,301,3551,1,2,0:0:0:0:
43,284,3845,1,2,0:0:0:0:
136,209,4139,6,0,B|193:183|238:212|281:241|333:207|333:207|378:237|436:233|477:205|503:126|474:60|404:34|329:55|322:123|386:148,1,600,2|0,0:0|0:0,0:0:0:0:
382,146,5315,5,6,1:2:0:0:
222,286,5462,1,2,0:0:0:0:
112,109,5610,1,10,0:0:0:0:
331,208,5757,6,0,L|341:318,1,110.000003356934,2|0,0:0|1:2,0:0:0:0:
206,121,6051,2,0,L|216:12,1,110.000003356934,2|8,1:2|0:0,0:0:0:0:
139,247,6345,1,2,0:0:0:0:
409,165,6492,6,0,P|371:131|308:126,1,110.000003356934,2|0,1:2|0:0,0:0:0:0:
110,179,6786,1,10,0:0:0:0:
300,235,6933,2,0,L|286:347,1,110.000003356934,2|0,0:0|1:2,0:0:0:0:
135,384,7227,2,0,L|122:262,2,110.000003356934,2|8|0,1:2|0:0|0:0,0:0:0:0:
0,311,7668,5,2,1:2:0:0:
132,171,7815,1,2,0:0:0:0:
270,309,7962,1,10,0:0:0:0:
63,233,8110,6,0,P|41:173|52:124,1,110.000003356934,2|0,0:0|1:2,0:0:0:0:
285,200,8404,2,0,L|268:318,1,110.000003356934,2|8,1:2|0:0,0:0:0:0:
345,113,8698,1,2,0:0:0:0:
339,351,8845,5,2,1:2:0:0:
190,189,8992,1,0,0:0:0:0:
320,10,9139,1,10,0:0:0:0:
458,181,9286,6,0,L|446:292,1,110.000003356934,2|0,0:0|1:2,0:0:0:0:
313,371,9580,2,0,L|301:261,2,110.000003356934,2|8|0,1:2|0:0|0:0,0:0:0:0:
496,354,10021,5,2,1:2:0:0:
357,175,10168,1,2,0:0:0:0:
202,335,10315,1,10,0:0:0:0:
446,290,10462,6,0,L|458:181,1,110.000003356934,2|0,0:0|1:2,0:0:0:0:
217,116,10757,2,0,L|228:225,1,110.000003356934,2|8,1:2|0:0,0:0:0:0:
455,83,11051,1,2,0:0:0:0:
286,287,11198,6,0,P|230:308|171:285,1,110.000003356934,2|0,1:2|0:0,0:0:0:0:
53,127,11492,1,10,0:0:0:0:
40,341,11639,2,0,L|51:231,1,110.000003356934,2|0,0:0|1:2,0:0:0:0:
217,116,11933,2,0,L|228:225,2,110.000003356934,2|8|2,1:2|0:0|0:0,0:0:0:0:
263,358,12374,5,2,1:2:0:0:
314,374,12448,1,2,0:0:0:0:
364,366,12521,1,2,0:0:0:0:
400,334,12595,1,2,0:0:0:0:
411,290,12668,1,10,0:0:0:0:
400,249,12742,1,2,0:0:0:0:
372,221,12815,1,2,0:0:0:0:
338,208,12889,1,2,0:0:0:0:
305,209,12962,1,2,1:2:0:0:
280,226,13036,1,2,0:0:0:0:
267,250,13110,1,2,1:2:0:0:
268,273,13183,1,2,0:0:0:0:
281,288,13257,1,10,0:0:0:0:
297,294,13330,1,2,0:0:0:0:
312,293,13404,1,2,0:0:0:0:
321,285,13477,1,2,0:0:0:0:
325,276,13551,6,0,P|324:249|318:219,3,55.0000016784668,10|2|2|2,0:0|0:0|1:2|0:0,0:0:0:0:
391,183,13845,6,0,P|378:162|358:147,3,44.999998626709,10|2|2|2,0:0|0:0|1:2|0:0,0:0:0:0:
401,83,14139,6,0,P|381:75|360:72,3,34.9999989318848,2|2|2|2,1:2|0:0|1:2|0:0,0:0:0:0:
362,2,14433,6,0,P|343:5|325:14,3,25,10|2|2|2,0:0|0:0|0:0|0:0,0:0:0:0:
291,73,14727,6,0,L|207:82,1,80,6|0,1:2|0:0,0:0:0:0:
56,24,15021,2,0,P|99:29|128:55,1,80,10|0,0:0|0:0,0:0:0:0:
143,142,15315,2,0,L|134:222,1,80,2|0,1:2|0:0,0:0:0:0:
89,297,15610,1,10,0:0:0:0:
221,204,15757,6,0,B|316:181|273:239|377:211,2,160,2|2|2,0:0|0:0|0:0,0:0:0:0:
328,50,16492,2,0,L|337:133,1,80,2|0,1:2|0:0,0:0:0:0:
456,260,16786,2,0,L|464:180,1,80,10|0,0:0|0:0,0:0:0:0:
325,316,17080,6,0,P|294:340|250:344,1,80,2|0,1:2|0:0,0:0:0:0:
103,312,17374,2,0,L|183:298,1,80,10|0,0:0|0:0,0:0:0:0:
262,262,17668,2,0,L|270:183,1,80,2|0,1:2|0:0,0:0:0:0:
396,71,17962,1,10,0:0:0:0:
376,238,18110,1,2,0:0:0:0:
274,100,18257,6,0,B|223:76|223:76|114:102,1,160,0|8,1:2|0:0,0:0:0:0:
21,258,18698,1,0,0:0:0:0:
21,258,18845,2,0,P|65:289|99:209,1,160,2|8,1:2|0:0,0:0:0:0:
274,100,19433,5,2,1:2:0:0:
323,203,19580,2,0,L|405:216,1,80,2|8,0:0|0:0,0:0:0:0:
478,144,19874,1,2,0:0:0:0:
501,252,20021,2,0,L|484:336,2,80,2|0|10,1:2|0:0|0:0,0:0:0:0:
512,73,20462,6,0,P|448:70|401:152,1,160,2|2,0:0|0:0,0:0:0:0:
270,282,20904,1,10,0:0:0:0:
274,100,21051,1,2,0:0:0:0:
403,244,21198,2,0,L|392:328,1,80,2|0,1:2|0:0,0:0:0:0:
280,361,21492,2,0,L|269:281,1,80,10|0,0:0|0:0,0:0:0:0:
153,224,21786,6,0,P|103:210|37:291,1,160,2|8,1:2|0:0,0:0:0:0:
36,281,22227,1,2,0:0:0:0:
207,151,22374,2,0,P|236:189|208:297,2,160,2|8|0,1:2|0:0|1:2,0:0:0:0:
51,123,23257,5,8,0:0:0:0:
235,22,23551,1,0,1:2:0:0:
434,125,23845,1,8,0:0:0:0:
277,215,23992,6,0,L|280:170,1,40,8|8,0:0|0:0,0:0:0:0:
348,75,24139,5,0,1:2:0:0:
354,149,24237,5,2,0:0:0:0:
360,223,24335,5,2,0:0:0:0:
368,297,24433,6,0,L|375:359,2,53.3333333333333,10|2|2,0:3|0:0|0:0,0:0:0:0:
275,311,24727,5,6,0:3:0:0:
228,337,24825,5,2,0:0:0:0:
175,343,24923,5,2,0:0:0:0:
123,328,25021,6,0,L|113:274,2,53.3333333333333,10|2|2,0:3|0:0|0:0,0:0:0:0:
25,217,25315,5,6,1:2:0:0:
88,133,25462,1,2,0:0:0:0:
193,140,25610,1,10,0:0:0:0:
235,234,25757,2,0,P|274:246|316:240,1,69.9999978637696,10|0,0:0|0:0,0:0:0:0:
380,173,26051,1,2,1:2:0:0:
405,274,26198,2,0,L|395:354,1,69.9999978637696,10|0,0:0|0:0,0:0:0:0:
303,244,26492,5,2,1:2:0:0:
261,147,26639,1,2,0:0:0:0:
161,112,26786,1,10,0:0:0:0:
69,163,26933,1,10,0:0:0:0:
57,267,27080,2,0,L|66:343,2,69.9999978637696,2|0|8,1:2|0:0|0:0,0:0:0:0:
496,70,27668,5,2,1:2:0:0:
449,164,27815,1,2,0:0:0:0:
378,86,27962,2,0,L|308:90,1,69.9999978637696,10|8,0:0|0:0,0:0:0:0:
255,184,28257,5,2,0:0:0:0:
255,184,28330,1,2,0:0:0:0:
255,184,28404,1,2,1:2:0:0:
202,93,28551,1,10,0:0:0:0:
146,182,28698,1,2,0:0:0:0:
91,86,28845,6,0,P|51:123|46:198,1,129.999994049073,2|2,3:0|0:0,0:0:0:0:
0,275,29139,6,0,P|36:309|86:316,1,100,2|2,3:0|0:0,0:0:0:0:
158,376,29433,6,0,P|201:373|229:359,1,69.9999978637696,2|2,3:0|0:0,0:0:0:0:
322,348,29727,6,0,P|343:301|327:240,1,100,2|2,3:0|0:0,0:0:0:0:
177,125,30021,5,6,1:2:0:0:
234,37,30168,1,2,0:0:0:0:
284,129,30315,2,0,L|358:124,1,69.9999978637696,10|8,0:0|0:0,0:0:0:0:
406,32,30610,5,2,0:0:0:0:
463,119,30757,1,2,1:2:0:0:
432,219,30904,1,10,0:0:0:0:
332,253,31051,2,0,L|254:258,1,69.9999978637696,2|0,0:0|1:2,0:0:0:0:
186,184,31345,1,2,0:0:0:0:
154,283,31492,2,0,L|72:279,1,69.9999978637696,10|8,0:0|0:0,0:0:0:0:
0,216,31786,5,2,0:0:0:0:
96,175,31933,1,2,1:2:0:0:
4,122,32080,1,10,0:0:0:0:
98,75,32227,1,2,0:0:0:0:
5,24,32374,5,14,0:0:0:0:
157,367,32962,5,14,0:0:0:0:
401,70,33551,5,14,0:0:0:0:
232,223,33845,1,14,0:0:0:0:
459,353,34139,5,14,0:0:0:0:
459,343,34212,1,0,3:0:0:0:
459,332,34286,1,0,3:0:0:0:
459,321,34360,1,0,3:0:0:0:
459,311,34433,1,0,3:0:0:0:
459,300,34507,1,0,3:0:0:0:
459,290,34580,1,0,3:0:0:0:
459,279,34654,1,0,3:0:0:0:
459,269,34727,6,0,P|412:265|348:287,1,100,6|0,1:2|0:0,0:0:0:0:
259,357,35021,2,0,P|212:361|148:339,1,100,10|0,0:0|0:0,0:0:0:0:
108,233,35315,2,0,L|126:127,1,100,2|0,1:2|0:0,0:0:0:0:
226,19,35610,1,10,0:0:0:0:
226,19,35757,1,2,0:0:0:0:
282,175,35904,6,0,P|331:194|378:184,1,100,2|0,1:2|0:0,0:0:0:0:
385,64,36198,2,0,P|336:45|289:55,1,100,10|0,0:0|0:0,0:0:0:0:
168,159,36492,2,0,L|60:173,2,100,2|0|8,1:2|0:0|0:0,0:0:0:0:
452,9,37080,6,0,P|473:58|464:107,1,100,2|0,1:2|0:0,0:0:0:0:
340,204,37374,1,10,0:0:0:0:
340,204,37521,1,2,0:0:0:0:
479,262,37668,2,0,L|491:365,1,100,2|0,1:2|0:0,0:0:0:0:
339,282,37962,1,10,0:0:0:0:
500,186,38110,1,2,0:0:0:0:
379,358,38257,6,0,P|329:368|281:345,1,100,2|0,1:1|0:0,0:0:0:0:
297,207,38551,2,0,P|347:197|407:233,1,115.000002193451,10|2,0:1|0:0,0:0:0:0:
202,271,38845,2,0,P|142:246|10:364,1,259.999988098145,2|8,1:1|0:0,0:0:0:0:
206,275,39433,5,2,1:2:0:0:
206,275,39580,1,2,0:0:0:0:
301,164,39727,1,10,0:0:0:0:
301,164,39874,1,2,0:0:0:0:
186,54,40021,2,0,L|81:64,1,100,2|0,1:2|0:0,0:0:0:0:
301,164,40315,2,0,L|406:174,1,100,10|0,0:0|0:0,0:0:0:0:
206,275,40610,6,0,P|183:228|191:178,1,100,2|0,1:2|0:0,0:0:0:0:
329,276,40904,2,0,P|328:325|299:364,1,100,10|0,0:0|0:0,0:0:0:0:
131,375,41198,2,0,L|31:385,2,100,2|0|8,1:2|0:0|0:0,0:0:0:0:
423,319,41786,6,0,P|427:274|408:240,1,75.0000028610231,10|0,0:1|0:0,0:0:0:0:
472,190,41933,2,0,P|435:164|396:163,1,75.0000028610231,10|0,0:0|0:0,0:0:0:0:
340,217,42080,5,2,0:0:0:0:
340,217,42227,1,2,0:0:0:0:
198,234,42374,6,0,P|234:259|273:260,1,75.0000028610231,10|0,0:1|0:0,0:0:0:0:
285,342,42521,2,0,P|325:322|345:289,1,75.0000028610231,10|0,0:0|0:0,0:0:0:0:
340,217,42668,5,2,0:0:0:0:
340,217,42815,1,2,0:0:0:0:
384,83,42962,6,0,P|343:102|323:135,1,75.0000028610231,10|0,0:1|0:0,0:0:0:0:
247,105,43109,2,0,P|243:150|262:184,1,75.0000028610231,10|0,0:0|0:0,0:0:0:0:
340,217,43257,5,2,0:0:0:0:
340,217,43404,1,2,0:0:0:0:
439,331,43551,6,0,P|443:286|424:252,1,75.0000028610231,10|0,0:1|0:0,0:0:0:0:
235,96,43698,2,0,P|231:141|250:175,1,75.0000028610231,10|0,0:0|0:0,0:0:0:0:
340,217,43845,5,2,0:0:0:0:
340,217,43992,1,2,0:0:0:0:
466,136,44139,6,0,L|320:125,1,139.999995727539,6|0,1:2|0:0,0:0:0:0:
45,263,44727,2,0,L|184:252,1,139.999995727539,10|0,0:0|0:0,0:0:0:0:
501,203,45315,6,0,L|490:63,1,139.999995727539,2|0,1:2|1:2,0:0:0:0:
14,190,45904,2,0,L|3:330,1,139.999995727539,10|0,0:0|1:2,0:0:0:0:
256,192,46492,5,6,1:2:0:0:
256,192,46565,12,0,48551,1:2:0:0:
117,298,48845,5,6,1:2:0:0:
412,239,48992,1,2,0:0:0:0:
101,286,49139,1,10,0:0:0:0:
388,133,49286,5,2,0:0:0:0:
97,97,49433,1,6,1:2:0:0:
403,118,49580,1,2,0:0:0:0:
209,345,49727,5,10,0:0:0:0:
176,34,49874,1,2,0:0:0:0:
41,333,50021,5,10,0:0:0:0:
173,280,50168,1,2,1:2:0:0:
5,237,50315,5,10,0:0:0:0:
233,206,50462,1,2,1:2:0:0:
55,149,50610,5,10,0:0:0:0:
325,177,50757,1,2,1:2:0:0:
41,333,50904,5,10,0:0:0:0:
12,289,50977,1,8,0:0:0:0:
5,237,51051,1,10,0:0:0:0:
20,188,51124,1,8,0:0:0:0:
55,149,51198,6,0,P|115:172|176:160,1,119.999996337891,6|0,1:2|0:0,0:0:0:0:
321,66,51492,1,10,0:0:0:0:
309,264,51639,1,2,0:0:0:0:
159,58,51786,1,2,1:2:0:0:
432,20,51933,1,2,1:2:0:0:
309,264,52080,1,10,0:0:0:0:
146,43,52227,6,0,L|17:23,1,119.999996337891,2|0,0:0|1:2,0:0:0:0:
339,151,52521,1,2,0:0:0:0:
339,151,52668,1,10,0:0:0:0:
136,262,52815,2,0,L|153:142,2,119.999996337891,2|0|0,0:0|1:2|1:2,0:0:0:0:
374,86,53257,2,0,L|388:207,1,119.999996337891,10|0,0:0|0:0,0:0:0:0:
268,341,53551,6,0,P|209:364|151:349,1,119.999996337891,2|0,1:2|0:0,0:0:0:0:
18,255,53845,1,10,0:0:0:0:
287,136,53992,2,0,L|271:262,1,119.999996337891,2|0,0:0|1:2,0:0:0:0:
44,368,54286,1,2,1:2:0:0:
129,117,54433,1,10,0:0:0:0:
268,341,54580,1,2,0:0:0:0:
56,169,54727,6,0,P|42:108|67:51,1,119.999996337891,0|0,1:2|0:0,0:0:0:0:
308,13,55021,2,0,L|317:138,1,119.999996337891,8|0,0:0|0:0,0:0:0:0:
494,356,55315,2,0,B|507:211|507:211|484:257|431:265,1,239.999992675781,2|8,1:2|0:0,0:0:0:0:
433,264,55757,1,0,0:0:0:0:
317,133,55904,6,0,B|167:99|228:192|78:147,2,239.999992675781,6|8|0,1:2|0:0|1:2,0:0:0:0:
436,268,56639,1,2,1:2:0:0:
285,210,56786,1,10,0:0:0:0:
407,95,56933,1,2,0:0:0:0:
254,324,57080,5,2,1:1:0:0:
215,50,57227,1,0,0:0:0:0:
270,333,57374,1,8,0:0:0:0:
407,95,57521,2,0,B|399:52|457:33|457:33|496:76|498:133|443:167,1,239.999992675781,2|0,0:1|1:2,0:0:0:0:
282,238,57962,2,0,L|149:221,1,119.999996337891,8|0,0:0|0:0,0:0:0:0:
12,130,58257,6,0,L|-1:30,2,100,14|2|2,0:3|0:0|0:0,0:0:0:0:
147,147,58698,1,10,0:3:0:0:
147,147,58845,2,0,L|159:45,1,100,2|2,0:0|0:0,0:0:0:0:
65,248,59139,1,10,0:3:0:0:
65,248,59286,1,2,0:0:0:0:
294,49,59433,5,6,3:0:0:0:
367,362,59727,5,6,3:0:0:0:
65,248,60021,5,10,0:0:0:0:
256,192,60168,1,14,0:0:0:0:
186,384,60315,5,2,0:0:0:0:
182,343,60389,1,2,0:0:0:0:
178,303,60462,1,2,0:0:0:0:
174,262,60536,1,2,0:0:0:0:
170,221,60610,5,6,1:2:0:0:
316,358,60757,1,2,0:0:0:0:
92,369,60904,1,10,0:0:0:0:
256,192,61051,1,2,0:0:0:0:
433,378,61198,5,2,1:2:0:0:
170,221,61345,1,2,1:2:0:0:
421,139,61492,1,10,0:0:0:0:
296,367,61639,2,0,L|308:240,1,119.999996337891,2|0,0:0|1:2,0:0:0:0:
476,26,61933,1,2,0:0:0:0:
476,26,62080,1,10,0:0:0:0:
507,311,62227,2,0,P|444:307|402:272,2,119.999996337891,2|0|0,0:0|1:2|1:2,0:0:0:0:
258,147,62668,1,10,0:0:0:0:
258,147,62815,1,2,0:0:0:0:
240,350,62962,6,0,P|175:364|120:341,1,119.999996337891,2|0,1:2|0:0,0:0:0:0:
61,185,63257,1,10,0:0:0:0:
433,182,63404,2,0,L|418:308,1,119.999996337891,2|0,0:0|1:2,0:0:0:0:
129,101,63698,2,0,L|144:227,1,119.999996337891,2|8,1:2|0:0,0:0:0:0:
424,55,63992,1,2,0:0:0:0:
165,231,64139,6,0,L|150:111,1,119.999996337891,0|0,1:2|0:0,0:0:0:0:
397,315,64433,2,0,L|411:195,1,119.999996337891,8|0,0:0|0:0,0:0:0:0:
181,331,64727,1,2,1:2:0:0:
136,326,64801,1,2,0:0:0:0:
98,303,64874,1,2,1:2:0:0:
74,265,64948,1,2,0:0:0:0:
70,221,65021,1,10,0:0:0:0:
85,179,65095,1,2,0:0:0:0:
118,149,65168,1,2,0:0:0:0:
160,136,65242,1,2,0:0:0:0:
203,146,65315,6,0,P|288:186|366:78,2,239.999992675781,6|8|0,1:2|0:0|1:2,0:0:0:0:
40,65,66051,1,2,1:2:0:0:
137,236,66198,1,10,0:0:0:0:
200,50,66345,1,2,0:0:0:0:
58,201,66492,6,0,P|55:267|95:312,1,119.999996337891,2|0,1:2|0:0,0:0:0:0:
259,159,66786,1,10,0:0:0:0:
267,380,66933,1,2,0:0:0:0:
159,159,67080,5,2,1:2:0:0:
371,100,67227,1,0,1:2:0:0:
323,312,67374,1,8,0:0:0:0:
180,79,67521,1,2,0:0:0:0:
180,79,67595,1,2,0:0:0:0:
180,79,67668,6,0,P|103:94|78:178,1,160,14|0,3:0|0:0,0:0:0:0:
28,243,68110,6,0,P|68:310|184:314,1,200,10|0,3:0|0:0,0:0:0:0:
300,383,68551,6,0,P|379:331|332:204,1,239.999992675781,10|0,3:0|0:0,0:0:0:0:
391,15,68992,6,0,P|300:2|241:162,1,279.999991455078,10|0,3:0|0:0,0:0:0:0:
512,357,69433,6,0,L|496:221,1,119.999996337891,10|0,3:0|0:0,0:0:0:0:
341,208,69727,1,10,0:0:0:0:
288,204,69800,1,8,0:0:0:0:
239,224,69874,1,8,0:0:0:0:
204,262,69947,1,8,0:0:0:0:
188,312,70021,1,14,0:0:0:0:
256,192,70095,12,2,71786,0:0:0:0:
378,108,72374,5,14,0:0:0:0:
186,160,72815,5,2,1:2:0:0:
378,108,72962,1,14,0:0:0:0:
430,299,73551,5,6,1:2:0:0:
238,352,73698,1,2,0:0:0:0:
186,160,73845,1,14,0:0:0:0:
378,108,73992,1,2,0:0:0:0:
319,235,74139,5,6,1:2:0:0:
319,235,74434,1,8,0:0:0:0:
267,221,74507,1,8,0:0:0:0:
215,233,74581,1,8,0:0:0:0:
174,264,74654,1,8,0:0:0:0:
150,310,74727,5,6,1:2:0:0:
340,348,74874,1,2,0:0:0:0:
434,172,75021,1,10,0:0:0:0:
237,262,75168,6,0,L|244:376,1,110.000003356934,2|0,0:0|1:2,0:0:0:0:
104,173,75462,2,0,L|116:59,1,110.000003356934,2|8,1:2|0:0,0:0:0:0:
49,326,75757,1,2,0:0:0:0:
222,164,75904,6,0,P|282:164|333:188,1,110.000003356934,2|0,1:2|0:0,0:0:0:0:
491,338,76198,1,10,0:0:0:0:
512,109,76345,2,0,L|499:229,1,110.000003356934,2|0,0:0|1:2,0:0:0:0:
297,338,76639,1,2,1:2:0:0:
381,130,76786,1,10,0:0:0:0:
491,338,76933,1,2,0:0:0:0:
329,66,77080,6,0,B|277:28|277:28|309:190,2,220.000006713867,2|8|0,1:2|0:0|1:2,0:0:0:0:
329,66,77815,1,0,1:2:0:0:
222,221,77962,2,0,L|199:107,1,110.000003356934,8|0,0:0|0:0,0:0:0:0:
166,293,78257,6,0,P|213:311|262:302,1,100.000003814697,2|0,1:2|0:0,0:0:0:0:
295,384,78453,2,0,P|334:352|350:305,1,100.000003814697,10|0,0:0|0:0,0:0:0:0:
438,317,78649,2,0,P|430:267|397:229,1,100.000003814697,10|0,0:0|0:0,0:0:0:0:
237,158,78845,6,0,P|221:190|224:228,1,66.6666666666667,10|0,0:0|0:0,0:0:0:0:
248,80,79041,2,0,P|212:82|180:103,1,66.6666666666667,10|0,0:3|0:0,0:0:0:0:
321,50,79237,2,0,P|301:20|266:3,1,66.6666666666667,6|0,0:3|0:0,0:0:0:0:
398,86,79433,5,6,1:2:0:0:
492,189,80610,5,2,1:2:0:0:
420,313,81786,5,2,1:2:0:0:
282,283,82962,5,2,1:2:0:0:
267,142,83551,6,0,L|271:109,1,25,2|0,1:1|0:0,0:0:0:0:
282,283,84139,5,2,1:2:0:0:
420,313,85315,5,2,1:2:0:0:
492,189,86491,5,2,1:2:0:0:
398,86,87668,5,2,1:2:0:0:
267,142,88698,6,0,L|263:91,1,40,8|8,0:0|0:0,0:0:0:0:
351,54,88845,5,2,1:2:0:0:
357,128,88943,5,2,0:0:0:0:
363,202,89041,5,2,0:0:0:0:
371,276,89139,6,0,L|378:338,2,53.3333333333333,10|2|2,0:3|0:0|0:0,0:0:0:0:
268,322,89433,5,6,0:3:0:0:
221,348,89531,5,2,0:0:0:0:
168,354,89629,5,2,0:0:0:0:
116,339,89727,6,0,L|106:285,2,53.3333333333333,10|2|2,0:3|0:0|0:0,0:0:0:0:
54,218,90021,5,6,1:2:0:0:
106,127,90168,2,0,L|96:51,2,69.9999978637696,2|10|10,0:0|0:0|0:0,0:0:0:0:
160,217,90610,1,2,0:0:0:0:
201,120,90757,1,2,1:2:0:0:
252,211,90904,2,0,L|334:203,1,69.9999978637696,10|2,0:0|0:0,0:0:0:0:
402,136,91198,5,2,1:2:0:0:
491,190,91345,1,2,0:0:0:0:
465,291,91492,1,10,0:0:0:0:
362,301,91639,1,10,0:0:0:0:
321,204,91786,2,0,L|252:211,2,69.9999978637696,2|0|8,0:0|1:2|0:0,0:0:0:0:
3,127,92374,5,0,1:2:0:0:
43,223,92521,2,0,L|34:298,2,69.9999978637696,2|10|10,0:0|0:0|0:0,0:0:0:0:
104,137,92962,1,2,0:0:0:0:
150,231,93110,1,2,1:2:0:0:
205,141,93257,2,0,L|278:135,1,69.9999978637696,10|2,0:0|0:0,0:0:0:0:
349,79,93551,6,0,P|369:145|340:200,1,129.999994049073,2|2,3:0|0:0,0:0:0:0:
417,274,93845,6,0,P|376:308|326:317,1,100,2|2,3:0|0:0,0:0:0:0:
266,384,94139,6,0,P|232:370|209:337,1,69.9999978637696,2|2,3:0|0:0,0:0:0:0:
97,343,94433,6,0,P|73:293|78:239,1,100,2|2,3:0|0:0,0:0:0:0:
208,102,94727,6,0,L|220:174,1,69.9999978637696,6|0,1:2|0:0,0:0:0:0:
283,254,95021,1,10,0:0:0:0:
322,156,95168,2,0,L|402:146,1,69.9999978637696,10|0,0:0|0:0,0:0:0:0:
447,236,95462,2,0,L|377:244,1,69.9999978637696,2|8,1:2|0:0,0:0:0:0:
283,254,95757,6,0,L|210:247,1,69.9999978637696,2|0,0:0|1:2,0:0:0:0:
149,163,96051,1,2,0:0:0:0:
105,258,96198,1,10,0:0:0:0:
48,169,96345,1,10,0:0:0:0:
105,258,96492,2,0,L|97:333,2,69.9999978637696,2|0|8,0:0|1:2|0:0,0:0:0:0:
35,26,97080,6,0,L|114:36,1,69.9999978637696,14|0,0:0|0:0,0:0:0:0:
175,112,97374,2,0,L|251:105,1,69.9999978637696,2|0,0:0|0:0,0:0:0:0:
312,27,97668,1,14,0:0:0:0:
312,27,97742,1,2,0:0:0:0:
312,27,97815,1,2,0:0:0:0:
349,124,97962,1,2,0:0:0:0:
453,137,98110,1,2,0:0:0:0:
510,49,98257,5,14,0:0:0:0:
160,102,98551,5,10,0:0:0:0:
286,363,98845,5,14,0:0:0:0:
285,353,98918,1,0,3:0:0:0:
284,342,98992,1,0,3:0:0:0:
283,332,99065,1,0,3:0:0:0:
282,321,99139,1,0,3:0:0:0:
281,311,99212,1,0,3:0:0:0:
281,300,99286,1,0,3:0:0:0:
281,289,99360,1,0,3:0:0:0:
280,279,99433,6,0,P|338:275|388:286,1,100,6|0,1:2|0:0,0:0:0:0:
491,374,99727,2,0,P|465:327|478:272,1,100,10|0,0:0|0:0,0:0:0:0:
436,98,100021,2,0,L|423:198,1,100,2|0,1:2|0:0,0:0:0:0:
331,370,100315,1,10,0:0:0:0:
331,370,100462,1,2,0:0:0:0:
273,167,100610,6,0,P|229:150|171:158,1,100,2|0,1:2|0:0,0:0:0:0:
157,283,100904,2,0,P|201:300|259:292,1,100,10|0,0:0|0:0,0:0:0:0:
381,158,101198,2,0,L|368:53,2,100,2|0|8,1:2|0:0|0:0,0:0:0:0:
146,382,101786,6,0,L|157:280,1,100,2|0,1:2|0:0,0:0:0:0:
229,87,102080,1,10,0:0:0:0:
229,87,102227,1,2,0:0:0:0:
329,256,102374,1,2,1:2:0:0:
329,256,102521,1,2,0:0:0:0:
138,185,102668,1,10,0:0:0:0:
319,109,102815,1,2,0:0:0:0:
265,309,102962,6,0,P|248:258|260:210,1,100,2|0,1:1|0:0,0:0:0:0:
465,207,103257,2,0,P|482:258|463:316,1,115.000002193451,10|2,0:1|0:0,0:0:0:0:
333,165,103551,2,0,P|288:104|123:139,1,259.999988098145,2|8,1:1|0:0,0:0:0:0:
25,371,104139,6,0,L|134:358,1,100,2|0,1:2|0:0,0:0:0:0:
210,234,104433,1,10,0:0:0:0:
210,234,104580,1,2,0:0:0:0:
268,370,104727,2,0,L|377:380,1,100,2|0,1:2|0:0,0:0:0:0:
341,181,105021,2,0,P|315:224|332:286,1,100,10|0,0:0|0:0,0:0:0:0:
202,314,105315,6,0,P|177:269|115:253,1,100,2|0,1:2|0:0,0:0:0:0:
28,365,105610,2,0,P|78:366|123:320,1,100,10|0,0:0|0:0,0:0:0:0:
71,189,105904,2,0,P|45:232|62:294,2,100,2|0|8,1:2|0:0|0:0,0:0:0:0:
389,83,106492,6,0,P|393:128|374:162,1,75.0000028610231,10|0,0:1|0:0,0:0:0:0:
438,212,106639,2,0,P|401:237|362:238,1,75.0000028610231,10|0,0:0|0:0,0:0:0:0:
306,185,106786,5,2,0:0:0:0:
306,185,106933,1,2,0:0:0:0:
164,168,107080,6,0,P|200:142|239:141,1,75.0000028610231,10|0,0:1|0:0,0:0:0:0:
251,60,107227,2,0,P|291:79|311:112,1,75.0000028610231,10|0,0:0|0:0,0:0:0:0:
306,185,107374,5,2,0:0:0:0:
306,185,107521,1,2,0:0:0:0:
350,319,107668,6,0,P|309:299|289:266,1,75.0000028610231,10|0,0:1|0:0,0:0:0:0:
213,297,107815,2,0,P|209:252|228:218,1,75.0000028610231,10|0,0:0|0:0,0:0:0:0:
306,185,107963,5,2,0:0:0:0:
306,185,108110,1,2,0:0:0:0:
401,72,108257,6,0,P|405:117|386:151,1,75.0000028610231,10|0,0:1|0:0,0:0:0:0:
201,307,108404,2,0,P|197:262|216:228,1,75.0000028610231,10|0,0:0|0:0,0:0:0:0:
306,185,108551,5,2,0:0:0:0:
306,185,108698,1,2,0:0:0:0:
430,297,108845,6,0,L|280:274,1,139.999995727539,6|0,1:2|0:0,0:0:0:0:
84,85,109433,2,0,L|222:62,1,139.999995727539,10|0,0:0|0:0,0:0:0:0:
468,221,110021,6,0,L|479:367,1,139.999995727539,2|0,1:2|1:2,0:0:0:0:
47,153,110610,2,0,L|57:13,1,139.999995727539,10|0,0:0|1:2,0:0:0:0:
256,192,111198,5,6,1:2:0:0:
256,192,111271,12,0,113257,1:2:0:0:
126,322,113551,5,6,1:2:0:0:
167,54,113698,1,2,0:0:0:0:
145,338,113845,1,10,0:0:0:0:
306,71,113992,5,2,0:0:0:0:
349,361,114139,1,6,1:2:0:0:
295,57,114286,1,2,0:0:0:0:
100,263,114433,5,10,0:0:0:0:
391,172,114580,1,2,0:0:0:0:
126,65,114727,6,0,P|120:92|125:120,3,50,10|0|2|0,0:0|0:0|1:2|0:0,0:0:0:0:
63,189,115021,2,0,P|83:207|110:217,3,50,10|0|2|0,0:0|0:0|1:2|0:0,0:0:0:0:
138,305,115315,6,0,P|164:296|186:278,1,50,10|0,0:0|0:0,0:0:0:0:
169,338,115389,6,0,P|190:321|205:296,1,50,2|0,0:0|0:0,0:0:0:0:
208,354,115462,6,0,P|222:330|227:302,1,50,2|0,1:2|0:0,0:0:0:0:
246,356,115536,6,0,P|252:328|247:301,1,50,2|0,0:0|0:0,0:0:0:0:
281,344,115610,6,0,P|277:316|263:291,1,50,10|0,0:0|0:0,0:0:0:0:
304,322,115683,6,0,P|291:297|269:279,1,50,10|0,0:0|0:0,0:0:0:0:
317,294,115757,6,0,P|296:275|269:265,1,50,10|0,0:0|0:0,0:0:0:0:
316,263,115830,6,0,P|290:252|262:252,1,50,10|0,0:0|0:0,0:0:0:0:
311,238,115904,5,6,1:2:0:0:
76,308,116051,1,2,0:0:0:0:
218,117,116198,1,10,0:0:0:0:
281,344,116345,1,2,0:0:0:0:
104,117,116492,5,2,1:2:0:0:
353,49,116639,1,2,1:2:0:0:
90,109,116786,1,10,0:0:0:0:
355,288,116933,6,0,L|340:162,1,119.999996337891,2|0,0:0|1:2,0:0:0:0:
76,100,117227,2,0,L|61:219,1,119.999996337891,2|8,0:0|0:0,0:0:0:0:
218,384,117521,2,0,L|203:258,2,119.999996337891,2|0|0,0:0|1:2|1:2,0:0:0:0:
344,172,117962,1,10,0:0:0:0:
344,172,118110,1,2,0:0:0:0:
383,340,118257,6,0,P|457:336|429:196,1,239.999992675781,2|10,1:2|0:0,0:0:0:0:
219,42,118698,2,0,L|239:171,1,119.999996337891,2|0,0:0|1:2,0:0:0:0:
119,375,118992,1,2,1:2:0:0:
117,138,119139,1,10,0:0:0:0:
300,299,119286,1,2,0:0:0:0:
63,205,119433,6,0,P|32:150|43:97,1,119.999996337891,0|0,1:2|0:0,0:0:0:0:
255,42,119727,2,0,L|235:171,1,119.999996337891,8|0,0:0|0:0,0:0:0:0:
70,346,120021,2,0,P|123:286|264:340,1,239.999992675781,2|8,1:2|0:0,0:0:0:0:
260,330,120462,1,0,0:0:0:0:
474,362,120610,6,0,P|400:326|458:200,2,239.999992675781,6|8|0,1:2|0:0|1:2,0:0:0:0:
299,169,121345,1,2,1:2:0:0:
295,364,121492,1,10,0:0:0:0:
446,202,121639,1,2,0:0:0:0:
188,98,121786,5,2,1:1:0:0:
469,56,121933,1,0,0:0:0:0:
174,105,122080,1,8,0:0:0:0:
423,292,122227,2,0,B|483:267|502:191|440:145|440:145|447:211,1,239.999992675781,2|0,0:1|1:2,0:0:0:0:
322,359,122668,2,0,P|267:375|205:359,1,119.999996337891,8|0,0:0|0:0,0:0:0:0:
83,243,122962,6,0,L|71:140,2,100,14|2|2,0:3|0:0|0:0,0:0:0:0:
197,264,123404,1,10,0:3:0:0:
197,264,123551,2,0,L|209:161,1,100,2|2,0:0|0:0,0:0:0:0:
119,336,123845,1,10,0:3:0:0:
433,54,124139,5,6,3:0:0:0:
34,31,124433,5,6,3:0:0:0:
233,363,124727,5,10,0:0:0:0:
219,175,124874,1,14,0:0:0:0:
367,311,125021,5,2,0:0:0:0:
419,322,125095,1,2,0:0:0:0:
471,303,125168,1,2,0:0:0:0:
505,260,125242,1,2,0:0:0:0:
511,205,125315,5,6,1:2:0:0:
326,107,125462,1,2,0:0:0:0:
367,311,125610,1,10,0:0:0:0:
478,117,125757,1,2,0:0:0:0:
229,68,125904,5,2,1:2:0:0:
381,322,126051,2,0,L|372:197,1,119.999996337891,2|8,1:2|0:0,0:0:0:0:
215,55,126345,2,0,L|203:181,1,119.999996337891,2|0,0:0|1:2,0:0:0:0:
96,384,126639,1,2,0:0:0:0:
96,384,126786,1,10,0:0:0:0:
9,152,126933,2,0,P|75:152|117:182,2,119.999996337891,2|0|0,0:0|1:2|1:2,0:0:0:0:
179,264,127374,2,0,L|298:252,1,119.999996337891,10|0,0:0|0:0,0:0:0:0:
491,164,127668,6,0,P|505:225|489:286,1,119.999996337891,2|0,1:2|0:0,0:0:0:0:
332,354,127962,1,10,0:0:0:0:
308,74,128110,2,0,L|427:89,1,119.999996337891,2|0,0:0|1:2,0:0:0:0:
175,287,128404,2,0,L|294:275,1,119.999996337891,2|8,1:2|0:0,0:0:0:0:
74,81,128698,1,2,0:0:0:0:
303,251,128845,6,0,L|184:263,1,119.999996337891,0|0,1:2|0:0,0:0:0:0:
433,112,129139,2,0,L|314:97,1,119.999996337891,8|0,0:0|0:0,0:0:0:0:
387,340,129433,1,2,1:2:0:0:
430,334,129507,1,2,0:0:0:0:
465,306,129580,1,2,1:2:0:0:
479,265,129654,1,2,0:0:0:0:
468,221,129727,1,10,0:0:0:0:
436,191,129801,1,2,0:0:0:0:
393,182,129874,1,2,0:0:0:0:
351,199,129948,1,2,0:0:0:0:
325,235,130021,6,0,P|300:300|146:291,2,239.999992675781,6|8|0,1:2|0:0|1:2,0:0:0:0:
116,113,130757,1,2,1:2:0:0:
80,325,130904,1,10,0:0:0:0:
250,182,131051,1,2,0:0:0:0:
6,100,131198,6,0,L|19:224,1,119.999996337891,2|0,1:2|0:0,0:0:0:0:
246,280,131492,1,10,0:0:0:0:
198,68,131639,1,2,0:0:0:0:
99,246,131786,5,2,1:2:0:0:
307,144,131933,1,0,1:2:0:0:
246,370,132080,1,8,0:0:0:0:
321,63,132227,1,2,0:0:0:0:
321,63,132301,1,2,0:0:0:0:
321,63,132374,6,0,P|261:73|227:162,1,160,14|0,0:3|0:0,0:0:0:0:
132,212,132815,6,0,P|174:270|298:252,1,200,10|0,0:3|0:0,0:0:0:0:
453,315,133257,6,0,P|473:246|353:150,1,239.999992675781,10|0,0:3|0:0,0:0:0:0:
236,25,133698,6,0,P|133:59|145:224,1,279.999991455078,10|0,0:3|0:0,0:0:0:0:
304,378,134139,6,0,L|290:253,2,119.999996337891,10|0|10,0:3|1:2|0:3,0:0:0:0:
131,211,134727,6,0,P|117:80|236:25,1,279.999991455078,14|0,0:3|0:0,0:0:0:0:
358,149,135168,6,0,P|459:201|453:315,1,239.999992675781,10|0,0:3|0:0,0:0:0:0:
291,258,135610,6,0,P|198:280|132:212,1,200,10|0,0:3|0:0,0:0:0:0:
236,159,136051,6,0,P|248:84|321:63,1,160,10|0,0:3|0:0,0:0:0:0:
412,178,136492,6,0,L|340:170,1,70,14|0,0:3|0:0,0:0:0:0:
342,170,137080,5,14,0:0:0:0:
167,202,137521,5,2,1:2:0:0:
343,171,137668,1,14,0:0:0:0:
316,2,138257,5,6,1:2:0:0:
136,25,138404,1,2,0:0:0:0:
167,202,138551,1,14,0:0:0:0:
343,171,138698,1,2,0:0:0:0:
247,103,138845,5,6,1:2:0:0:
247,103,139139,1,8,0:0:0:0:
174,209,139286,1,8,0:0:0:0:
174,209,139360,1,8,0:0:0:0:
174,209,139433,6,0,L|168:282,1,69.9999978637696,6|0,1:2|0:0,0:0:0:0:
250,359,139727,1,0,3:0:0:0:
270,373,139801,1,0,3:0:0:0:
293,377,139874,1,0,3:0:0:0:
317,375,139948,1,0,3:0:0:0:
340,368,140021,2,0,L|336:295,1,69.9999978637696,8|0,0:0|0:0,0:0:0:0:
322,169,140315,1,0,1:2:0:0:
322,169,140462,1,8,0:0:0:0:
445,227,140610,6,0,L|517:238,2,69.9999978637696,2|8|0,1:2|0:0|1:2,0:0:0:0:
223,309,141198,2,0,L|151:320,2,69.9999978637696,8|0|0,0:0|1:2|1:2,0:0:0:0:
266,229,141639,1,8,0:0:0:0:
313,307,141786,6,0,L|385:318,1,69.9999978637696,2|0,0:0|0:0,0:0:0:0:
473,261,142080,1,0,3:0:0:0:
486,240,142154,1,0,3:0:0:0:
491,216,142227,1,0,3:0:0:0:
489,191,142301,1,0,3:0:0:0:
479,168,142374,2,0,P|441:181|409:176,1,69.9999978637696,8|0,0:0|0:0,0:0:0:0:
319,88,142668,1,0,1:2:0:0:
319,88,142815,1,8,0:0:0:0:
294,213,142962,6,0,B|252:243|252:243|158:217,1,139.999995727539,2|0,1:2|1:2,0:0:0:0:
110,69,143551,2,0,L|102:142,1,69.9999978637696,10|0,0:0|0:0,0:0:0:0:
70,240,143845,1,0,3:0:0:0:
72,264,143918,1,0,3:0:0:0:
75,288,143992,1,0,3:0:0:0:
78,312,144065,1,0,3:0:0:0:
81,336,144139,5,2,1:2:0:0:
276,337,144433,1,0,3:0:0:0:
279,313,144507,1,0,3:0:0:0:
282,289,144580,1,0,3:0:0:0:
285,265,144654,1,0,3:0:0:0:
287,241,144727,5,8,0:0:0:0:
200,92,145021,1,0,1:2:0:0:
200,92,145168,1,8,0:0:0:0:
181,176,145315,2,0,P|231:171|284:100,2,139.999995727539,2|0|8,1:2|1:2|0:0,0:0:0:0:
257,22,146198,1,0,1:2:0:0:
257,22,146345,1,8,0:0:0:0:
338,164,146492,6,0,L|411:174,1,69.9999978637696,2|0,1:2|0:0,0:0:0:0:
502,247,146786,1,2,3:0:0:0:
507,271,146860,1,0,3:0:0:0:
507,295,146933,1,0,3:0:0:0:
499,318,147007,1,0,3:0:0:0:
483,336,147080,2,0,L|407:350,1,69.9999978637696,10|0,0:0|0:0,0:0:0:0:
300,312,147374,2,0,L|231:299,1,69.9999978637696,2|8,1:2|0:0,0:0:0:0:
122,363,147668,5,2,3:0:0:0:
97,363,147742,1,0,3:0:0:0:
73,356,147815,1,0,3:0:0:0:
55,339,147889,1,0,3:0:0:0:
45,316,147962,1,0,3:0:0:0:
43,291,148036,1,0,3:0:0:0:
49,267,148110,1,0,3:0:0:0:
64,248,148183,1,0,3:0:0:0:
86,237,148257,5,10,0:0:0:0:
117,251,148330,1,0,3:0:0:0:
152,251,148404,1,0,3:0:0:0:
184,240,148477,1,0,3:0:0:0:
210,216,148551,1,0,3:0:0:0:
223,183,148624,1,0,3:0:0:0:
224,147,148698,1,0,3:0:0:0:
213,113,148771,1,0,3:0:0:0:
188,87,148845,6,0,L|193:178,1,85.0000016212464,6|0,1:2|0:0,0:0:0:0:
252,291,149139,1,2,3:0:0:0:
283,303,149212,1,0,3:0:0:0:
317,306,149286,1,0,3:0:0:0:
350,301,149360,1,0,3:0:0:0:
380,287,149433,2,0,L|373:198,1,85.0000016212464,10|0,0:0|0:0,0:0:0:0:
409,61,149727,2,0,P|460:92|423:138,1,127.50000243187,2|0,0:0|0:0,0:0:0:0:
348,119,150021,6,0,B|255:102|294:157|182:129,1,170.000003242493,2|0,1:2|1:2,0:0:0:0:
61,28,150610,2,0,B|15:7|15:7|44:134,1,170.000003242493,10|0,0:0|1:2,0:0:0:0:
50,225,151051,1,2,0:0:0:0:
52,237,151124,1,2,0:0:0:0:
54,249,151198,6,0,P|99:255|138:236,1,85.0000016212464,2|0,1:2|0:0,0:0:0:0:
212,106,151492,1,0,3:0:0:0:
244,95,151565,1,0,3:0:0:0:
278,94,151639,1,0,3:0:0:0:
309,105,151712,1,0,3:0:0:0:
332,130,151786,2,0,L|343:220,1,85.0000016212464,8|0,0:0|0:0,0:0:0:0:
432,317,152080,1,2,1:2:0:0:
432,317,152227,1,10,0:0:0:0:
476,186,152374,6,0,L|493:8,1,170.000003242493,2|0,1:2|1:2,0:0:0:0:
149,0,152962,2,0,L|165:169,1,170.000003242493,10|0,0:0|1:2,0:0:0:0:
361,363,153551,6,0,P|327:344|272:352,1,85.0000016212464,2|0,1:2|0:0,0:0:0:0:
140,371,153845,1,0,3:0:0:0:
111,378,153918,1,0,3:0:0:0:
81,379,153992,1,0,3:0:0:0:
51,374,154065,1,0,3:0:0:0:
24,359,154139,2,0,L|20:265,1,85.0000016212464,8|2,0:0|0:0,0:0:0:0:
107,143,154433,1,2,1:2:0:0:
107,143,154580,1,10,0:0:0:0:
167,285,154727,6,0,P|237:315|283:236,2,170.000003242493,2|2|10,1:2|1:2|0:0,0:0:0:0:
328,168,155610,1,0,1:2:0:0:
328,168,155757,1,0,0:0:0:0:
380,251,155904,6,0,L|470:254,1,85.0000016212464,2|0,1:2|0:0,0:0:0:0:
503,142,156198,1,2,3:0:0:0:
500,112,156271,1,0,3:0:0:0:
496,82,156345,1,2,3:0:0:0:
492,52,156418,1,0,3:0:0:0:
489,22,156492,2,0,P|448:42|408:34,1,85.0000016212464,10|2,0:0|0:0,0:0:0:0:
320,108,156786,1,2,1:2:0:0:
205,98,156933,1,10,0:0:0:0:
113,25,157080,6,0,B|68:-1|68:-1|93:121,1,170.000003242493,2|2,1:2|1:2,0:0:0:0:
286,341,157668,2,0,B|312:263|312:263|289:178,1,170.000003242493,10|2,0:0|1:2,0:0:0:0:
85,210,158257,6,0,P|73:262|175:200,1,280,6|2,1:1|0:0,0:0:0:0:
201,199,159360,1,2,0:0:0:0:
201,198,159433,6,0,P|134:328|72:197,1,359.999989013672,6|2,0:1|0:0,0:0:0:0:
75,119,160462,1,2,0:0:0:0:
80,39,160610,1,6,0:0:0:0:
424,98,161492,5,2,0:0:0:0:
424,116,161640,1,2,0:0:0:0:
424,134,161786,1,2,0:0:0:0:
188,356,162668,5,2,0:0:0:0:
266,342,162962,1,2,0:0:0:0:
276,263,163257,1,2,0:0:0:0:
204,228,163551,1,2,0:0:0:0:
150,286,163846,1,2,0:0:0:0:
188,356,164139,1,2,0:0:0:0:
391,97,165021,5,2,0:0:0:0:
386,172,165168,1,2,0:0:0:0:
382,247,165315,1,2,0:0:0:0:
302,100,165610,6,0,L|297:157,2,50,2|2|2,0:0|0:0|0:0,0:0:0:0:
109,156,166198,5,2,0:0:0:0:
114,231,166345,1,2,0:0:0:0:
118,306,166492,1,2,0:0:0:0:
198,159,166787,6,0,L|203:216,2,50,2|2|2,0:0|0:0|0:0,0:0:0:0:
342,345,167374,5,2,0:0:0:0:
268,282,167668,2,0,B|230:255|230:255|253:367,1,160,2|2,0:0|0:0,0:0:0:0:
411,282,168845,2,0,B|449:255|449:255|426:367,1,160,2|2,0:0|0:0,0:0:0:0:
343,218,169727,1,0,0:0:0:0:
343,210,169874,1,0,0:0:0:0:
342,200,170021,5,2,0:0:0:0:
297,139,170315,1,2,0:0:0:0:
225,162,170610,1,2,0:0:0:0:
225,237,170904,1,2,0:0:0:0:
297,261,171199,1,2,0:0:0:0:
434,147,171786,6,0,L|448:245,1,100,2|2,0:0|0:0,0:0:0:0:
297,261,172374,5,2,0:0:0:0:
225,237,172669,1,2,0:0:0:0:
225,162,172963,1,2,0:0:0:0:
297,139,173258,1,2,0:0:0:0:
342,200,173552,1,2,0:0:0:0:
48,96,174433,6,0,L|47:151,1,50,2|2,0:0|0:0,0:0:0:0:
46,229,174727,5,6,0:1:0:0:
163,163,174874,5,0,0:0:0:0:
281,209,175021,5,0,0:0:0:0:
295,310,175168,5,0,0:0:0:0:
379,351,175315,5,2,0:1:0:0:
456,329,175462,5,0,0:0:0:0:
481,252,175610,5,0,0:0:0:0:
452,177,175757,5,0,0:0:0:0:
379,143,175904,5,2,0:1:0:0:
337,170,176051,5,0,0:0:0:0:
297,171,176198,5,0,0:0:0:0:
269,158,176345,5,0,0:0:0:0:
259,140,176492,6,0,L|260:115,2,20,2|0|0,0:1|0:0|0:0,0:0:0:0:
168,286,177080,6,0,P|132:237|160:156,1,139.999995727539,14|0,0:0|0:0,0:0:0:0:
344,167,177668,2,0,P|363:231|326:288,1,139.999995727539,2|0,3:0|0:0,0:0:0:0:
171,69,178257,6,0,P|115:23|9:54,1,179.999994506836,2|0,3:0|0:0,0:0:0:0:
327,73,178845,2,0,P|383:27|489:58,1,179.999994506836,2|0,3:0|0:0,0:0:0:0:
256,192,179433,5,2,1:2:0:0:
253,218,179727,1,0,1:2:0:0:
251,244,180021,1,0,1:2:0:0:
249,270,180315,1,2,1:2:0:0:
74,267,180610,5,2,1:2:0:0:
77,293,180904,1,0,1:2:0:0:
79,319,181198,1,0,1:2:0:0:
81,345,181492,1,0,1:2:0:0:
417,368,181786,5,6,0:1:0:0:
392,353,181860,1,2,0:0:0:0:
415,339,181933,1,2,0:0:0:0:
391,325,182007,1,2,0:0:0:0:
412,310,182080,1,2,0:0:0:0:
388,296,182154,1,2,0:0:0:0:
411,282,182227,1,2,0:0:0:0:
387,268,182301,1,2,0:0:0:0:
408,252,182374,1,2,0:0:0:0:
383,238,182448,1,2,0:0:0:0:
406,224,182521,1,2,0:0:0:0:
382,209,182595,1,2,0:0:0:0:
404,195,182668,1,2,0:0:0:0:
379,180,182742,1,2,0:0:0:0:
402,166,182815,1,2,0:0:0:0:
378,152,182889,1,2,0:0:0:0:
396,133,182962,6,0,L|392:81,7,44.999998626709,6|0|0|0|0|0|0|0,1:1|0:0|0:0|0:0|0:0|0:0|0:0|0:0,0:0:0:0:
291,65,183551,6,0,P|288:39|295:10,1,50,6|0,0:0|0:0,0:0:0:0:
251,50,183624,2,0,P|230:33|215:8,1,50,2|0,0:0|0:0,0:0:0:0:
213,67,183698,2,0,P|187:69|158:62,1,50,2|0,0:0|0:0,0:0:0:0:
199,107,183771,2,0,P|183:126|157:142,1,50,2|0,0:0|0:0,0:0:0:0:
216,145,183845,5,2,0:0:0:0:
268,173,183918,1,2,0:0:0:0:
328,169,183992,1,2,0:0:0:0:
380,140,184065,1,2,0:0:0:0:
410,87,184139,6,0,L|419:212,1,119.999996337891,6|0,1:2|0:0,0:0:0:0:
288,363,184433,1,10,0:0:0:0:
141,210,184580,1,2,0:0:0:0:
384,286,184727,1,2,1:2:0:0:
124,361,184874,1,2,1:2:0:0:
187,85,185021,1,10,0:0:0:0:
398,300,185168,6,0,L|519:313,1,119.999996337891,2|0,0:0|1:2,0:0:0:0:
261,247,185462,1,2,0:0:0:0:
261,247,185610,1,10,0:0:0:0:
386,72,185757,2,0,L|370:192,2,119.999996337891,2|0|0,0:0|1:2|1:2,0:0:0:0:
178,62,186198,2,0,P|120:57|62:19,1,119.999996337891,10|0,0:0|0:0,0:0:0:0:
229,149,186492,6,0,L|214:272,1,119.999996337891,2|0,1:2|0:0,0:0:0:0:
463,268,186786,1,10,0:0:0:0:
384,56,186933,2,0,P|325:44|269:68,1,119.999996337891,2|0,0:0|1:2,0:0:0:0:
92,284,187227,1,2,1:2:0:0:
127,34,187374,1,10,0:0:0:0:
293,230,187521,1,2,0:0:0:0:
67,102,187668,6,0,P|41:47|52:-13,1,119.999996337891,0|0,1:2|0:0,0:0:0:0:
229,144,187962,2,0,L|211:266,1,119.999996337891,8|0,0:0|0:0,0:0:0:0:
45,368,188257,2,0,B|75:308|140:311|140:311|168:351|213:357|248:341,1,239.999992675781,2|8,1:2|0:0,0:0:0:0:
247,341,188698,1,0,0:0:0:0:
439,237,188845,6,0,P|376:241|445:334,2,239.999992675781,6|8|0,1:2|0:0|1:2,0:0:0:0:
265,328,189580,1,2,1:2:0:0:
358,158,189727,1,10,0:0:0:0:
438,338,189874,1,2,0:0:0:0:
232,217,190021,5,2,1:1:0:0:
509,93,190168,1,0,0:0:0:0:
216,201,190315,1,8,0:0:0:0:
484,364,190462,2,0,B|473:193|473:193|465:227|423:248,1,239.999992675781,2|0,0:1|1:2,0:0:0:0:
252,345,190904,2,0,P|196:365|139:349,1,119.999996337891,8|0,0:0|0:0,0:0:0:0:
49,186,191198,6,0,L|33:78,2,100,14|2|2,0:3|0:0|0:0,0:0:0:0:
174,217,191639,1,14,0:3:0:0:
174,217,191786,2,0,L|190:109,1,100,2|2,0:0|0:0,0:0:0:0:
81,305,192080,1,10,0:3:0:0:
81,305,192227,1,2,0:0:0:0:
261,62,192374,5,6,3:0:0:0:
414,356,192668,5,6,3:0:0:0:
81,305,192962,5,10,0:0:0:0:
188,118,193110,1,14,0:0:0:0:
274,340,193257,5,2,0:0:0:0:
325,358,193330,1,2,0:0:0:0:
379,346,193404,1,2,0:0:0:0:
410,301,193477,1,2,0:0:0:0:
406,245,193551,5,6,1:2:0:0:
188,259,193698,1,2,0:0:0:0:
379,346,193845,1,10,0:0:0:0:
265,144,193992,1,2,0:0:0:0:
167,356,194139,5,2,1:2:0:0:
393,158,194286,1,2,1:2:0:0:
120,84,194433,1,10,0:0:0:0:
274,340,194580,2,0,L|261:217,1,119.999996337891,2|0,0:0|1:2,0:0:0:0:
386,36,194874,1,2,0:0:0:0:
386,36,195021,1,10,0:0:0:0:
456,271,195168,2,0,P|393:279|349:223,2,119.999996337891,2|0|0,0:0|1:2|1:2,0:0:0:0:
321,156,195610,1,10,0:0:0:0:
321,156,195757,1,2,0:0:0:0:
281,366,195904,6,0,P|230:383|161:373,1,119.999996337891,2|0,1:2|0:0,0:0:0:0:
68,226,196198,1,10,0:0:0:0:
387,215,196345,2,0,L|369:337,1,119.999996337891,2|0,0:0|1:2,0:0:0:0:
128,112,196639,2,0,L|146:234,1,119.999996337891,2|8,1:2|0:0,0:0:0:0:
406,69,196933,1,2,0:0:0:0:
166,238,197080,6,0,L|148:119,1,119.999996337891,0|0,1:2|0:0,0:0:0:0:
349,342,197374,2,0,L|366:223,1,119.999996337891,8|0,0:0|0:0,0:0:0:0:
165,374,197668,1,2,1:2:0:0:
122,388,197742,1,2,0:0:0:0:
79,378,197815,1,2,1:2:0:0:
47,347,197889,1,2,0:0:0:0:
35,304,197962,1,10,0:0:0:0:
48,262,198036,1,2,0:0:0:0:
80,232,198110,1,2,0:0:0:0:
124,223,198183,1,2,0:0:0:0:
166,238,198257,6,0,P|253:278|273:166,2,239.999992675781,6|8|0,1:2|0:0|1:2,0:0:0:0:
351,88,198992,1,2,1:2:0:0:
341,295,199139,1,10,0:0:0:0:
188,162,199286,1,2,0:0:0:0:
437,63,199433,6,0,L|425:186,1,119.999996337891,2|0,1:2|0:0,0:0:0:0:
218,309,199727,1,10,0:0:0:0:
266,97,199874,1,2,0:0:0:0:
410,274,200021,5,2,1:2:0:0:
356,29,200168,1,0,1:2:0:0:
223,217,200315,1,8,0:0:0:0:
471,93,200462,1,2,0:0:0:0:
471,93,200536,1,2,0:0:0:0:
471,93,200610,6,0,P|418:85|381:174,1,160,14|0,3:0|0:0,0:0:0:0:
263,230,201051,6,0,P|269:293|394:321,1,200,10|0,3:0|0:0,0:0:0:0:
512,379,201492,6,0,P|539:315|406:245,1,239.999992675781,14|0,3:0|0:0,0:0:0:0:
217,80,201933,6,0,P|128:94|144:255,1,279.999991455078,10|0,3:0|0:0,0:0:0:0:
314,356,202374,6,0,L|298:236,1,119.999996337891,14|0,3:0|0:0,0:0:0:0:
411,59,202668,1,10,0:0:0:0:
463,71,202742,1,8,0:0:0:0:
499,109,202815,1,8,0:0:0:0:
506,162,202889,1,8,0:0:0:0:
486,211,202962,1,14,0:0:0:0:
256,192,203036,12,2,204727,0:0:0:0:
180,167,205315,5,14,0:0:0:0:
375,132,205756,5,2,1:2:0:0:
180,167,205903,1,14,0:0:0:0:
213,362,206492,5,6,1:2:0:0:
410,328,206639,1,2,0:0:0:0:
375,132,206786,1,14,0:0:0:0:
180,167,206933,1,2,0:0:0:0:
287,257,207080,5,6,1:2:0:0:
287,257,207374,1,8,0:0:0:0:
330,224,207448,1,8,0:0:0:0:
383,218,207521,1,8,0:0:0:0:
435,231,207595,1,8,0:0:0:0:
476,265,207668,5,14,0:0:0:0:
442,69,208110,5,2,1:2:0:0:
476,265,208257,1,14,0:0:0:0:
281,300,208846,5,6,1:2:0:0:
246,103,208993,1,2,0:0:0:0:
442,69,209140,1,14,0:0:0:0:
476,265,209287,1,2,0:0:0:0:
354,195,209434,5,14,1:2:0:0:
303,175,209507,1,8,0:0:0:0:
249,172,209580,1,8,0:0:0:0:
197,190,209654,1,8,0:0:0:0:
161,230,209727,5,8,0:0:0:0:
89,238,209801,1,8,0:0:0:0:
31,194,209874,1,8,0:0:0:0:
26,121,209948,1,8,0:0:0:0:
68,63,210021,5,6,1:2:0:0:
182,265,210168,1,2,0:0:0:0:
327,82,210315,1,10,0:0:0:0:
113,157,210462,6,0,L|95:268,1,110.000003356934,2|0,0:0|1:2,0:0:0:0:
300,365,210757,2,0,L|282:256,1,110.000003356934,2|8,1:2|0:0,0:0:0:0:
408,78,211051,1,2,0:0:0:0:
466,307,211198,6,0,P|410:304|365:256,1,110.000003356934,2|0,1:2|0:0,0:0:0:0:
290,71,211492,1,10,0:0:0:0:
200,271,211639,2,0,L|217:379,1,110.000003356934,2|0,0:0|1:2,0:0:0:0:
332,185,211933,2,0,P|274:171|222:195,2,110.000003356934,2|8|0,1:2|0:0|0:0,0:0:0:0:
39,281,212374,5,2,1:2:0:0:
136,94,212521,1,2,0:0:0:0:
282,256,212668,1,10,0:0:0:0:
62,145,212815,6,0,P|48:88|68:35,1,110.000003356934,2|0,0:0|1:2,0:0:0:0:
190,264,213110,2,0,L|173:380,1,110.000003356934,2|8,1:2|0:0,0:0:0:0:
306,131,213404,1,2,0:0:0:0:
351,355,213551,5,2,1:2:0:0:
232,191,213698,1,0,0:0:0:0:
353,25,213845,1,10,0:0:0:0:
467,206,213992,6,0,L|451:322,1,110.000003356934,2|0,0:0|1:2,0:0:0:0:
285,123,214286,2,0,P|227:104|179:120,2,110.000003356934,2|8|0,1:2|0:0|0:0,0:0:0:0:
368,225,214727,5,2,1:2:0:0:
182,347,214874,1,2,0:0:0:0:
69,184,215021,1,10,0:0:0:0:
283,262,215168,6,0,L|265:378,1,110.000003356934,2|0,0:0|1:2,0:0:0:0:
150,225,215462,2,0,L|143:115,1,110.000003356934,2|8,1:2|0:0,0:0:0:0:
51,315,215757,1,2,0:0:0:0:
255,180,215904,6,0,P|311:178|356:210,1,110.000003356934,2|0,1:2|0:0,0:0:0:0:
481,372,216198,1,10,0:0:0:0:
508,173,216345,2,0,L|497:62,1,110.000003356934,2|0,0:0|1:2,0:0:0:0:
426,250,216639,2,0,P|378:284|324:282,2,110.000003356934,2|8|2,1:2|0:0|0:0,0:0:0:0:
290,62,217080,5,2,1:2:0:0:
244,30,217154,1,2,0:0:0:0:
192,27,217227,1,2,0:0:0:0:
146,47,217301,1,2,0:0:0:0:
127,89,217374,1,10,0:0:0:0:
131,133,217448,1,2,0:0:0:0:
157,164,217521,1,2,0:0:0:0:
194,174,217595,1,2,0:0:0:0:
229,168,217668,1,2,1:2:0:0:
251,144,217742,1,2,0:0:0:0:
256,114,217815,1,2,1:2:0:0:
242,89,217889,1,2,0:0:0:0:
219,78,217962,1,10,0:0:0:0:
197,82,218036,1,2,0:0:0:0:
184,96,218110,1,2,0:0:0:0:
180,111,218183,1,2,0:0:0:0:
181,124,218257,6,0,P|205:129|233:121,1,50,10|0,0:0|0:0,0:0:0:0:
289,176,218404,2,0,P|305:157|312:129,1,50,2|0,1:2|0:0,0:0:0:0:
413,44,218551,6,0,P|426:79|422:112,1,64.9999970245363,10|0,0:0|0:0,0:0:0:0:
496,145,218698,2,0,P|472:173|441:186,1,64.9999970245363,2|0,0:0|0:0,0:0:0:0:
220,282,218845,6,0,L|211:197,1,80,2|0,1:2|0:0,0:0:0:0:
126,319,218992,2,0,L|117:234,1,80,2|0,1:2|0:0,0:0:0:0:
397,253,219139,6,0,L|384:353,1,94.9999974632264,10|0,0:0|0:0,0:0:0:0:
491,290,219286,2,0,L|478:390,1,94.9999974632264,2|0,0:0|0:0,0:0:0:0:
126,319,219433,5,14,0:0:0:0:
107,130,219580,1,2,1:2:0:0:
292,295,219727,5,10,0:0:0:0:
308,107,219874,1,2,1:2:0:0:
116,228,220021,5,10,0:0:0:0:
95,31,220168,1,2,1:2:0:0:
296,200,220315,5,10,0:0:0:0:
321,14,220462,1,2,1:2:0:0:
126,319,220610,5,14,0:0:0:0:
197,35,220757,1,2,1:2:0:0:
491,290,220904,5,14,0:0:0:0:
416,18,221051,1,2,1:2:0:0:
126,319,221198,5,14,0:0:0:0:
496,143,221345,1,2,1:2:0:0:
108,175,221492,5,14,0:0:0:0:
491,290,221639,1,2,1:2:0:0:
124,27,221786,5,14,0:0:0:0:
256,192,221860,12,0,224286,0:0:0:0:
