osu file format v14

[General]
AudioFilename: audio.mp3
AudioLeadIn: 0
PreviewTime: 115242
Countdown: 0
SampleSet: Soft
StackLeniency: 0.4
Mode: 0
LetterboxInBreaks: 0
WidescreenStoryboard: 1

[Editor]
DistanceSpacing: 1.5
BeatDivisor: 4
GridSize: 32
TimelineZoom: 3.399999

[Metadata]
Title:True truly love
TitleUnicode:True truly love
Artist:Horie Yui
ArtistUnicode:堀江由衣
Creator:[Karcher]
Version:Hard
Source:DIVINA
Tags:divina online ディビーナ MMORPG theme song opening 秘密 Himitsu video game jpop pop j-pop japanese riana miyohashikoori
BeatmapID:2947367
BeatmapSetID:1415113

[Difficulty]
HPDrainRate:4
CircleSize:3.5
OverallDifficulty:7
ApproachRate:8
SliderMultiplier:1.4
SliderTickRate:1

[Events]
//Background and Video events
0,0,"cute_suimya.jpg",0,0
//Break Periods
2,160810,176330
//Storyboard Layer 0 (Background)
//Storyboard Layer 1 (Fail)
//Storyboard Layer 2 (Pass)
//Storyboard Layer 3 (Foreground)
//Storyboard Layer 4 (Overlay)
//Storyboard Sound Samples

[TimingPoints]
610,294.117647058824,4,2,1,45,1,0
610,-125,4,2,1,45,0,0
5315,-100,4,2,1,65,0,1
12374,-83.3333333333333,4,2,1,70,0,1
12668,-83.3333333333333,4,2,1,65,0,1
12962,-100,4,2,1,60,0,1
13257,-100,4,2,1,55,0,1
13551,-125,4,2,1,50,0,1
13845,-125,4,2,1,45,0,1
14139,-125,4,2,1,40,0,1
14727,-125,4,2,1,50,0,0
24139,-100,4,2,1,60,0,0
25315,-125,4,2,1,50,0,0
32374,-125,4,2,1,60,0,0
34727,-100,4,2,1,60,0,0
41786,-100,4,2,1,70,0,0
44139,-142.857142857143,4,2,1,50,0,0
48845,-100,4,2,1,65,0,0
51198,-90.9090909090909,4,2,1,75,0,1
58257,-111.111111111111,4,2,1,75,0,1
60610,-90.9090909090908,4,2,1,75,0,1
67521,-90.9090909090908,4,2,2,75,0,1
67668,-90.9090909090908,4,2,1,75,0,1
70021,-90.9090909090909,4,2,1,60,0,0
74727,-100,4,2,1,60,0,0
79433,-100,4,2,1,45,0,0
88845,-100,4,2,1,60,0,0
90021,-125,4,2,1,50,0,0
97080,-125,4,2,1,60,0,0
99433,-100,4,2,1,60,0,0
106492,-100,4,2,1,70,0,0
108845,-142.857142857143,4,2,1,50,0,0
113551,-100,4,2,1,65,0,0
115904,-90.9090909090909,4,2,1,75,0,1
122962,-111.111111111111,4,2,1,75,0,1
125315,-90.9090909090909,4,2,1,75,0,1
132227,-90.9090909090909,4,2,2,75,0,1
132374,-90.9090909090909,4,2,1,75,0,1
137080,-100,4,2,1,60,0,0
139433,-125,4,2,1,55,0,0
148845,-111.111111111111,4,2,1,60,0,0
158257,-142.857142857143,4,2,1,60,0,0
160610,-142.857142857143,4,2,1,45,0,0
174727,-142.857142857143,4,2,1,55,0,0
177080,-142.857142857143,4,2,1,55,0,0
181786,-142.857142857143,4,2,1,60,0,0
183551,-100,4,2,1,65,0,0
183845,-100,4,2,1,70,0,0
184139,-90.9090909090909,4,2,1,75,0,1
191198,-111.111111111111,4,2,1,75,0,1
193551,-90.9090909090909,4,2,1,75,0,1
200462,-90.9090909090909,4,2,2,75,0,1
200610,-90.9090909090909,4,2,1,75,0,1
202962,-90.9090909090909,4,2,1,60,0,0
210021,-100,4,2,1,65,0,1
217080,-83.3333333333333,4,2,1,70,0,1
217374,-83.3333333333333,4,2,1,65,0,1
217668,-100,4,2,1,60,0,1
217962,-100,4,2,1,55,0,1
218257,-125,4,2,1,50,0,1
218404,-125,4,2,1,55,0,1
218551,-100,4,2,1,60,0,1
218698,-100,4,2,1,65,0,1
218845,-83.3333333333333,4,2,1,70,0,1
218992,-83.3333333333333,4,2,1,75,0,1
219139,-71.4285714285714,4,2,1,80,0,1
219286,-71.4285714285714,4,2,1,85,0,1
219433,-100,4,2,1,70,0,1
220610,-83.3333333333333,4,2,1,85,0,1
221786,-83.3333333333333,4,2,1,70,0,0

[Colours]
Combo1 : 255,225,193
Combo2 : 183,163,224

[HitObjects]
14,269,610,6,0,B|69:257|69:257|131:270,1,112,2|2,0:0|0:0,0:0:0:0:
218,356,1198,2,0,B|272:367|272:367|327:355,1,112,2|2,0:0|0:0,0:0:0:0:
421,267,1786,2,0,L|412:153,1,112,2|2,0:0|0:0,0:0:0:0:
283,156,2374,2,0,L|274:267,1,112,2|2,0:0|0:0,0:0:0:0:
153,311,2962,5,2,0:0:0:0:
74,210,3257,1,2,0:0:0:0:
145,103,3551,1,2,0:0:0:0:
268,138,3845,1,2,0:0:0:0:
273,266,4139,1,2,0:0:0:0:
72,358,5315,6,0,L|-3:351,2,70,6|2|10,1:2|0:0|0:0,0:0:0:0:
151,299,5757,2,0,B|214:278|214:278|291:294,2,140,2|2|2,0:0|1:2|0:0,0:0:0:0:
61,258,6492,2,0,L|47:115,1,140,2|10,1:2|0:0,0:0:0:0:
77,25,6933,1,2,0:0:0:0:
198,178,7227,2,0,P|249:198|329:164,1,140,2|0,1:2|0:0,0:0:0:0:
375,84,7668,6,0,L|367:5,2,70,2|2|10,1:2|0:0|0:0,0:0:0:0:
424,169,8110,2,0,B|450:215|450:215|423:308,2,140,2|2|2,0:0|1:2|0:0,0:0:0:0:
325,168,8845,2,0,L|249:177,1,70,2|0,1:2|0:0,0:0:0:0:
172,227,9139,1,10,0:0:0:0:
101,158,9286,1,2,0:0:0:0:
263,48,9580,2,0,L|336:52,2,70,2|8|0,1:2|0:0|0:0,0:0:0:0:
168,24,10021,6,0,L|98:27,2,70,2|2|10,1:2|0:0|0:0,0:0:0:0:
193,118,10462,2,0,B|210:188|210:188|188:258,2,140,2|2|2,0:0|1:2|0:0,0:0:0:0:
263,48,11198,2,0,P|326:71|396:47,1,140,2|10,1:2|0:0,0:0:0:0:
478,2,11639,1,2,0:0:0:0:
506,195,11933,2,0,L|500:276,1,70,2|8,1:2|0:0,0:0:0:0:
493,362,12227,1,2,0:0:0:0:
413,304,12374,6,0,L|317:324,3,83.9999974365235,2|2|10|2,1:2|0:0|0:0|0:0,0:0:0:0:
389,223,12962,6,0,L|314:238,3,70,2|2|10|2,1:2|1:2|0:0|0:0,0:0:0:0:
367,137,13551,6,0,L|306:151,1,56,10|2,0:0|1:2,0:0:0:0:
232,200,13845,2,0,L|177:187,1,56,10|2,0:0|1:2,0:0:0:0:
90,162,14139,1,2,1:2:0:0:
90,162,14286,1,2,1:2:0:0:
17,224,14433,2,0,L|25:289,1,56,10|2,0:0|0:0,0:0:0:0:
43,372,14727,6,0,B|97:383|97:383|155:369,1,112,6|10,1:2|0:0,0:0:0:0:
229,198,15315,2,0,L|237:318,1,112,2|10,1:2|0:0,0:0:0:0:
326,350,15757,2,0,B|381:363|381:363|435:352,2,112,2|2|2,0:0|0:0|0:0,0:0:0:0:
236,309,16492,1,2,1:2:0:0:
411,235,16786,1,10,0:0:0:0:
241,147,17080,6,0,L|246:26,1,112,2|10,1:2|0:0,0:0:0:0:
435,42,17668,2,0,L|430:153,1,112,2|10,1:2|0:0,0:0:0:0:
338,152,18110,1,2,0:0:0:0:
338,152,18257,6,0,L|342:40,1,112,0|8,1:2|0:0,0:0:0:0:
152,29,18845,2,0,L|147:140,1,112,2|8,1:2|0:0,0:0:0:0:
27,288,19433,5,2,1:2:0:0:
27,288,19580,2,0,P|73:311|137:291,1,112,2|2,0:0|0:0,0:0:0:0:
211,248,20021,2,0,L|337:255,1,112,2|10,1:2|0:0,0:0:0:0:
409,293,20462,2,0,P|461:307|511:284,1,112,2|2,0:0|0:0,0:0:0:0:
504,188,20904,2,0,L|496:129,1,56,10|2,0:0|0:0,0:0:0:0:
403,154,21198,2,0,L|411:95,1,56,2|0,1:2|0:0,0:0:0:0:
483,36,21492,1,10,0:0:0:0:
483,36,21786,6,0,P|434:3|381:5,1,112,2|8,1:2|0:0,0:0:0:0:
320,76,22227,1,2,0:0:0:0:
237,28,22374,2,0,B|200:11|200:11|111:28,2,112,2|8|0,1:2|0:0|1:2,0:0:0:0:
415,96,23257,5,8,0:0:0:0:
347,274,23551,1,0,1:2:0:0:
169,206,23845,1,8,0:0:0:0:
201,121,23992,1,8,0:0:0:0:
201,121,24065,1,8,0:0:0:0:
201,121,24139,6,0,B|234:115|234:115|272:121,1,70,0|0,1:2|0:0,0:0:0:0:
377,88,24433,2,0,B|384:124|384:124|377:163,1,70,10|0,0:3|0:0,0:0:0:0:
380,268,24727,1,6,0:3:0:0:
178,361,25021,2,0,L|94:361,1,70,10|0,0:3|0:0,0:0:0:0:
48,294,25315,5,6,1:2:0:0:
48,294,25462,1,2,0:0:0:0:
74,204,25610,1,10,0:0:0:0:
74,204,25757,2,0,P|124:187|181:199,1,112,10|2,0:0|1:2,0:0:0:0:
251,262,26198,2,0,L|311:254,1,56,10|0,0:0|0:0,0:0:0:0:
363,178,26492,6,0,L|365:117,2,56,2|2|10,1:2|0:0|0:0,0:0:0:0:
401,270,26933,1,10,0:0:0:0:
401,270,27080,2,0,P|458:282|512:263,1,112,2|8,1:2|0:0,0:0:0:0:
498,75,27668,6,0,L|505:11,2,56,2|2|10,1:2|0:0|0:0,0:0:0:0:
315,62,28257,1,2,0:0:0:0:
315,62,28330,1,2,0:0:0:0:
315,62,28404,1,2,1:2:0:0:
408,41,28551,1,10,0:0:0:0:
498,75,28698,1,2,0:0:0:0:
400,135,28845,5,2,3:0:0:0:
404,139,30021,5,6,1:2:0:0:
404,139,30168,1,2,0:0:0:0:
345,213,30315,2,0,L|284:222,1,56,10|8,0:0|0:0,0:0:0:0:
200,186,30610,2,0,L|202:120,2,56,2|2|10,0:0|1:2|0:0,0:0:0:0:
138,258,31051,2,0,B|82:271|82:271|27:257,1,112,2|2,0:0|0:0,0:0:0:0:
6,165,31492,2,0,L|16:101,1,56,10|8,0:0|0:0,0:0:0:0:
90,51,31786,5,2,0:0:0:0:
90,51,31933,1,2,1:2:0:0:
162,113,32080,1,10,0:0:0:0:
162,113,32227,1,2,0:0:0:0:
251,82,32374,5,14,0:0:0:0:
432,291,32962,5,14,0:0:0:0:
512,28,33551,5,14,0:0:0:0:
398,147,33845,1,14,0:0:0:0:
251,82,34139,1,14,0:0:0:0:
512,28,34727,6,0,B|531:81|531:81|507:170,2,140,6|10|2,1:2|0:0|1:2,0:0:0:0:
320,12,35610,1,10,0:0:0:0:
320,12,35757,1,2,0:0:0:0:
246,76,35904,2,0,L|254:151,1,70,2|0,1:2|0:0,0:0:0:0:
323,213,36198,2,0,L|316:290,1,70,10|0,0:0|0:0,0:0:0:0:
247,352,36492,2,0,L|174:344,2,70,2|0|8,1:2|0:0|0:0,0:0:0:0:
442,367,37080,6,0,B|465:326|465:326|443:232,1,140,2|10,1:2|0:0,0:0:0:0:
415,141,37521,1,2,0:0:0:0:
349,213,37668,2,0,P|297:235|216:210,1,140,2|10,1:2|0:0,0:0:0:0:
161,133,38110,1,2,0:0:0:0:
124,223,38257,5,2,1:1:0:0:
290,119,38551,1,10,0:1:0:0:
121,18,38845,2,0,P|65:17|23:93,1,140,2|8,1:1|0:0,0:0:0:0:
51,275,39433,5,2,1:2:0:0:
51,275,39580,2,0,L|41:353,2,70,2|10|2,0:0|0:0|0:0,0:0:0:0:
120,206,40021,2,0,P|179:174|248:189,1,140,2|10,1:2|0:0,0:0:0:0:
384,329,40610,2,0,L|375:251,1,70,2|0,1:2|0:0,0:0:0:0:
342,167,40904,2,0,L|350:97,1,70,10|0,0:0|0:0,0:0:0:0:
394,9,41198,2,0,P|357:-1|322:3,2,70,2|0|8,1:2|0:0|0:0,0:0:0:0:
508,174,41786,5,10,0:1:0:0:
508,174,41933,1,10,0:0:0:0:
295,257,42374,5,10,0:1:0:0:
295,257,42521,1,10,0:0:0:0:
341,30,42962,5,10,0:1:0:0:
360,112,43110,1,10,0:0:0:0:
193,277,43551,5,10,0:1:0:0:
212,195,43699,1,10,0:0:0:0:
404,366,44139,6,0,P|440:339|374:236,1,195.999994018555,6|10,1:2|0:0,0:0:0:0:
133,235,45315,2,0,P|62:289|108:366,1,195.999994018555,2|10,1:2|0:0,0:0:0:0:
256,192,46492,1,6,1:2:0:0:
256,192,46565,12,8,48257,0:0:0:0:
267,133,48845,5,6,1:2:0:0:
294,38,48992,1,2,0:0:0:0:
294,38,49139,1,10,0:0:0:0:
362,108,49286,2,0,L|435:95,2,70,2|6|2,0:0|1:2|0:0,0:0:0:0:
267,133,49727,2,0,L|198:120,1,70,10|2,0:0|0:0,0:0:0:0:
112,72,50021,6,0,P|97:109|101:147,1,70,10|2,0:0|1:2,0:0:0:0:
12,185,50315,2,0,P|36:216|71:232,1,70,10|2,0:0|1:2,0:0:0:0:
59,328,50610,2,0,P|98:322|129:300,1,70,10|2,0:0|1:2,0:0:0:0:
221,306,50904,2,0,L|215:259,3,35,10|8|10|8,0:0|0:0|0:0|0:0,0:0:0:0:
214,220,51198,6,0,B|283:196|283:196|365:213,1,154.000004699707,6|10,1:2|0:0,0:0:0:0:
457,244,51639,1,2,0:0:0:0:
505,156,51786,2,0,L|492:74,2,77.0000023498536,2|2|10,1:2|1:2|0:0,0:0:0:0:
457,244,52227,2,0,L|450:328,1,77.0000023498536,2|0,0:0|1:2,0:0:0:0:
367,376,52521,1,2,0:0:0:0:
267,372,52668,1,10,0:0:0:0:
211,288,52815,2,0,P|171:263|67:287,1,154.000004699707,2|0,0:0|1:2,0:0:0:0:
33,189,53257,2,0,L|42:102,1,77.0000023498536,10|0,0:0|0:0,0:0:0:0:
91,25,53551,6,0,B|138:56|138:56|238:30,1,154.000004699707,2|10,1:2|0:0,0:0:0:0:
330,10,53992,2,0,L|321:92,1,77.0000023498536,2|0,0:0|1:2,0:0:0:0:
243,149,54286,2,0,L|252:231,2,77.0000023498536,2|10|2,1:2|0:0|0:0,0:0:0:0:
338,178,54727,6,0,P|377:169|420:177,1,77.0000023498536,0|0,1:2|0:0,0:0:0:0:
413,274,55021,2,0,P|374:283|331:275,1,77.0000023498536,8|0,0:0|0:0,0:0:0:0:
251,225,55315,2,0,B|196:248|196:248|104:222,1,154.000004699707,2|8,1:2|0:0,0:0:0:0:
30,163,55757,1,0,0:0:0:0:
30,163,55904,6,0,P|11:207|59:305,2,154.000004699707,6|8|0,1:2|0:0|1:2,0:0:0:0:
126,137,56639,2,0,L|123:50,2,77.0000023498536,2|10|2,1:2|0:0|0:0,0:0:0:0:
226,167,57080,1,2,1:1:0:0:
226,167,57227,2,0,L|223:80,1,77.0000023498536,0|8,0:0|0:0,0:0:0:0:
309,37,57521,2,0,B|382:17|382:17|467:43,1,154.000004699707,2|0,0:1|1:2,0:0:0:0:
387,111,57962,1,8,0:0:0:0:
387,111,58257,6,0,L|397:247,1,125.999996154785,14|2,0:3|0:0,0:0:0:0:
445,317,58698,2,0,P|397:288|320:312,1,125.999996154785,10|2,0:3|0:0,0:0:0:0:
251,351,59139,1,10,0:3:0:0:
141,124,59433,5,6,3:0:0:0:
0,332,59727,1,6,3:0:0:0:
251,351,60021,5,10,0:0:0:0:
132,249,60168,2,0,L|141:121,1,125.999996154785,14|2,0:0|0:0,0:0:0:0:
133,22,60610,6,0,P|173:25|207:43,1,77.0000023498536,6|2,1:2|0:0,0:0:0:0:
274,117,60904,2,0,P|310:126|349:122,1,77.0000023498536,10|2,0:0|0:0,0:0:0:0:
441,84,61198,2,0,L|431:0,2,77.0000023498536,2|2|10,1:2|1:2|0:0,0:0:0:0:
424,182,61639,6,0,L|432:264,1,77.0000023498536,2|0,0:0|1:2,0:0:0:0:
377,342,61933,1,2,0:0:0:0:
277,353,62080,1,10,0:0:0:0:
200,287,62227,2,0,B|148:250|148:250|118:284|62:274,1,154.000004699707,2|0,0:0|1:2,0:0:0:0:
81,179,62668,1,10,0:0:0:0:
81,179,62815,1,2,0:0:0:0:
64,80,62962,6,0,B|138:103|138:103|213:75,1,154.000004699707,2|10,1:2|0:0,0:0:0:0:
278,2,63404,2,0,L|355:12,1,77.0000023498536,2|0,0:0|1:2,0:0:0:0:
387,106,63698,2,0,L|310:116,1,77.0000023498536,2|8,1:2|0:0,0:0:0:0:
236,183,63992,1,2,0:0:0:0:
209,279,64139,6,0,P|250:287|290:277,1,77.0000023498536,0|0,1:2|0:0,0:0:0:0:
351,206,64433,2,0,P|388:198|425:206,1,77.0000023498536,8|0,0:0|0:0,0:0:0:0:
498,275,64727,2,0,P|472:230|509:133,1,154.000004699707,2|10,1:2|0:0,0:0:0:0:
446,61,65168,1,2,0:0:0:0:
446,61,65315,6,0,B|368:47|368:47|288:71,2,154.000004699707,6|8|0,1:2|0:0|1:2,0:0:0:0:
415,155,66051,2,0,B|376:148|376:148|336:160,2,77.0000023498536,2|10|2,1:2|0:0|0:0,0:0:0:0:
493,217,66492,6,0,B|517:273|517:273|489:372,1,154.000004699707,2|10,1:2|0:0,0:0:0:0:
396,332,66933,1,2,0:0:0:0:
302,366,67080,2,0,L|212:375,2,77.0000023498536,2|0|8,1:2|1:2|0:0,0:0:0:0:
404,340,67521,1,2,0:0:0:0:
404,340,67595,1,2,0:0:0:0:
404,340,67668,5,14,3:0:0:0:
433,157,68110,1,10,3:0:0:0:
267,72,68551,1,10,3:0:0:0:
135,203,68992,1,10,3:0:0:0:
220,369,69433,5,10,3:0:0:0:
293,231,69727,1,10,0:0:0:0:
404,340,70021,1,14,0:0:0:0:
256,192,70095,12,2,71786,0:0:0:0:
102,196,72374,5,14,0:0:0:0:
85,287,72815,5,2,1:2:0:0:
102,196,72962,1,14,0:0:0:0:
89,291,73551,5,6,1:2:0:0:
89,291,73698,1,2,0:0:0:0:
106,200,73845,1,14,0:0:0:0:
106,200,73992,1,2,0:0:0:0:
184,261,74139,1,6,1:2:0:0:
315,186,74433,2,0,L|309:147,3,38.5000011749268,8|8|8|8,0:0|0:0|0:0|0:0,0:0:0:0:
303,94,74727,6,0,L|296:23,2,70,6|2|10,1:2|0:0|0:0,0:0:0:0:
394,127,75168,2,0,P|442:134|503:68,2,140,2|2|2,0:0|1:2|0:0,0:0:0:0:
315,186,75904,2,0,L|326:332,1,140,2|10,1:2|0:0,0:0:0:0:
241,375,76345,1,2,0:0:0:0:
79,264,76639,2,0,L|85:187,2,70,2|10|2,1:2|0:0|0:0,0:0:0:0:
152,326,77080,6,0,P|92:359|25:346,2,140,2|8|0,1:2|0:0|1:2,0:0:0:0:
190,236,77815,1,0,1:2:0:0:
190,236,77962,1,8,0:0:0:0:
335,368,78257,6,0,P|381:371|423:350,2,93.3333333333333,2|10|10,1:2|0:0|0:0,0:0:0:0:
277,253,78845,2,0,P|235:232|189:235,2,93.3333333333333,10|10|6,0:0|0:3|0:3,0:0:0:0:
215,367,79433,5,6,1:2:0:0:
353,348,80610,5,2,1:2:0:0:
377,207,81786,5,2,1:2:0:0:
252,141,82962,5,2,1:2:0:0:
150,239,83551,5,2,1:1:0:0:
252,141,84139,5,2,1:2:0:0:
377,207,85316,5,2,1:2:0:0:
353,348,86492,5,2,1:2:0:0:
215,367,87669,5,2,1:2:0:0:
150,239,88698,6,0,L|107:240,2,35,8|8|2,0:0|0:0|1:2,0:0:0:0:
353,235,89139,6,0,P|330:209|293:192,1,70,10|0,0:3|0:0,0:0:0:0:
294,95,89433,2,0,P|260:101|227:125,1,70,6|0,0:3|0:0,0:0:0:0:
143,75,89727,2,0,P|132:107|136:148,1,70,10|0,0:3|0:0,0:0:0:0:
150,239,90021,5,6,1:2:0:0:
150,239,90168,2,0,L|87:233,2,56,2|10|10,0:0|0:0|0:0,0:0:0:0:
212,311,90610,1,2,0:0:0:0:
212,311,90757,1,2,1:2:0:0:
305,308,90904,1,10,0:0:0:0:
305,308,91051,1,2,0:0:0:0:
370,246,91198,6,0,L|373:184,1,56,2|2,1:2|0:0,0:0:0:0:
449,144,91492,2,0,L|446:88,1,56,10|10,0:0|0:0,0:0:0:0:
373,35,91786,2,0,L|310:28,2,56,2|0|8,0:0|1:2|0:0,0:0:0:0:
251,166,92374,5,0,1:2:0:0:
188,101,92521,2,0,L|120:92,2,56,2|10|10,0:0|0:0|0:0,0:0:0:0:
277,77,92962,1,2,0:0:0:0:
277,77,93110,1,2,1:2:0:0:
347,140,93257,1,10,0:0:0:0:
347,140,93405,1,10,0:0:0:0:
251,166,93551,5,2,3:0:0:0:
251,166,94727,6,0,P|232:224|247:279,1,112,6|10,1:2|0:0,0:0:0:0:
305,337,95168,2,0,P|279:353|249:356,1,56,10|0,0:0|0:0,0:0:0:0:
170,326,95462,2,0,P|144:320|109:323,1,56,2|8,1:2|0:0,0:0:0:0:
38,369,95757,6,0,B|58:335|58:335|44:257,1,112,2|2,0:0|0:0,0:0:0:0:
18,183,96198,1,10,0:0:0:0:
18,183,96345,1,10,0:0:0:0:
50,99,96492,2,0,L|38:34,2,56,2|0|8,0:0|1:2|0:0,0:0:0:0:
226,68,97080,5,14,0:0:0:0:
278,339,97668,5,14,0:0:0:0:
479,151,98257,5,14,0:0:0:0:
320,197,98551,1,10,0:0:0:0:
226,68,98845,1,14,0:0:0:0:
479,151,99433,6,0,B|436:120|436:120|352:145,2,140,6|10|2,1:2|0:0|1:2,0:0:0:0:
307,241,100315,1,10,0:0:0:0:
307,241,100462,1,2,0:0:0:0:
253,158,100610,2,0,L|255:77,1,70,2|0,1:2|0:0,0:0:0:0:
171,35,100904,2,0,P|134:31|93:39,1,70,10|0,0:0|0:0,0:0:0:0:
98,134,101198,2,0,P|135:138|176:130,2,70,2|0|8,1:2|0:0|0:0,0:0:0:0:
0,303,101786,6,0,B|28:259|28:259|4:166,1,140,2|10,1:2|0:0,0:0:0:0:
19,76,102227,1,2,0:0:0:0:
102,138,102374,1,2,1:2:0:0:
102,138,102521,1,2,0:0:0:0:
164,62,102668,2,0,L|239:54,1,70,10|2,0:0|0:0,0:0:0:0:
311,114,102962,5,2,1:1:0:0:
458,247,103257,1,10,0:1:0:0:
494,49,103551,2,0,P|451:40|411:122,1,140,2|8,1:1|0:0,0:0:0:0:
374,305,104139,6,0,P|308:326|236:304,1,140,2|10,1:2|0:0,0:0:0:0:
176,241,104580,1,2,0:0:0:0:
176,241,104727,2,0,L|183:163,1,70,2|0,1:2|0:0,0:0:0:0:
231,86,105021,2,0,P|200:76|162:76,1,70,10|0,0:0|0:0,0:0:0:0:
90,141,105315,6,0,L|21:135,1,70,2|0,1:2|0:0,0:0:0:0:
0,226,105610,2,0,L|10:300,1,70,10|0,0:0|0:0,0:0:0:0:
105,313,105904,2,0,L|95:387,2,70,2|0|8,1:2|0:0|0:0,0:0:0:0:
244,175,106492,5,10,0:1:0:0:
244,175,106639,1,10,0:0:0:0:
468,373,107080,5,10,0:1:0:0:
468,373,107227,1,10,0:0:0:0:
481,79,107668,5,10,0:1:0:0:
396,112,107815,1,10,0:0:0:0:
174,247,108257,5,10,0:1:0:0:
259,280,108404,1,10,0:0:0:0:
147,30,108845,6,0,P|105:18|68:137,1,195.999994018555,6|10,1:2|0:0,0:0:0:0:
365,30,110021,2,0,P|407:18|444:137,1,195.999994018555,2|10,1:2|0:0,0:0:0:0:
256,192,111198,1,6,1:2:0:0:
256,192,111271,12,8,112962,0:0:0:0:
307,69,113551,5,6,1:2:0:0:
377,0,113698,1,2,0:0:0:0:
377,0,113845,1,10,0:0:0:0:
401,94,113992,2,0,L|476:81,2,70,2|6|2,0:0|1:2|0:0,0:0:0:0:
307,69,114433,2,0,L|235:59,1,70,10|2,0:0|0:0,0:0:0:0:
150,13,114727,6,0,P|136:46|141:85,1,70,10|2,0:0|1:2,0:0:0:0:
55,130,115021,2,0,P|76:158|112:173,1,70,10|2,0:0|1:2,0:0:0:0:
198,207,115315,2,0,L|201:244,3,35,10|2|2|2,0:0|0:0|1:2|0:0,0:0:0:0:
215,289,115610,2,0,L|217:329,3,35,10|10|10|10,0:0|0:0|0:0|0:0,0:0:0:0:
241,372,115904,6,0,L|318:378,1,77.0000023498536,6|2,1:2|0:0,0:0:0:0:
388,307,116198,1,10,0:0:0:0:
388,307,116345,1,2,0:0:0:0:
488,337,116492,1,2,1:2:0:0:
488,337,116639,2,0,L|482:254,1,77.0000023498536,2|10,1:2|0:0,0:0:0:0:
509,163,116933,6,0,P|469:156|426:166,1,77.0000023498536,2|0,0:0|1:2,0:0:0:0:
343,205,117227,2,0,P|305:211|267:204,1,77.0000023498536,2|8,0:0|0:0,0:0:0:0:
258,104,117521,2,0,P|187:82|100:119,1,154.000004699707,2|0,0:0|1:2,0:0:0:0:
31,160,117962,1,10,0:0:0:0:
31,160,118110,1,2,0:0:0:0:
104,231,118257,6,0,B|124:286|124:286|89:330|105:380,1,154.000004699707,2|10,1:2|0:0,0:0:0:0:
200,349,118698,2,0,L|283:336,1,77.0000023498536,2|0,0:0|1:2,0:0:0:0:
373,315,118992,2,0,L|449:326,2,77.0000023498536,2|10|2,1:2|0:0|0:0,0:0:0:0:
317,231,119433,6,0,P|307:192|315:150,1,77.0000023498536,0|0,1:2|0:0,0:0:0:0:
412,147,119727,2,0,P|422:186|414:228,1,77.0000023498536,8|0,0:0|0:0,0:0:0:0:
373,315,120021,2,0,B|321:344|321:344|214:318,1,154.000004699707,2|8,1:2|0:0,0:0:0:0:
141,273,120462,1,0,0:0:0:0:
141,273,120610,6,0,P|92:261|46:358,2,154.000004699707,6|8|0,1:2|0:0|1:2,0:0:0:0:
227,220,121345,1,2,1:2:0:0:
227,220,121492,2,0,L|220:137,1,77.0000023498536,10|2,0:0|0:0,0:0:0:0:
320,151,121786,2,0,L|326:74,2,77.0000023498536,2|0|8,1:1|0:0|0:0,0:0:0:0:
392,220,122227,2,0,P|455:232|506:157,1,154.000004699707,2|0,0:1|1:2,0:0:0:0:
495,72,122668,1,8,0:0:0:0:
495,72,122962,6,0,L|370:61,1,125.999996154785,14|2,0:3|0:0,0:0:0:0:
294,27,123404,2,0,P|325:69|287:145,1,125.999996154785,10|2,0:3|0:0,0:0:0:0:
236,173,123845,1,10,0:3:0:0:
35,326,124139,5,6,3:0:0:0:
2,76,124433,1,6,3:0:0:0:
236,173,124727,5,10,0:0:0:0:
101,206,124874,2,0,L|118:74,1,125.999996154785,14|2,0:0|0:0,0:0:0:0:
202,26,125315,5,6,1:2:0:0:
202,26,125462,1,2,0:0:0:0:
273,97,125610,2,0,L|356:97,1,77.0000023498536,10|2,0:0|0:0,0:0:0:0:
408,15,125904,1,2,1:2:0:0:
451,105,126051,2,0,L|442:193,1,77.0000023498536,2|8,1:2|0:0,0:0:0:0:
389,265,126345,6,0,L|398:349,1,77.0000023498536,2|0,0:0|1:2,0:0:0:0:
306,299,126639,1,2,0:0:0:0:
206,312,126786,1,10,0:0:0:0:
129,376,126933,2,0,P|72:367|44:272,1,154.000004699707,2|0,0:0|1:2,0:0:0:0:
104,208,127374,2,0,L|100:115,1,77.0000023498536,10|0,0:0|0:0,0:0:0:0:
42,49,127668,6,0,P|106:34|180:77,1,154.000004699707,2|10,1:2|0:0,0:0:0:0:
203,173,128110,2,0,P|246:181|284:177,1,77.0000023498536,2|0,0:0|1:2,0:0:0:0:
319,86,128404,2,0,P|357:83|394:91,1,77.0000023498536,2|8,1:2|0:0,0:0:0:0:
439,180,128698,1,2,0:0:0:0:
414,276,128845,6,0,L|424:360,1,77.0000023498536,0|0,1:2|0:0,0:0:0:0:
323,363,129139,2,0,L|316:285,1,77.0000023498536,8|0,0:0|0:0,0:0:0:0:
246,213,129433,2,0,B|198:189|198:189|89:220,1,154.000004699707,2|10,1:2|0:0,0:0:0:0:
5,225,129874,1,2,0:0:0:0:
5,225,130021,6,0,P|19:158|106:116,2,154.000004699707,6|8|0,1:2|0:0|1:2,0:0:0:0:
61,308,130757,2,0,L|53:384,2,77.0000023498536,2|10|2,1:2|0:0|0:0,0:0:0:0:
101,216,131198,6,0,B|192:189|156:243|256:212,1,154.000004699707,2|10,1:2|0:0,0:0:0:0:
339,167,131639,1,2,0:0:0:0:
416,230,131786,2,0,L|410:314,2,77.0000023498536,2|0|8,1:2|1:2|0:0,0:0:0:0:
347,175,132227,1,2,0:0:0:0:
347,175,132301,1,2,0:0:0:0:
347,175,132374,5,14,0:3:0:0:
197,67,132815,1,10,0:3:0:0:
47,176,133257,1,10,0:3:0:0:
104,351,133697,1,10,0:3:0:0:
290,351,134139,2,0,L|282:268,2,77.0000023498536,10|0|10,0:3|1:2|0:3,0:0:0:0:
104,351,134727,5,14,0:3:0:0:
47,176,135167,1,10,0:3:0:0:
197,67,135609,1,10,0:3:0:0:
347,175,136050,1,10,0:3:0:0:
290,351,136492,1,14,0:3:0:0:
197,67,137080,5,14,0:0:0:0:
233,152,137521,5,2,1:2:0:0:
197,67,137668,1,14,0:0:0:0:
237,156,138257,5,6,1:2:0:0:
237,156,138405,1,2,0:0:0:0:
201,71,138552,1,14,0:0:0:0:
201,71,138699,1,2,0:0:0:0:
138,145,138845,1,6,1:2:0:0:
298,75,139139,5,8,0:0:0:0:
341,172,139286,1,8,0:0:0:0:
341,172,139360,1,8,0:0:0:0:
341,172,139433,6,0,P|392:176|447:144,1,112,6|0,1:2|3:0,0:0:0:0:
270,102,140021,2,0,P|246:155|257:210,1,112,8|0,0:0|1:2,0:0:0:0:
328,267,140462,1,8,0:0:0:0:
328,267,140610,2,0,L|322:337,2,56,2|8|0,1:2|0:0|1:2,0:0:0:0:
192,383,141198,2,0,P|151:366|136:298,1,112,8|0,0:0|1:2,0:0:0:0:
213,260,141639,1,8,0:0:0:0:
213,260,141786,6,0,L|207:140,1,112,2|0,0:0|3:0,0:0:0:0:
30,118,142374,2,0,L|24:229,1,112,8|0,0:0|1:2,0:0:0:0:
8,318,142815,1,8,0:0:0:0:
8,318,142962,2,0,B|47:324|75:308|75:308|121:317,1,112,2|0,1:2|1:2,0:0:0:0:
289,368,143551,2,0,L|401:350,1,112,10|0,0:0|3:0,0:0:0:0:
480,308,143992,1,0,3:0:0:0:
480,308,144139,6,0,L|469:183,1,112,2|0,1:2|3:0,0:0:0:0:
357,57,144727,2,0,L|350:178,1,112,8|0,0:0|1:2,0:0:0:0:
338,260,145168,1,8,0:0:0:0:
338,260,145315,2,0,L|274:251,2,56,2|8|0,1:2|0:0|1:2,0:0:0:0:
466,375,145904,2,0,L|523:365,2,56,8|0|0,0:0|0:0|1:2,0:0:0:0:
394,330,146345,1,8,0:0:0:0:
394,330,146492,6,0,P|423:282|419:228,1,112,2|2,1:2|3:0,0:0:0:0:
245,182,147080,2,0,P|216:230|220:284,1,112,10|2,0:0|1:2,0:0:0:0:
60,365,147668,2,0,L|63:330,7,28,2|0|0|0|0|0|0|0,3:0|3:0|3:0|3:0|3:0|3:0|3:0|3:0,0:0:0:0:
77,293,148257,2,0,L|74:258,7,28,10|0|0|0|0|0|0|0,0:0|3:0|3:0|3:0|3:0|3:0|3:0|3:0,0:0:0:0:
65,220,148845,5,6,1:2:0:0:
164,74,149139,2,0,L|171:138,1,62.9999980773926,2|0,3:0|3:0,0:0:0:0:
177,224,149433,2,0,B|237:241|237:241|299:221,1,125.999996154785,10|2,0:0|0:0,0:0:0:0:
353,153,149874,1,8,0:0:0:0:
353,153,150021,6,0,L|488:131,1,125.999996154785,2|0,1:2|1:2,0:0:0:0:
482,309,150610,2,0,L|347:287,1,125.999996154785,10|0,0:0|1:2,0:0:0:0:
305,229,151051,1,2,0:0:0:0:
305,229,151124,1,2,0:0:0:0:
305,229,151198,6,0,B|242:216|242:216|173:235,2,125.999996154785,2|0|8,1:2|3:0|0:0,0:0:0:0:
430,352,152080,2,0,L|435:288,1,62.9999980773926,2|10,1:2|0:0,0:0:0:0:
446,201,152374,6,0,L|437:53,1,125.999996154785,2|0,1:2|1:2,0:0:0:0:
262,74,152962,2,0,L|254:199,1,125.999996154785,10|0,0:0|1:2,0:0:0:0:
153,345,153551,6,0,P|93:361|32:340,2,125.999996154785,2|0|8,1:2|3:0|0:0,0:0:0:0:
214,281,154286,1,2,0:0:0:0:
279,340,154433,2,0,L|351:330,1,62.9999980773926,2|10,1:2|0:0,0:0:0:0:
389,257,154727,6,0,L|391:125,2,125.999996154785,2|2|10,1:2|1:2|0:0,0:0:0:0:
214,281,155610,2,0,L|216:216,1,62.9999980773926,0|0,1:2|0:0,0:0:0:0:
208,130,155904,5,2,1:2:0:0:
30,158,156198,2,0,L|41:87,2,62.9999980773926,2|2|10,3:0|3:0|0:0,0:0:0:0:
8,243,156639,2,0,L|17:305,2,62.9999980773926,2|2|10,0:0|1:2|0:0,0:0:0:0:
93,220,157080,6,0,B|151:234|151:234|216:217,1,125.999996154785,2|2,1:2|1:2,0:0:0:0:
310,68,157668,2,0,B|375:51|375:51|433:65,1,125.999996154785,10|2,0:0|1:2,0:0:0:0:
511,222,158257,6,0,L|500:339,1,97.9999970092774,6|0,1:1|0:0,0:0:0:0:
364,325,158845,2,0,L|354:227,1,97.9999970092774,2|0,0:1|0:0,0:0:0:0:
436,178,159286,1,2,0:0:0:0:
436,178,159360,1,2,0:0:0:0:
436,178,159433,5,6,0:1:0:0:
256,192,159507,12,6,160610,0:0:0:0:
175,199,177080,6,0,P|105:261|128:352,1,195.999994018555,14|2,0:0|3:0,0:0:0:0:
384,352,178257,2,0,P|406:261|336:199,1,195.999994018555,2|2,3:0|3:0,0:0:0:0:
159,101,179433,6,0,L|174:198,3,97.9999970092774,2|0|0|2,1:2|1:2|1:2|1:2,0:0:0:0:
350,101,180610,2,0,L|336:198,3,97.9999970092774,2|0|0|0,1:2|1:2|1:2|1:2,0:0:0:0:
256,352,181786,5,6,0:1:0:0:
256,192,181860,12,6,182962,1:1:0:0:
436,75,183551,6,0,L|433:121,7,35,6|2|2|2|2|2|2|2,0:0|0:0|0:0|0:0|0:0|0:0|0:0|0:0,0:0:0:0:
433,160,184139,6,0,B|379:133|379:133|269:157,1,154.000004699707,6|10,1:2|0:0,0:0:0:0:
202,206,184580,1,2,0:0:0:0:
118,150,184727,2,0,L|104:69,2,77.0000023498536,2|2|10,1:2|1:2|0:0,0:0:0:0:
202,206,185168,2,0,L|191:294,1,77.0000023498536,2|0,0:0|1:2,0:0:0:0:
254,360,185462,1,2,0:0:0:0:
354,364,185610,1,10,0:0:0:0:
439,311,185757,2,0,P|467:259|434:171,1,154.000004699707,2|0,0:0|1:2,0:0:0:0:
363,106,186198,2,0,P|325:117|282:108,1,77.0000023498536,10|0,0:0|0:0,0:0:0:0:
203,58,186492,6,0,B|164:39|164:39|189:151,1,154.000004699707,2|10,1:2|0:0,0:0:0:0:
262,213,186933,2,0,L|254:299,1,77.0000023498536,2|0,0:0|1:2,0:0:0:0:
154,289,187227,2,0,L|162:375,2,77.0000023498536,2|10|2,1:2|0:0|0:0,0:0:0:0:
103,202,187668,6,0,P|63:212|20:202,1,77.0000023498536,0|0,1:2|0:0,0:0:0:0:
27,105,187962,2,0,P|67:95|110:105,1,77.0000023498536,8|0,0:0|0:0,0:0:0:0:
191,146,188257,2,0,B|261:168|261:168|340:142,1,154.000004699707,2|8,1:2|0:0,0:0:0:0:
415,79,188698,1,0,0:0:0:0:
415,79,188845,6,0,P|435:121|404:226,2,154.000004699707,6|8|0,1:2|0:0|1:2,0:0:0:0:
320,44,189580,2,0,L|236:33,2,77.0000023498536,2|10|2,1:2|0:0|0:0,0:0:0:0:
341,146,190021,1,2,1:1:0:0:
341,146,190168,2,0,L|257:135,1,77.0000023498536,0|8,0:0|0:0,0:0:0:0:
169,105,190462,2,0,P|118:139|30:107,1,154.000004699707,2|0,0:1|1:2,0:0:0:0:
11,14,190904,1,8,0:0:0:0:
169,105,191198,6,0,P|225:124|295:108,1,125.999996154785,14|2,0:3|0:0,0:0:0:0:
343,49,191639,2,0,L|333:181,1,125.999996154785,14|2,0:3|0:0,0:0:0:0:
325,256,192080,1,14,0:3:0:0:
79,309,192374,5,6,3:0:0:0:
157,68,192668,1,6,3:0:0:0:
325,256,192962,5,10,0:0:0:0:
179,192,193110,2,0,L|156:63,1,125.999996154785,14|2,0:0|0:0,0:0:0:0:
251,35,193551,6,0,P|290:46|328:41,1,77.0000023498536,6|2,1:2|0:0,0:0:0:0:
418,3,193845,2,0,P|428:45|417:83,1,77.0000023498536,10|2,0:0|0:0,0:0:0:0:
342,140,194139,2,0,L|350:221,2,77.0000023498536,2|2|10,1:2|1:2|0:0,0:0:0:0:
242,146,194580,6,0,L|249:230,1,77.0000023498536,2|0,0:0|1:2,0:0:0:0:
298,309,194874,1,2,0:0:0:0:
397,317,195021,1,10,0:0:0:0:
467,246,195168,2,0,P|503:214|471:113,1,154.000004699707,2|0,0:0|1:2,0:0:0:0:
415,52,195610,1,10,0:0:0:0:
415,52,195757,1,2,0:0:0:0:
386,148,195904,6,0,B|336:172|336:172|230:142,1,154.000004699707,2|10,1:2|0:0,0:0:0:0:
186,61,196345,2,0,L|98:68,1,77.0000023498536,2|0,0:0|1:2,0:0:0:0:
68,158,196639,2,0,L|156:165,1,77.0000023498536,2|8,1:2|0:0,0:0:0:0:
202,252,196933,1,2,0:0:0:0:
202,252,197080,6,0,P|213:295|199:332,1,77.0000023498536,0|0,1:2|0:0,0:0:0:0:
103,327,197374,2,0,P|92:284|106:247,1,77.0000023498536,8|0,0:0|0:0,0:0:0:0:
144,164,197668,2,0,L|128:10,1,154.000004699707,2|10,1:2|0:0,0:0:0:0:
226,49,198110,1,2,0:0:0:0:
226,49,198257,6,0,P|297:59|363:12,2,154.000004699707,6|8|0,1:2|0:0|1:2,0:0:0:0:
128,10,198992,2,0,L|44:4,2,77.0000023498536,2|10|2,1:2|0:0|0:0,0:0:0:0:
139,109,199433,6,0,B|109:161|109:161|136:257,1,154.000004699707,2|10,1:2|0:0,0:0:0:0:
227,288,199874,1,2,0:0:0:0:
315,240,200021,2,0,L|305:152,2,77.0000023498536,2|0|8,1:2|1:2|0:0,0:0:0:0:
235,296,200462,1,2,0:0:0:0:
235,296,200536,1,2,0:0:0:0:
235,296,200610,5,14,3:0:0:0:
394,202,201051,1,10,3:0:0:0:
354,22,201492,1,14,3:0:0:0:
170,4,201933,1,10,3:0:0:0:
96,173,202374,5,14,3:0:0:0:
244,131,202668,1,10,0:0:0:0:
354,22,202962,1,14,0:0:0:0:
256,192,203036,12,2,204727,0:0:0:0:
232,247,205315,5,14,0:0:0:0:
171,317,205756,5,2,1:2:0:0:
232,247,205903,1,14,0:0:0:0:
175,321,206492,5,6,1:2:0:0:
175,321,206639,1,2,0:0:0:0:
236,251,206786,1,14,0:0:0:0:
236,251,206933,1,2,0:0:0:0:
268,337,207080,1,6,1:2:0:0:
428,245,207374,2,0,L|421:203,3,38.5000011749268,8|8|8|8,0:0|0:0|0:0|0:0,0:0:0:0:
413,161,207668,5,14,0:0:0:0:
380,75,208110,5,2,1:2:0:0:
413,161,208257,1,14,0:0:0:0:
384,79,208845,5,6,1:2:0:0:
384,79,208992,1,2,0:0:0:0:
417,165,209139,1,14,0:0:0:0:
417,165,209286,1,2,0:0:0:0:
325,153,209433,2,0,L|284:158,3,38.5000011749268,14|8|8|8,1:2|0:0|0:0|0:0,0:0:0:0:
240,163,209727,2,0,L|201:158,3,38.5000011749268,8|8|8|8,0:0|0:0|0:0|0:0,0:0:0:0:
160,150,210021,6,0,L|86:161,2,70,6|2|10,1:2|0:0|0:0,0:0:0:0:
173,247,210462,2,0,B|189:317|189:317|168:382,2,140,2|2|2,0:0|1:2|0:0,0:0:0:0:
247,181,211198,2,0,B|303:171|303:171|326:188|326:188|380:177,1,140,2|10,1:2|0:0,0:0:0:0:
470,141,211639,1,2,0:0:0:0:
382,309,211933,2,0,B|359:262|359:262|383:160,1,140,2|0,1:2|0:0,0:0:0:0:
385,78,212374,6,0,L|373:3,2,70,2|2|10,1:2|0:0|0:0,0:0:0:0:
296,120,212815,2,0,P|251:145|162:128,2,140,2|2|2,0:0|1:2|0:0,0:0:0:0:
379,176,213551,2,0,L|374:255,1,70,2|0,1:2|0:0,0:0:0:0:
335,335,213845,1,10,0:0:0:0:
237,339,213992,1,2,0:0:0:0:
65,243,214286,2,0,L|52:169,2,70,2|8|0,1:2|0:0|0:0,0:0:0:0:
136,310,214727,6,0,L|123:378,2,70,2|2|10,1:2|0:0|0:0,0:0:0:0:
159,215,215168,2,0,P|207:188|299:199,2,140,2|2|2,0:0|1:2|0:0,0:0:0:0:
65,243,215904,2,0,L|40:102,1,140,2|10,1:2|0:0,0:0:0:0:
24,8,216345,1,2,0:0:0:0:
193,105,216639,2,0,P|251:124|325:90,1,140,2|2,1:2|0:0,0:0:0:0:
404,151,217080,6,0,L|491:157,3,83.9999974365235,2|2|10|2,1:2|0:0|0:0|0:0,0:0:0:0:
404,242,217668,6,0,L|475:247,3,70,2|2|10|2,1:2|1:2|0:0|0:0,0:0:0:0:
405,331,218257,5,10,0:0:0:0:
405,331,218404,1,2,1:2:0:0:
321,279,218551,2,0,P|314:245|323:205,1,70,10|2,0:0|0:0,0:0:0:0:
393,147,218845,2,0,P|404:111|392:66,1,83.9999974365235,2|2,1:2|1:2,0:0:0:0:
296,109,219139,2,0,P|250:121|199:107,1,97.9999970092774,10|2,0:0|0:0,0:0:0:0:
126,55,219433,5,14,0:0:0:0:
126,55,219580,1,2,1:2:0:0:
31,79,219727,2,0,L|36:153,1,70,10|2,0:0|1:2,0:0:0:0:
48,250,220021,5,10,0:0:0:0:
48,250,220168,1,2,1:2:0:0:
120,315,220315,2,0,L|205:319,1,70,10|2,0:0|1:2,0:0:0:0:
252,238,220610,5,14,0:0:0:0:
298,327,220757,1,2,1:2:0:0:
355,244,220904,2,0,L|367:159,1,83.9999974365235,14|2,0:0|1:2,0:0:0:0:
420,76,221198,5,14,0:0:0:0:
353,1,221345,1,2,1:2:0:0:
262,39,221492,1,14,0:0:0:0:
269,137,221639,1,2,1:2:0:0:
367,161,221786,1,14,0:0:0:0:
256,192,221860,12,0,224286,0:0:0:0:
