osu file format v14

[General]
AudioFilename: audio.ogg
AudioLeadIn: 0
PreviewTime: 217748
Countdown: 0
SampleSet: Normal
StackLeniency: 0.7
Mode: 1
LetterboxInBreaks: 0
WidescreenStoryboard: 1

[Editor]
Bookmarks: 1502,12499,20486,28486,36492,44486,52492,60486,76486,86492,94492,102492,118992,130992,135992,143992,153992,169992,177992,185992,193992,201992,217992,234492,253992,269992,285992
DistanceSpacing: 5.1
BeatDivisor: 4
GridSize: 32
TimelineZoom: 1.950009

[Metadata]
Title:The World's End
TitleUnicode:The♡World's♡End
Artist:Horie Yui
ArtistUnicode:堀江由衣
Creator:gaston_2199
Version:Eternal Love
Source:ゴールデンタイム
Tags:ワールドエンドの庭 World End no Niwa Golden Time 2nd opening full size long version 清 竜人 Ryujin Kiyoshi japanese pop jpop j-pop anime orchestra female vocal
BeatmapID:3595982
BeatmapSetID:1757229

[Difficulty]
HPDrainRate:6
CircleSize:2
OverallDifficulty:7
ApproachRate:10
SliderMultiplier:1.4
SliderTickRate:1

[Events]
//Background and Video events
0,0,"BG.jpg",0,-100
//Break Periods
//Storyboard Layer 0 (Background)
//Storyboard Layer 1 (Fail)
//Storyboard Layer 2 (Pass)
//Storyboard Layer 3 (Foreground)
//Storyboard Layer 4 (Overlay)
//Storyboard Sound Samples

[TimingPoints]
1497,545.454545454546,4,1,0,60,1,0
2315,666.666666666667,4,1,0,60,1,8
2315,-81.8181818181818,4,1,0,60,0,0
2648,571.428571428571,4,1,0,60,1,8
2648,-95.4545454545455,4,1,0,60,0,0
3505,685.714285714286,4,1,0,60,1,8
3505,-79.5454545454545,4,1,0,60,0,0
3847,558.139534883721,4,1,0,60,1,0
3847,-97.7272727272727,4,1,0,60,0,0
4684,666.666666666667,4,1,0,60,1,8
4684,-81.8181818181818,4,1,0,60,0,0
5017,545.454545454546,4,1,0,60,1,8
5835,631.578947368421,4,1,0,60,1,8
5835,-86.3636363636364,4,1,0,60,0,0
6150,585.365853658537,4,1,0,60,1,0
6150,-93.1818181818181,4,1,0,60,0,0
7028,631.578947368421,4,1,0,60,1,8
7028,-86.3636363636364,4,1,0,60,0,0
7343,571.428571428571,4,1,0,60,1,8
7343,-95.4545454545455,4,1,0,60,0,0
8200,600,4,1,0,60,1,8
8200,-90.9090909090909,4,1,0,60,0,0
8500,600,4,1,0,60,1,0
8500,-90.9090909090909,4,1,0,60,0,0
9400,923.076923076923,4,1,0,60,1,8
9400,-59.0909090909091,4,1,0,60,0,0
9861,1142.85714285714,4,1,0,60,1,8
9861,-47.7272727272728,4,1,0,60,0,0
12486,250,4,1,0,90,1,1
76486,-100,4,1,0,90,0,0
76744,-111.111111111111,4,1,0,80,0,0
78486,-142.857142857143,4,1,0,60,0,0
86486,-125,4,1,0,70,0,0
110486,250,4,1,0,70,1,8
110505,250,4,1,0,80,1,0
118505,250,4,1,0,60,1,8
118752,-113.059173775075,4,1,0,60,0,8
118993,250,4,1,0,70,1,0
118993,-125,4,1,0,70,0,0
126982,-111.111111111111,4,1,0,80,0,0
128982,-99.9999999999999,4,1,0,80,0,0
129232,-111.111111111111,4,1,0,80,0,0
129857,-99.9999999999999,4,1,0,80,0,0
129982,-111.111111111111,4,1,0,80,0,0
130607,-99.9999999999999,4,1,0,80,0,0
130978,250,4,1,0,80,1,0
130978,-111.111111111111,4,1,0,80,0,0
132972,-99.9999999999999,4,1,0,80,0,0
133222,-111.111111111111,4,1,0,80,0,0
133847,-99.9999999999999,4,1,0,80,0,0
133972,-111.111111111111,4,1,0,80,0,0
134347,-99.9999999999999,4,1,0,80,0,0
134597,-111.111111111111,4,1,0,80,0,0
134978,250,4,1,0,60,1,8
134993,250,4,1,0,60,1,0
134993,-111.111111111111,4,1,0,60,0,0
135482,-100,4,1,0,90,0,0
135993,250,4,1,0,100,1,8
136000,250,4,1,0,100,1,1
151993,250,4,1,0,100,1,0
152232,-111.111111111111,4,1,0,80,0,0
153482,-83.3333333333333,4,1,0,80,0,0
153982,-100,4,1,0,90,0,0
170243,-125,4,1,0,70,0,0
177993,-100,4,1,0,90,0,0
185993,500,4,1,0,90,1,0
185993,-50,4,1,0,90,0,0
186493,-71.4285714285714,4,1,0,60,0,0
193993,-66.6666666666667,4,1,0,70,0,0
201993,250,4,1,0,70,1,0
201993,-125,4,1,0,70,0,0
215993,500,4,1,0,70,1,0
215993,-62.5,4,1,0,70,0,0
216993,-100,4,1,0,60,0,0
217993,250,4,1,0,100,1,8
218000,250,4,1,0,100,1,1
234000,-100,4,1,0,100,0,0
234500,-100,4,1,0,100,0,1
249993,250,4,1,0,100,1,0
250243,-111.111111111111,4,1,0,80,0,0
254243,-142.857142857143,4,1,0,70,0,0
269993,-100,4,1,0,90,0,1
301868,-100,4,1,0,90,0,0

[HitObjects]
256,192,1497,5,8,0:0:0:0:
256,192,2315,1,0,0:0:0:0:
256,192,2648,1,8,0:0:0:0:
256,192,3505,1,8,0:0:0:0:
256,192,3847,1,8,0:0:0:0:
256,192,4684,1,8,0:0:0:0:
256,192,5017,1,0,0:0:0:0:
256,192,5835,1,8,0:0:0:0:
256,192,6150,1,8,0:0:0:0:
256,192,7028,1,8,0:0:0:0:
256,192,7343,1,0,0:0:0:0:
256,192,8200,1,0,0:0:0:0:
256,192,8350,1,8,0:0:0:0:
256,192,8500,1,0,0:0:0:0:
256,192,9400,1,8,0:0:0:0:
256,192,9861,1,8,0:0:0:0:
256,192,12486,5,12,0:0:0:0:
256,192,12736,1,8,0:0:0:0:
256,192,12861,1,0,0:0:0:0:
256,192,12923,1,0,0:0:0:0:
256,192,12986,1,0,0:0:0:0:
256,192,13111,1,0,0:0:0:0:
256,192,13236,1,8,0:0:0:0:
256,192,13361,1,0,0:0:0:0:
256,160,13423,1,0,0:0:0:0:
256,192,13486,1,8,0:0:0:0:
288,160,13548,1,0,0:0:0:0:
256,192,13611,1,0,0:0:0:0:
256,192,13736,1,8,0:0:0:0:
256,160,13861,1,0,0:0:0:0:
256,160,13923,1,0,0:0:0:0:
256,192,13986,1,8,0:0:0:0:
256,192,14111,1,0,0:0:0:0:
256,192,14236,1,8,0:0:0:0:
256,160,14298,1,0,0:0:0:0:
256,192,14361,1,8,0:0:0:0:
256,192,14486,1,4,0:0:0:0:
260,174,14611,1,0,0:0:0:0:
256,192,14736,1,8,0:0:0:0:
256,192,14861,1,0,0:0:0:0:
256,160,14923,1,0,0:0:0:0:
256,192,14986,1,8,0:0:0:0:
256,192,15111,1,0,0:0:0:0:
256,192,15236,1,8,0:0:0:0:
256,160,15298,1,0,0:0:0:0:
256,192,15361,1,0,0:0:0:0:
256,160,15423,1,0,0:0:0:0:
256,192,15486,1,8,0:0:0:0:
256,192,15611,1,0,0:0:0:0:
256,192,15736,1,8,0:0:0:0:
256,192,15861,1,0,0:0:0:0:
256,160,15923,1,0,0:0:0:0:
256,192,15986,1,0,0:0:0:0:
256,192,16111,1,0,0:0:0:0:
256,160,16173,1,0,0:0:0:0:
256,192,16236,1,8,0:0:0:0:
256,192,16361,1,0,0:0:0:0:
256,192,16486,5,12,0:0:0:0:
256,192,16611,1,0,0:0:0:0:
256,192,16736,1,8,0:0:0:0:
256,192,16861,1,0,0:0:0:0:
256,160,16923,1,0,0:0:0:0:
256,192,16986,1,8,0:0:0:0:
256,192,17111,1,0,0:0:0:0:
256,192,17236,1,8,0:0:0:0:
256,160,17361,1,0,0:0:0:0:
256,160,17423,1,0,0:0:0:0:
256,192,17486,1,8,0:0:0:0:
256,160,17548,1,0,0:0:0:0:
256,192,17611,1,0,0:0:0:0:
256,160,17736,1,8,0:0:0:0:
256,192,17861,1,0,0:0:0:0:
256,192,17986,1,8,0:0:0:0:
256,160,18048,1,0,0:0:0:0:
256,192,18111,1,0,0:0:0:0:
256,192,18236,1,8,0:0:0:0:
256,160,18298,1,0,0:0:0:0:
256,192,18361,1,8,0:0:0:0:
256,192,18486,1,4,0:0:0:0:
256,192,18611,1,0,0:0:0:0:
256,192,18736,1,8,0:0:0:0:
256,192,18861,1,0,0:0:0:0:
256,160,18923,1,0,0:0:0:0:
256,160,18986,1,8,0:0:0:0:
256,192,19111,1,0,0:0:0:0:
256,160,19173,1,8,0:0:0:0:
256,192,19236,1,0,0:0:0:0:
256,160,19361,1,0,0:0:0:0:
256,192,19486,1,8,0:0:0:0:
256,160,19548,1,0,0:0:0:0:
256,192,19611,1,0,0:0:0:0:
224,128,19673,1,0,0:0:0:0:
256,160,19736,1,8,0:0:0:0:
256,192,19861,1,0,0:0:0:0:
256,192,19986,1,8,0:0:0:0:
256,160,20048,1,0,0:0:0:0:
256,192,20111,1,8,0:0:0:0:
256,160,20173,1,0,0:0:0:0:
256,192,20236,1,8,0:0:0:0:
256,160,20298,1,8,0:0:0:0:
224,192,20361,1,0,0:0:0:0:
256,192,20486,5,12,0:0:0:0:
256,192,20736,1,8,0:0:0:0:
256,192,20861,1,0,0:0:0:0:
256,192,20923,1,0,0:0:0:0:
256,192,20986,1,0,0:0:0:0:
256,192,21111,1,0,0:0:0:0:
256,192,21236,1,8,0:0:0:0:
256,192,21361,1,0,0:0:0:0:
256,160,21423,1,0,0:0:0:0:
256,192,21486,1,8,0:0:0:0:
288,160,21548,1,8,0:0:0:0:
256,192,21611,1,0,0:0:0:0:
256,192,21736,1,8,0:0:0:0:
256,160,21861,1,0,0:0:0:0:
256,160,21923,1,0,0:0:0:0:
256,192,21986,1,8,0:0:0:0:
256,192,22111,1,0,0:0:0:0:
256,192,22236,1,8,0:0:0:0:
256,160,22298,1,0,0:0:0:0:
256,192,22361,1,8,0:0:0:0:
256,192,22486,1,4,0:0:0:0:
256,192,22611,5,0,0:0:0:0:
256,192,22736,1,8,0:0:0:0:
256,192,22861,1,0,0:0:0:0:
256,160,22923,1,0,0:0:0:0:
256,192,22986,1,8,0:0:0:0:
256,192,23111,1,0,0:0:0:0:
256,192,23236,1,8,0:0:0:0:
256,160,23298,1,8,0:0:0:0:
256,192,23361,1,0,0:0:0:0:
256,160,23423,1,0,0:0:0:0:
256,192,23486,1,8,0:0:0:0:
256,192,23611,1,0,0:0:0:0:
256,192,23736,1,8,0:0:0:0:
256,192,23861,1,0,0:0:0:0:
256,160,23923,1,8,0:0:0:0:
256,192,23986,1,0,0:0:0:0:
256,192,24111,1,0,0:0:0:0:
256,160,24173,1,0,0:0:0:0:
256,192,24236,1,8,0:0:0:0:
256,192,24361,1,0,0:0:0:0:
256,192,24486,5,12,0:0:0:0:
256,192,24611,1,0,0:0:0:0:
256,192,24736,1,8,0:0:0:0:
256,192,24861,1,0,0:0:0:0:
256,160,24923,1,0,0:0:0:0:
256,192,24986,1,8,0:0:0:0:
256,192,25111,1,0,0:0:0:0:
256,192,25236,1,8,0:0:0:0:
256,160,25361,1,0,0:0:0:0:
256,160,25423,1,0,0:0:0:0:
256,192,25486,1,8,0:0:0:0:
256,160,25548,1,8,0:0:0:0:
256,192,25611,1,0,0:0:0:0:
256,160,25736,1,8,0:0:0:0:
256,192,25861,1,0,0:0:0:0:
256,192,25986,1,8,0:0:0:0:
256,160,26048,1,0,0:0:0:0:
256,192,26111,1,0,0:0:0:0:
256,192,26236,1,8,0:0:0:0:
256,160,26298,1,0,0:0:0:0:
256,192,26361,1,8,0:0:0:0:
256,192,26486,1,4,0:0:0:0:
256,192,26611,1,0,0:0:0:0:
256,192,26736,1,8,0:0:0:0:
256,192,26861,1,0,0:0:0:0:
256,160,26923,1,0,0:0:0:0:
256,160,26986,1,8,0:0:0:0:
256,192,27111,1,0,0:0:0:0:
256,160,27173,1,8,0:0:0:0:
256,192,27236,1,0,0:0:0:0:
256,160,27361,1,0,0:0:0:0:
256,192,27486,1,8,0:0:0:0:
256,160,27548,1,0,0:0:0:0:
256,192,27611,1,0,0:0:0:0:
224,128,27673,1,0,0:0:0:0:
256,160,27736,1,8,0:0:0:0:
256,192,27861,1,0,0:0:0:0:
256,192,27986,1,8,0:0:0:0:
256,160,28048,1,0,0:0:0:0:
256,192,28111,1,8,0:0:0:0:
256,160,28173,1,8,0:0:0:0:
256,192,28236,1,0,0:0:0:0:
256,160,28298,1,0,0:0:0:0:
224,192,28361,1,0,0:0:0:0:
256,192,28486,5,12,0:0:0:0:
256,192,28736,1,8,0:0:0:0:
256,192,28861,1,0,0:0:0:0:
256,192,28923,1,0,0:0:0:0:
256,192,28986,1,8,0:0:0:0:
256,192,29111,1,0,0:0:0:0:
256,192,29236,1,8,0:0:0:0:
256,160,29298,1,8,0:0:0:0:
256,192,29361,1,0,0:0:0:0:
256,160,29423,1,0,0:0:0:0:
256,192,29486,1,8,0:0:0:0:
288,160,29548,1,0,0:0:0:0:
256,192,29611,1,0,0:0:0:0:
256,192,29736,1,8,0:0:0:0:
256,160,29861,1,0,0:0:0:0:
256,160,29923,1,0,0:0:0:0:
256,192,29986,1,8,0:0:0:0:
256,192,30111,1,0,0:0:0:0:
256,192,30236,1,8,0:0:0:0:
256,160,30298,1,8,0:0:0:0:
256,192,30361,1,8,0:0:0:0:
256,192,30486,1,4,0:0:0:0:
256,192,30611,1,0,0:0:0:0:
256,192,30736,1,8,0:0:0:0:
256,192,30861,1,0,0:0:0:0:
256,160,30923,1,0,0:0:0:0:
256,192,30986,1,8,0:0:0:0:
256,192,31111,1,0,0:0:0:0:
256,192,31236,1,8,0:0:0:0:
256,160,31298,1,0,0:0:0:0:
256,192,31361,1,0,0:0:0:0:
256,160,31423,1,0,0:0:0:0:
256,192,31486,1,8,0:0:0:0:
256,160,31548,1,8,0:0:0:0:
256,192,31611,1,0,0:0:0:0:
256,192,31736,1,8,0:0:0:0:
256,192,31861,1,0,0:0:0:0:
256,160,31923,1,8,0:0:0:0:
256,192,31986,1,0,0:0:0:0:
256,192,32111,1,0,0:0:0:0:
256,160,32173,1,0,0:0:0:0:
256,192,32236,1,8,0:0:0:0:
256,192,32361,1,0,0:0:0:0:
256,192,32486,5,12,0:0:0:0:
256,192,32611,1,0,0:0:0:0:
256,192,32736,1,8,0:0:0:0:
256,192,32861,1,0,0:0:0:0:
256,160,32923,1,0,0:0:0:0:
256,192,32986,1,8,0:0:0:0:
256,192,33111,1,0,0:0:0:0:
256,192,33236,1,8,0:0:0:0:
256,160,33298,1,8,0:0:0:0:
256,160,33361,1,0,0:0:0:0:
256,160,33423,1,0,0:0:0:0:
256,192,33486,1,8,0:0:0:0:
256,160,33548,1,0,0:0:0:0:
256,192,33611,1,0,0:0:0:0:
256,160,33736,1,8,0:0:0:0:
256,192,33861,1,0,0:0:0:0:
256,192,33986,1,8,0:0:0:0:
256,160,34048,1,0,0:0:0:0:
256,192,34111,1,0,0:0:0:0:
256,192,34236,1,8,0:0:0:0:
256,160,34298,1,0,0:0:0:0:
256,192,34361,1,8,0:0:0:0:
256,192,34486,1,4,0:0:0:0:
256,192,34611,1,0,0:0:0:0:
256,192,34736,1,8,0:0:0:0:
256,192,34861,1,0,0:0:0:0:
256,160,34923,1,0,0:0:0:0:
256,160,34986,1,8,0:0:0:0:
256,192,35111,1,0,0:0:0:0:
256,160,35173,1,8,0:0:0:0:
256,192,35236,1,0,0:0:0:0:
256,160,35361,1,0,0:0:0:0:
256,192,35486,1,8,0:0:0:0:
256,160,35548,1,0,0:0:0:0:
256,192,35611,1,0,0:0:0:0:
224,128,35673,1,0,0:0:0:0:
256,160,35736,1,8,0:0:0:0:
256,192,35861,1,0,0:0:0:0:
256,192,35986,1,8,0:0:0:0:
256,160,36048,1,0,0:0:0:0:
256,192,36111,1,8,0:0:0:0:
256,160,36173,1,0,0:0:0:0:
256,192,36236,1,8,0:0:0:0:
256,160,36298,1,8,0:0:0:0:
224,192,36361,1,0,0:0:0:0:
256,192,36486,5,12,0:0:0:0:
256,192,36736,1,8,0:0:0:0:
256,192,36861,1,0,0:0:0:0:
256,192,36923,1,0,0:0:0:0:
256,192,36986,1,8,0:0:0:0:
256,192,37111,1,0,0:0:0:0:
256,192,37236,1,8,0:0:0:0:
256,160,37298,1,0,0:0:0:0:
256,192,37361,1,0,0:0:0:0:
256,160,37423,1,0,0:0:0:0:
256,192,37486,1,8,0:0:0:0:
288,160,37548,1,8,0:0:0:0:
256,192,37611,1,0,0:0:0:0:
256,192,37736,1,8,0:0:0:0:
256,160,37861,1,0,0:0:0:0:
256,160,37923,1,0,0:0:0:0:
256,192,37986,1,8,0:0:0:0:
256,192,38111,1,0,0:0:0:0:
256,192,38236,1,8,0:0:0:0:
256,160,38298,1,8,0:0:0:0:
256,192,38361,1,8,0:0:0:0:
256,192,38486,1,4,0:0:0:0:
256,192,38611,1,0,0:0:0:0:
256,192,38736,1,8,0:0:0:0:
256,192,38861,1,0,0:0:0:0:
256,160,38923,1,0,0:0:0:0:
256,192,38986,1,8,0:0:0:0:
256,192,39111,1,0,0:0:0:0:
256,192,39236,1,8,0:0:0:0:
256,160,39298,1,8,0:0:0:0:
256,192,39361,1,0,0:0:0:0:
256,160,39423,1,0,0:0:0:0:
256,192,39486,1,8,0:0:0:0:
256,160,39548,1,0,0:0:0:0:
256,192,39611,1,0,0:0:0:0:
256,192,39736,1,8,0:0:0:0:
256,192,39861,1,0,0:0:0:0:
256,160,39923,1,8,0:0:0:0:
256,192,39986,1,0,0:0:0:0:
256,192,40111,1,0,0:0:0:0:
256,160,40173,1,0,0:0:0:0:
256,192,40236,1,8,0:0:0:0:
256,192,40361,1,0,0:0:0:0:
256,192,40486,5,12,0:0:0:0:
224,160,40611,1,0,0:0:0:0:
256,192,40736,1,8,0:0:0:0:
256,192,40861,1,0,0:0:0:0:
256,160,40923,1,0,0:0:0:0:
256,192,40986,1,8,0:0:0:0:
256,192,41111,1,0,0:0:0:0:
256,192,41236,1,8,0:0:0:0:
256,160,41298,1,0,0:0:0:0:
256,160,41361,1,0,0:0:0:0:
256,160,41423,1,0,0:0:0:0:
256,192,41486,1,8,0:0:0:0:
256,160,41548,1,8,0:0:0:0:
256,192,41611,1,0,0:0:0:0:
256,160,41736,1,8,0:0:0:0:
256,192,41861,1,0,0:0:0:0:
256,192,41986,1,8,0:0:0:0:
256,160,42048,1,0,0:0:0:0:
256,192,42111,1,0,0:0:0:0:
256,192,42236,1,8,0:0:0:0:
256,160,42298,1,0,0:0:0:0:
256,192,42361,1,8,0:0:0:0:
256,192,42486,1,4,0:0:0:0:
224,160,42611,1,0,0:0:0:0:
256,192,42736,1,8,0:0:0:0:
256,192,42861,1,0,0:0:0:0:
256,160,42923,1,0,0:0:0:0:
256,160,42986,1,8,0:0:0:0:
256,192,43111,1,0,0:0:0:0:
256,160,43173,1,8,0:0:0:0:
256,192,43236,1,0,0:0:0:0:
256,160,43361,1,0,0:0:0:0:
256,192,43486,1,8,0:0:0:0:
256,160,43548,1,0,0:0:0:0:
256,192,43611,1,0,0:0:0:0:
224,128,43673,1,0,0:0:0:0:
256,160,43736,1,8,0:0:0:0:
256,192,43861,1,0,0:0:0:0:
256,192,43986,1,8,0:0:0:0:
256,160,44048,1,0,0:0:0:0:
256,192,44111,1,8,0:0:0:0:
256,160,44173,1,0,0:0:0:0:
256,192,44236,1,8,0:0:0:0:
256,160,44298,1,8,0:0:0:0:
224,192,44361,1,0,0:0:0:0:
256,192,44486,5,12,0:0:0:0:
256,192,44736,1,8,0:0:0:0:
256,192,44861,1,0,0:0:0:0:
256,192,44923,1,0,0:0:0:0:
256,192,44986,1,8,0:0:0:0:
256,192,45111,1,0,0:0:0:0:
256,192,45236,1,8,0:0:0:0:
256,160,45298,1,8,0:0:0:0:
256,192,45361,1,0,0:0:0:0:
256,160,45423,1,0,0:0:0:0:
256,192,45486,1,8,0:0:0:0:
288,160,45548,1,0,0:0:0:0:
256,192,45611,1,0,0:0:0:0:
256,192,45736,1,8,0:0:0:0:
256,160,45861,1,0,0:0:0:0:
256,160,45923,1,0,0:0:0:0:
256,192,45986,1,8,0:0:0:0:
224,128,46048,1,8,0:0:0:0:
256,192,46111,1,0,0:0:0:0:
256,192,46236,1,8,0:0:0:0:
256,160,46298,1,8,0:0:0:0:
256,192,46361,1,8,0:0:0:0:
256,192,46486,1,4,0:0:0:0:
256,160,46611,1,0,0:0:0:0:
256,192,46736,1,8,0:0:0:0:
256,160,46798,1,8,0:0:0:0:
256,192,46861,1,0,0:0:0:0:
256,160,46923,1,0,0:0:0:0:
256,192,46986,1,8,0:0:0:0:
256,160,47048,1,8,0:0:0:0:
256,192,47111,1,0,0:0:0:0:
256,192,47236,1,8,0:0:0:0:
256,192,47361,1,0,0:0:0:0:
256,160,47423,1,0,0:0:0:0:
256,192,47486,1,8,0:0:0:0:
256,192,47611,1,0,0:0:0:0:
256,192,47736,1,8,0:0:0:0:
256,160,47798,1,8,0:0:0:0:
256,192,47861,1,0,0:0:0:0:
256,160,47923,1,0,0:0:0:0:
256,192,47986,1,8,0:0:0:0:
256,192,48111,1,0,0:0:0:0:
256,160,48173,1,0,0:0:0:0:
256,192,48236,1,8,0:0:0:0:
256,192,48361,1,0,0:0:0:0:
256,192,48486,5,12,0:0:0:0:
256,160,48611,1,0,0:0:0:0:
256,192,48736,1,8,0:0:0:0:
256,192,48861,1,0,0:0:0:0:
256,160,48923,1,0,0:0:0:0:
256,192,48986,1,8,0:0:0:0:
256,192,49111,1,0,0:0:0:0:
256,192,49236,1,8,0:0:0:0:
256,160,49298,1,8,0:0:0:0:
256,160,49361,1,0,0:0:0:0:
256,160,49423,1,0,0:0:0:0:
256,192,49486,1,8,0:0:0:0:
256,192,49611,1,0,0:0:0:0:
256,160,49736,1,8,0:0:0:0:
224,160,49798,1,0,0:0:0:0:
256,192,49861,1,0,0:0:0:0:
256,160,49923,1,0,0:0:0:0:
256,192,49986,1,8,0:0:0:0:
224,128,50048,1,8,0:0:0:0:
256,192,50111,1,0,0:0:0:0:
256,192,50236,1,8,0:0:0:0:
256,160,50298,1,8,0:0:0:0:
256,192,50361,1,8,0:0:0:0:
256,192,50486,1,4,0:0:0:0:
256,160,50611,1,0,0:0:0:0:
256,192,50736,1,8,0:0:0:0:
256,192,50861,1,0,0:0:0:0:
256,160,50923,1,0,0:0:0:0:
256,160,50986,1,8,0:0:0:0:
256,192,51111,1,0,0:0:0:0:
256,160,51173,1,8,0:0:0:0:
256,192,51236,1,8,0:0:0:0:
224,160,51298,1,8,0:0:0:0:
224,160,51361,1,0,0:0:0:0:
256,192,51486,1,8,0:0:0:0:
256,192,51611,1,0,0:0:0:0:
224,128,51673,1,0,0:0:0:0:
256,160,51736,1,8,0:0:0:0:
256,192,51861,1,0,0:0:0:0:
256,192,51986,1,8,0:0:0:0:
256,160,52048,1,0,0:0:0:0:
256,192,52111,1,8,0:0:0:0:
256,160,52173,1,0,0:0:0:0:
256,192,52236,1,8,0:0:0:0:
256,160,52298,1,8,0:0:0:0:
224,192,52361,1,0,0:0:0:0:
256,192,52486,5,12,0:0:0:0:
256,192,52736,1,8,0:0:0:0:
256,192,52861,1,0,0:0:0:0:
256,192,52923,1,0,0:0:0:0:
256,192,52986,1,8,0:0:0:0:
256,192,53111,1,0,0:0:0:0:
256,192,53236,1,8,0:0:0:0:
256,160,53298,1,0,0:0:0:0:
256,192,53361,1,0,0:0:0:0:
256,160,53423,1,0,0:0:0:0:
256,192,53486,1,8,0:0:0:0:
288,160,53548,1,8,0:0:0:0:
256,192,53611,1,0,0:0:0:0:
256,192,53736,1,8,0:0:0:0:
256,160,53861,1,0,0:0:0:0:
256,160,53923,1,0,0:0:0:0:
256,192,53986,1,8,0:0:0:0:
256,160,54048,1,8,0:0:0:0:
256,160,54111,1,0,0:0:0:0:
256,192,54236,1,8,0:0:0:0:
256,160,54298,1,8,0:0:0:0:
256,192,54361,1,8,0:0:0:0:
256,192,54486,1,4,0:0:0:0:
256,160,54611,1,0,0:0:0:0:
256,192,54736,1,8,0:0:0:0:
256,192,54861,1,0,0:0:0:0:
256,160,54923,1,0,0:0:0:0:
256,192,54986,1,8,0:0:0:0:
256,192,55048,1,8,0:0:0:0:
256,192,55111,1,0,0:0:0:0:
256,192,55173,1,0,0:0:0:0:
256,192,55236,1,8,0:0:0:0:
256,192,55361,1,0,0:0:0:0:
256,160,55423,1,0,0:0:0:0:
256,192,55486,1,8,0:0:0:0:
256,192,55611,1,0,0:0:0:0:
256,192,55736,1,8,0:0:0:0:
256,160,55798,1,8,0:0:0:0:
256,192,55861,1,0,0:0:0:0:
256,160,55923,1,0,0:0:0:0:
256,192,55986,1,8,0:0:0:0:
256,192,56111,1,0,0:0:0:0:
256,160,56173,1,0,0:0:0:0:
256,192,56236,1,8,0:0:0:0:
256,192,56361,1,0,0:0:0:0:
256,192,56486,5,12,0:0:0:0:
256,160,56611,1,0,0:0:0:0:
256,192,56736,1,8,0:0:0:0:
256,192,56861,1,0,0:0:0:0:
256,160,56923,1,0,0:0:0:0:
256,192,56986,1,8,0:0:0:0:
256,192,57111,1,0,0:0:0:0:
224,160,57173,1,0,0:0:0:0:
256,192,57236,1,8,0:0:0:0:
256,160,57298,1,0,0:0:0:0:
256,160,57361,1,0,0:0:0:0:
256,160,57423,1,0,0:0:0:0:
256,192,57486,1,8,0:0:0:0:
256,192,57611,1,0,0:0:0:0:
256,160,57736,1,8,0:0:0:0:
256,192,57861,1,0,0:0:0:0:
256,160,57923,1,0,0:0:0:0:
256,192,57986,1,8,0:0:0:0:
256,160,58048,1,0,0:0:0:0:
256,192,58111,1,0,0:0:0:0:
256,192,58236,1,8,0:0:0:0:
256,160,58298,1,8,0:0:0:0:
256,192,58361,1,8,0:0:0:0:
256,192,58486,1,4,0:0:0:0:
256,160,58611,1,0,0:0:0:0:
256,192,58736,1,8,0:0:0:0:
256,192,58861,1,0,0:0:0:0:
256,160,58923,1,0,0:0:0:0:
256,160,58986,1,8,0:0:0:0:
256,192,59111,1,0,0:0:0:0:
256,160,59173,1,0,0:0:0:0:
256,192,59236,1,8,0:0:0:0:
224,128,59298,1,8,0:0:0:0:
256,160,59361,1,0,0:0:0:0:
256,192,59486,1,8,0:0:0:0:
256,192,59611,1,0,0:0:0:0:
224,128,59673,1,0,0:0:0:0:
256,160,59736,1,8,0:0:0:0:
256,192,59861,1,0,0:0:0:0:
256,192,59986,1,8,0:0:0:0:
256,160,60048,1,0,0:0:0:0:
256,192,60111,1,8,0:0:0:0:
256,160,60173,1,8,0:0:0:0:
256,192,60236,1,0,0:0:0:0:
256,160,60298,1,0,0:0:0:0:
224,192,60361,1,0,0:0:0:0:
256,192,60486,5,12,0:0:0:0:
256,192,60736,1,8,0:0:0:0:
256,192,60861,1,0,0:0:0:0:
256,192,60923,1,0,0:0:0:0:
256,192,60986,1,8,0:0:0:0:
256,192,61111,1,0,0:0:0:0:
256,192,61236,1,8,0:0:0:0:
256,160,61298,1,0,0:0:0:0:
256,192,61361,1,8,0:0:0:0:
256,160,61423,1,8,0:0:0:0:
256,192,61486,1,0,0:0:0:0:
288,160,61548,1,8,0:0:0:0:
256,192,61611,1,0,0:0:0:0:
256,192,61736,1,8,0:0:0:0:
256,160,61861,1,0,0:0:0:0:
256,160,61923,1,0,0:0:0:0:
256,192,61986,1,8,0:0:0:0:
224,128,62048,1,0,0:0:0:0:
256,192,62111,1,8,0:0:0:0:
256,192,62236,1,0,0:0:0:0:
256,160,62298,1,0,0:0:0:0:
256,192,62361,1,8,0:0:0:0:
256,192,62486,1,4,0:0:0:0:
256,160,62611,1,0,0:0:0:0:
256,192,62736,1,8,0:0:0:0:
256,160,62798,1,8,0:0:0:0:
256,192,62861,1,0,0:0:0:0:
256,192,62986,1,8,0:0:0:0:
256,192,63111,1,0,0:0:0:0:
256,160,63173,1,0,0:0:0:0:
256,192,63236,1,8,0:0:0:0:
256,160,63298,1,0,0:0:0:0:
256,192,63361,1,8,0:0:0:0:
256,160,63423,1,8,0:0:0:0:
256,192,63486,1,8,0:0:0:0:
256,192,63611,1,0,0:0:0:0:
256,192,63736,1,8,0:0:0:0:
256,160,63798,1,8,0:0:0:0:
256,192,63861,1,0,0:0:0:0:
256,160,63923,1,0,0:0:0:0:
256,192,63986,1,8,0:0:0:0:
256,192,64111,1,0,0:0:0:0:
256,160,64173,1,0,0:0:0:0:
256,192,64236,1,8,0:0:0:0:
256,192,64361,1,0,0:0:0:0:
256,192,64486,5,12,0:0:0:0:
288,160,64611,1,0,0:0:0:0:
256,192,64736,1,8,0:0:0:0:
256,192,64861,1,0,0:0:0:0:
256,160,64923,1,0,0:0:0:0:
256,192,64986,1,8,0:0:0:0:
256,192,65111,1,0,0:0:0:0:
256,192,65236,1,8,0:0:0:0:
256,160,65298,1,0,0:0:0:0:
256,160,65361,1,8,0:0:0:0:
256,160,65423,1,0,0:0:0:0:
256,192,65486,1,8,0:0:0:0:
256,160,65548,1,8,0:0:0:0:
256,192,65611,1,0,0:0:0:0:
256,160,65736,1,8,0:0:0:0:
256,192,65861,1,0,0:0:0:0:
256,160,65923,1,0,0:0:0:0:
256,192,65986,1,8,0:0:0:0:
224,160,66048,1,8,0:0:0:0:
256,192,66111,1,0,0:0:0:0:
256,192,66236,1,8,0:0:0:0:
256,160,66298,1,0,0:0:0:0:
256,192,66361,1,8,0:0:0:0:
256,192,66486,1,4,0:0:0:0:
256,160,66611,1,0,0:0:0:0:
256,192,66736,1,8,0:0:0:0:
256,192,66861,1,8,0:0:0:0:
256,160,66923,1,0,0:0:0:0:
256,160,66986,1,8,0:0:0:0:
256,192,67111,1,0,0:0:0:0:
256,192,67236,1,8,0:0:0:0:
256,128,67361,1,0,0:0:0:0:
256,192,67423,1,0,0:0:0:0:
256,192,67486,1,8,0:0:0:0:
256,160,67548,1,8,0:0:0:0:
256,192,67611,1,0,0:0:0:0:
224,128,67673,1,0,0:0:0:0:
256,160,67736,1,8,0:0:0:0:
256,192,67861,1,0,0:0:0:0:
256,192,67986,1,8,0:0:0:0:
256,160,68048,1,8,0:0:0:0:
256,192,68111,1,0,0:0:0:0:
240,96,68173,1,0,0:0:0:0:
256,192,68236,1,8,0:0:0:0:
224,192,68361,1,0,0:0:0:0:
256,192,68486,5,12,0:0:0:0:
256,192,68736,1,8,0:0:0:0:
256,192,68861,1,0,0:0:0:0:
256,192,68923,1,0,0:0:0:0:
256,192,68986,1,8,0:0:0:0:
256,192,69111,1,0,0:0:0:0:
256,192,69236,1,8,0:0:0:0:
256,160,69298,1,0,0:0:0:0:
256,192,69361,1,8,0:0:0:0:
256,160,69423,1,8,0:0:0:0:
256,192,69486,1,0,0:0:0:0:
288,160,69548,1,8,0:0:0:0:
256,192,69611,1,0,0:0:0:0:
256,192,69736,1,8,0:0:0:0:
256,160,69861,1,0,0:0:0:0:
256,160,69923,1,0,0:0:0:0:
256,192,69986,1,8,0:0:0:0:
224,160,70048,1,0,0:0:0:0:
256,160,70111,1,0,0:0:0:0:
256,192,70236,1,8,0:0:0:0:
256,160,70298,1,0,0:0:0:0:
256,192,70361,1,8,0:0:0:0:
256,192,70486,1,4,0:0:0:0:
256,160,70611,1,0,0:0:0:0:
256,192,70736,1,8,0:0:0:0:
256,192,70861,1,0,0:0:0:0:
256,160,70923,1,0,0:0:0:0:
256,192,70986,1,8,0:0:0:0:
256,192,71111,1,0,0:0:0:0:
256,192,71236,1,8,0:0:0:0:
256,160,71298,1,0,0:0:0:0:
256,192,71361,1,8,0:0:0:0:
256,160,71423,1,8,0:0:0:0:
256,192,71486,1,0,0:0:0:0:
256,160,71548,1,0,0:0:0:0:
256,192,71611,1,0,0:0:0:0:
256,192,71736,1,8,0:0:0:0:
256,128,71798,1,0,0:0:0:0:
256,192,71861,1,0,0:0:0:0:
256,160,71923,1,0,0:0:0:0:
256,192,71986,1,8,0:0:0:0:
256,192,72111,1,0,0:0:0:0:
256,160,72173,1,0,0:0:0:0:
256,192,72236,1,8,0:0:0:0:
256,192,72361,1,0,0:0:0:0:
256,192,72486,5,12,0:0:0:0:
256,160,72611,1,0,0:0:0:0:
256,192,72736,1,8,0:0:0:0:
256,192,72861,1,0,0:0:0:0:
256,160,72923,1,0,0:0:0:0:
256,192,72986,1,8,0:0:0:0:
256,192,73111,1,0,0:0:0:0:
256,192,73236,1,8,0:0:0:0:
256,160,73298,1,0,0:0:0:0:
256,160,73361,1,8,0:0:0:0:
256,160,73423,1,0,0:0:0:0:
256,192,73486,1,8,0:0:0:0:
224,160,73548,1,8,0:0:0:0:
256,192,73611,1,0,0:0:0:0:
256,160,73736,1,8,0:0:0:0:
256,192,73861,1,0,0:0:0:0:
256,160,73923,1,0,0:0:0:0:
256,192,73986,1,8,0:0:0:0:
256,192,74048,1,8,0:0:0:0:
256,192,74111,1,0,0:0:0:0:
256,192,74236,1,8,0:0:0:0:
256,160,74298,1,0,0:0:0:0:
256,192,74361,1,8,0:0:0:0:
256,192,74486,1,4,0:0:0:0:
256,192,74611,1,0,0:0:0:0:
256,192,74736,1,8,0:0:0:0:
256,192,74861,1,0,0:0:0:0:
256,160,74923,1,0,0:0:0:0:
256,160,74986,1,8,0:0:0:0:
256,192,75111,1,0,0:0:0:0:
256,192,75236,1,8,0:0:0:0:
256,160,75361,1,8,0:0:0:0:
256,160,75423,1,0,0:0:0:0:
256,192,75486,1,8,0:0:0:0:
256,160,75548,1,8,0:0:0:0:
256,192,75611,1,0,0:0:0:0:
224,128,75673,1,0,0:0:0:0:
256,160,75736,1,8,0:0:0:0:
256,192,75861,1,0,0:0:0:0:
256,192,75986,1,8,0:0:0:0:
256,160,76048,1,8,0:0:0:0:
256,192,76111,1,0,0:0:0:0:
252,167,76173,1,0,0:0:0:0:
256,192,76236,1,8,0:0:0:0:
224,192,76361,1,0,0:0:0:0:
256,192,76486,5,8,0:0:0:0:
256,192,77236,1,0,0:0:0:0:
256,192,77361,1,8,0:0:0:0:
256,192,77486,1,0,0:0:0:0:
256,192,77986,1,8,0:0:0:0:
256,192,78486,1,4,0:0:0:0:
256,192,78986,1,8,0:0:0:0:
256,192,79986,1,8,0:0:0:0:
256,192,80986,1,8,0:0:0:0:
256,192,81986,1,8,0:0:0:0:
256,192,82486,1,0,0:0:0:0:
256,192,82736,1,8,0:0:0:0:
256,192,82861,1,0,0:0:0:0:
256,192,82986,1,8,0:0:0:0:
256,192,83236,1,0,0:0:0:0:
256,192,83486,1,8,0:0:0:0:
256,192,83736,1,8,0:0:0:0:
256,192,83861,1,8,0:0:0:0:
256,192,83986,1,0,0:0:0:0:
256,192,84111,1,0,0:0:0:0:
256,192,84236,1,8,0:0:0:0:
256,192,84486,1,0,0:0:0:0:
256,192,84736,1,8,0:0:0:0:
256,192,84986,1,8,0:0:0:0:
256,192,85236,1,8,0:0:0:0:
256,192,85486,1,0,0:0:0:0:
256,192,85986,1,8,0:0:0:0:
256,192,86486,1,0,0:0:0:0:
256,192,86736,1,8,0:0:0:0:
256,192,86861,1,0,0:0:0:0:
256,192,86986,1,8,0:0:0:0:
256,192,87236,1,8,0:0:0:0:
256,192,87486,1,0,0:0:0:0:
256,192,87736,1,8,0:0:0:0:
256,192,87798,1,8,0:0:0:0:
256,192,87861,1,8,0:0:0:0:
256,192,87923,1,8,0:0:0:0:
256,192,87986,1,0,0:0:0:0:
256,192,88236,1,8,0:0:0:0:
256,192,88486,1,0,0:0:0:0:
256,192,88736,1,8,0:0:0:0:
256,192,88861,1,8,0:0:0:0:
256,192,88986,1,0,0:0:0:0:
256,192,89236,1,8,0:0:0:0:
256,192,89486,1,0,0:0:0:0:
256,192,89673,1,8,0:0:0:0:
256,192,89861,1,8,0:0:0:0:
256,160,89986,1,0,0:0:0:0:
256,192,90236,1,8,0:0:0:0:
256,192,90361,1,8,0:0:0:0:
256,192,90486,1,0,0:0:0:0:
256,192,90736,1,8,0:0:0:0:
256,192,90861,1,8,0:0:0:0:
256,192,90986,1,8,0:0:0:0:
256,160,91236,1,8,0:0:0:0:
256,160,91486,1,0,0:0:0:0:
256,160,91736,1,8,0:0:0:0:
256,160,91861,1,0,0:0:0:0:
202,59,91923,1,0,0:0:0:0:
256,160,91986,1,8,0:0:0:0:
256,160,92111,1,0,0:0:0:0:
256,160,92236,1,8,0:0:0:0:
256,160,92298,1,8,0:0:0:0:
256,160,92361,1,8,0:0:0:0:
256,160,92423,1,8,0:0:0:0:
256,160,92486,1,0,0:0:0:0:
256,160,92736,1,0,0:0:0:0:
256,160,92861,1,8,0:0:0:0:
256,160,92986,1,0,0:0:0:0:
256,160,93236,1,8,0:0:0:0:
256,160,93361,1,8,0:0:0:0:
256,160,93486,1,0,0:0:0:0:
256,160,93736,1,8,0:0:0:0:
182,109,93798,1,8,0:0:0:0:
182,109,93861,1,0,0:0:0:0:
182,109,93923,1,0,0:0:0:0:
256,160,93986,1,8,0:0:0:0:
256,160,94111,1,8,0:0:0:0:
256,160,94236,1,0,0:0:0:0:
256,160,94361,1,8,0:0:0:0:
256,192,94486,1,4,0:0:0:0:
256,192,94736,1,8,0:0:0:0:
256,192,94861,1,0,0:0:0:0:
256,192,94986,1,8,0:0:0:0:
256,192,95236,1,8,0:0:0:0:
224,192,95361,1,8,0:0:0:0:
256,192,95486,1,0,0:0:0:0:
256,192,95736,1,8,0:0:0:0:
256,192,95798,1,8,0:0:0:0:
256,192,95861,1,8,0:0:0:0:
256,192,95923,1,8,0:0:0:0:
256,192,95986,1,0,0:0:0:0:
256,192,96236,1,8,0:0:0:0:
224,192,96361,1,0,0:0:0:0:
256,192,96486,1,8,0:0:0:0:
256,192,96736,1,8,0:0:0:0:
256,192,96861,1,8,0:0:0:0:
256,192,96986,1,0,0:0:0:0:
256,192,97236,1,8,0:0:0:0:
256,192,97486,1,0,0:0:0:0:
256,192,97673,1,8,0:0:0:0:
256,192,97861,1,8,0:0:0:0:
256,160,97986,1,0,0:0:0:0:
256,192,98111,1,0,0:0:0:0:
256,192,98236,1,8,0:0:0:0:
256,192,98361,1,8,0:0:0:0:
256,192,98486,1,0,0:0:0:0:
256,192,98736,1,8,0:0:0:0:
256,192,98861,1,8,0:0:0:0:
256,192,98986,1,0,0:0:0:0:
256,160,99236,1,8,0:0:0:0:
256,160,99361,1,0,0:0:0:0:
256,160,99486,1,8,0:0:0:0:
256,160,99736,1,8,0:0:0:0:
256,128,99798,1,8,0:0:0:0:
256,160,99861,1,0,0:0:0:0:
256,128,99986,1,8,0:0:0:0:
256,160,100111,1,0,0:0:0:0:
256,160,100236,1,8,0:0:0:0:
256,160,100298,1,8,0:0:0:0:
256,160,100361,1,8,0:0:0:0:
256,160,100423,1,8,0:0:0:0:
256,160,100486,1,0,0:0:0:0:
256,160,100736,1,0,0:0:0:0:
256,160,100861,1,8,0:0:0:0:
256,160,100986,1,0,0:0:0:0:
256,160,101236,1,8,0:0:0:0:
256,160,101361,1,8,0:0:0:0:
256,160,101486,1,0,0:0:0:0:
256,160,101611,1,0,0:0:0:0:
256,160,101736,1,8,0:0:0:0:
256,160,101861,1,0,0:0:0:0:
228,84,101923,1,0,0:0:0:0:
256,160,101986,1,8,0:0:0:0:
256,160,102111,1,8,0:0:0:0:
256,160,102236,1,0,0:0:0:0:
256,160,102361,1,8,0:0:0:0:
256,192,102486,1,0,0:0:0:0:
256,192,102736,1,8,0:0:0:0:
256,192,102861,1,0,0:0:0:0:
256,192,102986,1,8,0:0:0:0:
256,192,103236,1,8,0:0:0:0:
224,192,103361,1,8,0:0:0:0:
256,192,103486,1,0,0:0:0:0:
256,192,103736,1,8,0:0:0:0:
256,192,103798,1,8,0:0:0:0:
256,192,103861,1,8,0:0:0:0:
256,192,103923,1,8,0:0:0:0:
256,192,103986,1,0,0:0:0:0:
256,192,104111,1,0,0:0:0:0:
256,192,104236,1,8,0:0:0:0:
224,192,104361,1,0,0:0:0:0:
256,192,104486,1,8,0:0:0:0:
256,192,104736,1,8,0:0:0:0:
256,192,104861,1,8,0:0:0:0:
256,192,104986,1,0,0:0:0:0:
256,192,105111,1,0,0:0:0:0:
256,192,105236,1,8,0:0:0:0:
256,192,105486,1,0,0:0:0:0:
256,192,105611,1,8,0:0:0:0:
256,192,105673,1,8,0:0:0:0:
256,192,105736,1,0,0:0:0:0:
256,192,105798,1,0,0:0:0:0:
256,192,105861,1,8,0:0:0:0:
256,160,105986,1,0,0:0:0:0:
256,192,106111,1,0,0:0:0:0:
256,192,106236,1,8,0:0:0:0:
256,192,106361,1,8,0:0:0:0:
256,192,106486,1,0,0:0:0:0:
256,192,106736,1,8,0:0:0:0:
256,192,106861,1,8,0:0:0:0:
256,192,106986,1,0,0:0:0:0:
256,160,107236,1,8,0:0:0:0:
256,160,107361,1,0,0:0:0:0:
256,160,107486,1,8,0:0:0:0:
256,160,107736,1,8,0:0:0:0:
256,160,107861,1,0,0:0:0:0:
256,160,107986,1,8,0:0:0:0:
256,160,108111,1,0,0:0:0:0:
256,160,108236,1,8,0:0:0:0:
256,160,108298,1,8,0:0:0:0:
256,160,108361,1,8,0:0:0:0:
256,160,108423,1,8,0:0:0:0:
256,160,108486,1,0,0:0:0:0:
256,192,108611,1,8,0:0:0:0:
256,160,108736,1,0,0:0:0:0:
256,160,108861,1,8,0:0:0:0:
256,160,108986,1,0,0:0:0:0:
256,160,109236,1,8,0:0:0:0:
256,160,109361,1,8,0:0:0:0:
256,160,109486,1,0,0:0:0:0:
256,160,109611,1,0,0:0:0:0:
256,160,109736,1,8,0:0:0:0:
256,192,109798,1,0,0:0:0:0:
256,160,109861,1,8,0:0:0:0:
256,160,109986,1,0,0:0:0:0:
256,160,110505,1,12,0:0:0:0:
256,192,110755,1,0,0:0:0:0:
256,192,111005,1,8,0:0:0:0:
256,192,111255,1,0,0:0:0:0:
256,192,111380,1,0,0:0:0:0:
256,192,111505,1,8,0:0:0:0:
256,192,111630,1,0,0:0:0:0:
256,192,111755,1,8,0:0:0:0:
256,192,111880,1,8,0:0:0:0:
256,192,112005,1,0,0:0:0:0:
256,192,112130,1,8,0:0:0:0:
256,192,112255,1,8,0:0:0:0:
256,192,112380,1,8,0:0:0:0:
256,192,112505,1,0,0:0:0:0:
256,192,112755,1,8,0:0:0:0:
256,192,113005,1,0,0:0:0:0:
256,192,113255,1,8,0:0:0:0:
256,192,113380,1,0,0:0:0:0:
256,192,113505,1,8,0:0:0:0:
242,181,113630,1,8,0:0:0:0:
256,192,113755,1,0,0:0:0:0:
256,192,113880,1,8,0:0:0:0:
256,192,114005,1,0,0:0:0:0:
256,192,114130,1,0,0:0:0:0:
256,192,114255,1,8,0:0:0:0:
256,192,114380,1,0,0:0:0:0:
256,192,114505,1,12,0:0:0:0:
256,192,114755,1,0,0:0:0:0:
256,192,115005,1,8,0:0:0:0:
256,192,115130,1,8,0:0:0:0:
256,192,115255,1,0,0:0:0:0:
256,192,115380,1,0,0:0:0:0:
256,192,115505,1,8,0:0:0:0:
256,192,115755,1,0,0:0:0:0:
256,192,116005,1,8,0:0:0:0:
256,192,116130,1,8,0:0:0:0:
256,192,116255,1,8,0:0:0:0:
256,192,116380,1,0,0:0:0:0:
256,192,116630,1,8,0:0:0:0:
256,192,116755,1,0,0:0:0:0:
256,192,116880,1,0,0:0:0:0:
256,192,117005,1,8,0:0:0:0:
256,192,117130,1,8,0:0:0:0:
256,192,117255,1,0,0:0:0:0:
256,192,117380,1,8,0:0:0:0:
256,192,117630,1,8,0:0:0:0:
256,192,117692,1,0,0:0:0:0:
256,192,117755,1,8,0:0:0:0:
256,192,117880,1,0,0:0:0:0:
256,192,118005,1,8,0:0:0:0:
256,192,118067,1,8,0:0:0:0:
256,192,118130,1,0,0:0:0:0:
256,192,118192,1,0,0:0:0:0:
256,192,118255,1,8,0:0:0:0:
256,192,118380,1,8,0:0:0:0:
256,160,118505,1,0,0:0:0:0:
256,160,118755,1,0,0:0:0:0:
256,192,118993,1,12,0:0:0:0:
256,192,119243,1,0,0:0:0:0:
256,192,119368,1,0,0:0:0:0:
256,192,119493,1,8,0:0:0:0:
256,192,119743,1,8,0:0:0:0:
224,192,119868,1,0,0:0:0:0:
256,192,119993,1,8,0:0:0:0:
256,192,120243,1,0,0:0:0:0:
256,192,120368,1,8,0:0:0:0:
256,192,120493,1,0,0:0:0:0:
256,192,120743,1,8,0:0:0:0:
224,192,120868,1,8,0:0:0:0:
256,192,120993,1,0,0:0:0:0:
256,192,121243,1,0,0:0:0:0:
256,192,121368,1,8,0:0:0:0:
256,192,121493,1,0,0:0:0:0:
256,192,121743,1,8,0:0:0:0:
224,160,121868,1,8,0:0:0:0:
256,192,121993,1,0,0:0:0:0:
256,192,122118,1,8,0:0:0:0:
224,160,122243,1,0,0:0:0:0:
256,192,122368,1,8,0:0:0:0:
256,160,122493,1,0,0:0:0:0:
256,160,122618,1,8,0:0:0:0:
256,192,122743,1,8,0:0:0:0:
256,192,122993,1,4,0:0:0:0:
256,192,123243,1,8,0:0:0:0:
256,192,123368,1,8,0:0:0:0:
256,192,123493,1,0,0:0:0:0:
256,160,123743,1,8,0:0:0:0:
256,160,123868,1,0,0:0:0:0:
256,160,123993,1,8,0:0:0:0:
256,160,124243,1,0,0:0:0:0:
256,160,124368,1,8,0:0:0:0:
256,160,124493,1,0,0:0:0:0:
256,160,124743,1,8,0:0:0:0:
256,160,124868,1,8,0:0:0:0:
256,160,124993,1,0,0:0:0:0:
256,160,125243,1,0,0:0:0:0:
256,160,125368,1,8,0:0:0:0:
256,160,125493,1,8,0:0:0:0:
256,160,125743,1,8,0:0:0:0:
256,160,125868,1,8,0:0:0:0:
256,160,125993,1,0,0:0:0:0:
256,160,126118,1,0,0:0:0:0:
256,160,126243,1,8,0:0:0:0:
256,160,126368,1,8,0:0:0:0:
256,160,126493,1,0,0:0:0:0:
256,160,126618,1,8,0:0:0:0:
256,128,126680,1,8,0:0:0:0:
256,160,126743,1,8,0:0:0:0:
256,160,126868,1,8,0:0:0:0:
256,192,126993,1,4,0:0:0:0:
256,192,127243,1,8,0:0:0:0:
256,192,127368,1,8,0:0:0:0:
256,192,127493,1,0,0:0:0:0:
224,160,127618,1,0,0:0:0:0:
256,192,127743,1,8,0:0:0:0:
224,192,127868,1,0,0:0:0:0:
256,192,127993,1,8,0:0:0:0:
256,192,128243,1,8,0:0:0:0:
256,192,128368,1,0,0:0:0:0:
256,192,128493,1,8,0:0:0:0:
256,192,128618,1,0,0:0:0:0:
256,192,128743,1,8,0:0:0:0:
224,192,128868,1,8,0:0:0:0:
256,192,128993,1,4,0:0:0:0:
256,192,129243,1,8,0:0:0:0:
256,192,129368,1,0,0:0:0:0:
256,192,129618,1,0,0:0:0:0:
256,192,129868,1,12,0:0:0:0:
256,192,130118,1,8,0:0:0:0:
256,192,130243,1,0,0:0:0:0:
256,192,130368,1,8,0:0:0:0:
256,192,130493,1,8,0:0:0:0:
256,192,130618,1,4,0:0:0:0:
256,192,130978,1,12,0:0:0:0:
256,160,131228,1,0,0:0:0:0:
256,160,131353,1,8,0:0:0:0:
256,160,131478,1,0,0:0:0:0:
256,192,131603,1,0,0:0:0:0:
256,192,131728,1,8,0:0:0:0:
256,192,131853,1,8,0:0:0:0:
256,192,131978,1,0,0:0:0:0:
256,192,132228,1,8,0:0:0:0:
256,192,132353,1,0,0:0:0:0:
256,192,132478,1,8,0:0:0:0:
256,192,132603,1,8,0:0:0:0:
256,192,132728,1,8,0:0:0:0:
256,192,132853,1,8,0:0:0:0:
256,192,132978,1,4,0:0:0:0:
256,192,133228,1,8,0:0:0:0:
256,192,133353,1,0,0:0:0:0:
256,192,133603,1,0,0:0:0:0:
256,192,133853,1,12,0:0:0:0:
256,192,134103,1,8,0:0:0:0:
256,192,134228,1,0,0:0:0:0:
256,192,134353,1,12,0:0:0:0:
256,192,134603,1,8,0:0:0:0:
256,192,134728,1,8,0:0:0:0:
256,192,134853,1,8,0:0:0:0:
256,192,134993,1,0,0:0:0:0:
256,192,135243,1,0,0:0:0:0:
256,192,135493,12,0,135868,0:0:0:0:
256,192,136000,5,12,0:0:0:0:
256,192,136250,1,8,0:0:0:0:
256,192,136375,1,0,0:0:0:0:
256,192,136437,1,0,0:0:0:0:
256,192,136500,1,8,0:0:0:0:
256,192,136625,1,0,0:0:0:0:
256,192,136750,1,8,0:0:0:0:
256,192,136875,1,8,0:0:0:0:
256,192,136937,1,8,0:0:0:0:
256,192,137000,1,0,0:0:0:0:
256,192,137062,1,0,0:0:0:0:
256,192,137125,1,0,0:0:0:0:
256,192,137250,1,8,0:0:0:0:
256,192,137375,1,8,0:0:0:0:
256,192,137437,1,0,0:0:0:0:
256,192,137500,1,8,0:0:0:0:
256,192,137562,1,8,0:0:0:0:
256,192,137625,1,0,0:0:0:0:
256,192,137687,1,0,0:0:0:0:
256,192,137750,1,8,0:0:0:0:
256,192,137875,1,8,0:0:0:0:
256,192,138000,1,0,0:0:0:0:
256,192,138125,1,0,0:0:0:0:
256,192,138187,1,0,0:0:0:0:
256,160,138250,1,8,0:0:0:0:
256,192,138375,1,0,0:0:0:0:
256,192,138500,1,8,0:0:0:0:
256,160,138562,1,0,0:0:0:0:
249,196,138625,1,8,0:0:0:0:
256,192,138687,1,0,0:0:0:0:
256,192,138750,1,8,0:0:0:0:
256,192,138875,1,8,0:0:0:0:
256,192,138937,1,8,0:0:0:0:
256,192,139000,1,0,0:0:0:0:
256,192,139125,1,0,0:0:0:0:
256,192,139250,1,8,0:0:0:0:
256,192,139312,1,0,0:0:0:0:
256,192,139375,1,0,0:0:0:0:
256,192,139437,1,0,0:0:0:0:
256,192,139500,1,8,0:0:0:0:
256,192,139625,1,0,0:0:0:0:
256,192,139750,1,8,0:0:0:0:
256,192,139875,1,8,0:0:0:0:
256,192,139937,1,0,0:0:0:0:
256,192,140000,1,8,0:0:0:0:
256,192,140125,1,0,0:0:0:0:
256,192,140250,1,8,0:0:0:0:
256,192,140375,1,0,0:0:0:0:
256,160,140437,1,0,0:0:0:0:
256,192,140500,1,8,0:0:0:0:
256,192,140562,1,8,0:0:0:0:
256,192,140625,1,0,0:0:0:0:
256,192,140750,1,8,0:0:0:0:
256,192,140875,1,8,0:0:0:0:
256,192,140937,1,8,0:0:0:0:
256,192,141000,1,0,0:0:0:0:
160,128,141062,1,8,0:0:0:0:
256,192,141125,1,0,0:0:0:0:
241,163,141187,1,0,0:0:0:0:
256,192,141250,1,8,0:0:0:0:
256,192,141375,1,8,0:0:0:0:
256,192,141437,1,0,0:0:0:0:
256,192,141500,1,8,0:0:0:0:
256,192,141625,1,0,0:0:0:0:
256,192,141687,1,0,0:0:0:0:
256,192,141750,1,8,0:0:0:0:
256,192,141875,1,8,0:0:0:0:
256,160,142000,1,0,0:0:0:0:
224,192,142062,1,0,0:0:0:0:
224,192,142125,1,0,0:0:0:0:
224,192,142250,1,8,0:0:0:0:
224,192,142375,1,8,0:0:0:0:
224,192,142437,1,0,0:0:0:0:
224,192,142500,1,8,0:0:0:0:
224,192,142562,1,8,0:0:0:0:
224,192,142625,1,0,0:0:0:0:
224,192,142750,1,8,0:0:0:0:
224,192,142875,1,0,0:0:0:0:
256,128,142937,1,0,0:0:0:0:
224,192,143000,1,8,0:0:0:0:
256,192,143062,1,8,0:0:0:0:
224,160,143125,1,0,0:0:0:0:
256,128,143187,1,0,0:0:0:0:
256,192,143250,1,8,0:0:0:0:
224,192,143375,1,0,0:0:0:0:
224,192,143500,1,8,0:0:0:0:
224,192,143625,1,0,0:0:0:0:
224,192,143750,1,8,0:0:0:0:
224,192,143812,1,0,0:0:0:0:
224,192,143875,1,8,0:0:0:0:
256,192,144000,5,4,0:0:0:0:
256,192,144250,1,8,0:0:0:0:
256,160,144312,1,8,0:0:0:0:
256,192,144375,1,0,0:0:0:0:
256,192,144500,1,8,0:0:0:0:
256,192,144625,1,0,0:0:0:0:
224,160,144687,1,0,0:0:0:0:
256,192,144750,1,8,0:0:0:0:
256,192,144875,1,8,0:0:0:0:
256,192,144937,1,8,0:0:0:0:
256,192,145000,1,0,0:0:0:0:
256,128,145062,1,0,0:0:0:0:
256,192,145125,1,0,0:0:0:0:
256,192,145250,1,8,0:0:0:0:
256,192,145375,1,8,0:0:0:0:
256,160,145437,1,0,0:0:0:0:
256,192,145500,1,8,0:0:0:0:
256,192,145625,1,0,0:0:0:0:
256,192,145750,1,8,0:0:0:0:
256,192,145875,1,0,0:0:0:0:
256,192,145937,1,8,0:0:0:0:
256,192,146000,1,0,0:0:0:0:
256,192,146125,1,0,0:0:0:0:
256,128,146187,1,0,0:0:0:0:
256,160,146250,1,8,0:0:0:0:
224,160,146312,1,0,0:0:0:0:
256,128,146375,1,0,0:0:0:0:
256,192,146500,1,8,0:0:0:0:
249,196,146625,1,0,0:0:0:0:
256,192,146687,1,0,0:0:0:0:
256,192,146750,1,8,0:0:0:0:
256,160,146812,1,0,0:0:0:0:
256,192,146875,1,8,0:0:0:0:
256,192,146937,1,8,0:0:0:0:
256,192,147000,1,0,0:0:0:0:
256,192,147125,1,0,0:0:0:0:
256,192,147250,1,8,0:0:0:0:
256,192,147312,1,8,0:0:0:0:
256,192,147375,1,0,0:0:0:0:
256,192,147437,1,0,0:0:0:0:
256,192,147500,1,8,0:0:0:0:
256,192,147625,1,0,0:0:0:0:
256,192,147750,1,8,0:0:0:0:
256,192,147812,1,0,0:0:0:0:
256,192,147875,1,8,0:0:0:0:
256,192,148000,1,0,0:0:0:0:
256,192,148125,1,0,0:0:0:0:
256,192,148187,1,0,0:0:0:0:
256,192,148250,1,8,0:0:0:0:
256,192,148375,1,0,0:0:0:0:
256,192,148500,1,8,0:0:0:0:
256,192,148562,1,0,0:0:0:0:
256,192,148625,1,8,0:0:0:0:
256,192,148750,1,8,0:0:0:0:
256,192,148875,1,0,0:0:0:0:
256,192,148937,1,8,0:0:0:0:
256,192,149000,1,0,0:0:0:0:
256,192,149125,1,0,0:0:0:0:
256,192,149250,1,8,0:0:0:0:
256,192,149375,1,8,0:0:0:0:
256,192,149437,1,0,0:0:0:0:
256,192,149500,1,8,0:0:0:0:
256,160,149562,1,8,0:0:0:0:
256,192,149625,1,0,0:0:0:0:
256,192,149687,1,0,0:0:0:0:
256,192,149750,1,8,0:0:0:0:
256,192,149875,1,8,0:0:0:0:
256,160,150000,1,0,0:0:0:0:
224,192,150062,1,0,0:0:0:0:
224,192,150125,1,0,0:0:0:0:
224,192,150250,1,8,0:0:0:0:
224,192,150375,1,0,0:0:0:0:
224,192,150437,1,0,0:0:0:0:
224,192,150500,1,8,0:0:0:0:
224,192,150562,1,0,0:0:0:0:
224,192,150625,1,0,0:0:0:0:
224,192,150750,1,8,0:0:0:0:
224,192,150875,1,0,0:0:0:0:
224,192,151000,1,8,0:0:0:0:
256,192,151062,1,8,0:0:0:0:
224,160,151125,1,0,0:0:0:0:
256,128,151187,1,0,0:0:0:0:
256,192,151250,1,8,0:0:0:0:
224,192,151312,1,0,0:0:0:0:
224,192,151375,1,8,0:0:0:0:
224,192,151500,1,8,0:0:0:0:
256,160,151562,1,0,0:0:0:0:
224,192,151625,1,8,0:0:0:0:
224,192,151750,1,0,0:0:0:0:
224,192,151875,1,8,0:0:0:0:
224,192,151993,1,0,0:0:0:0:
256,192,152243,1,0,0:0:0:0:
256,192,152305,1,0,0:0:0:0:
256,192,152368,1,0,0:0:0:0:
256,192,152430,1,0,0:0:0:0:
256,192,152493,1,8,0:0:0:0:
256,192,152743,1,8,0:0:0:0:
256,192,152993,1,0,0:0:0:0:
256,192,153243,1,8,0:0:0:0:
256,192,153493,1,4,0:0:0:0:
256,192,153993,1,12,0:0:0:0:
245,181,154243,1,8,0:0:0:0:
245,181,154368,1,0,0:0:0:0:
245,181,154430,1,0,0:0:0:0:
245,181,154493,1,8,0:0:0:0:
245,181,154618,1,0,0:0:0:0:
245,180,154743,1,8,0:0:0:0:
245,180,154868,1,8,0:0:0:0:
245,180,154930,1,8,0:0:0:0:
244,180,154993,1,8,0:0:0:0:
245,181,155118,1,0,0:0:0:0:
245,181,155243,1,8,0:0:0:0:
251,182,155368,1,0,0:0:0:0:
251,182,155430,1,0,0:0:0:0:
251,182,155493,1,8,0:0:0:0:
251,182,155618,1,8,0:0:0:0:
251,182,155680,1,0,0:0:0:0:
251,182,155743,1,8,0:0:0:0:
251,182,155868,1,0,0:0:0:0:
251,182,155993,1,8,0:0:0:0:
256,185,156055,1,0,0:0:0:0:
255,184,156118,1,0,0:0:0:0:
255,184,156180,1,0,0:0:0:0:
255,184,156243,1,8,0:0:0:0:
251,182,156368,1,0,0:0:0:0:
251,182,156493,1,8,0:0:0:0:
251,182,156618,1,8,0:0:0:0:
251,182,156680,1,0,0:0:0:0:
251,182,156743,1,8,0:0:0:0:
251,182,156868,1,0,0:0:0:0:
255,184,157118,1,0,0:0:0:0:
271,181,157243,1,8,0:0:0:0:
288,185,157305,1,0,0:0:0:0:
288,185,157368,1,0,0:0:0:0:
241,181,157430,1,0,0:0:0:0:
288,185,157493,1,8,0:0:0:0:
285,186,157618,1,0,0:0:0:0:
285,186,157743,1,8,0:0:0:0:
285,186,157868,1,8,0:0:0:0:
285,186,157993,1,0,0:0:0:0:
263,189,158118,1,0,0:0:0:0:
255,184,158180,1,0,0:0:0:0:
260,188,158243,1,8,0:0:0:0:
260,188,158368,1,0,0:0:0:0:
260,188,158493,1,8,0:0:0:0:
260,188,158555,1,0,0:0:0:0:
260,188,158618,1,8,0:0:0:0:
260,188,158680,1,0,0:0:0:0:
260,188,158743,1,8,0:0:0:0:
260,188,158868,1,0,0:0:0:0:
261,189,158930,1,8,0:0:0:0:
261,188,158993,1,0,0:0:0:0:
263,189,159118,1,0,0:0:0:0:
261,189,159243,1,8,0:0:0:0:
260,188,159368,1,0,0:0:0:0:
260,188,159430,1,0,0:0:0:0:
260,188,159493,1,8,0:0:0:0:
260,188,159618,1,0,0:0:0:0:
260,188,159743,1,8,0:0:0:0:
260,188,159805,1,0,0:0:0:0:
254,204,159868,1,8,0:0:0:0:
254,204,159993,1,0,0:0:0:0:
254,204,160243,1,8,0:0:0:0:
254,204,160368,1,0,0:0:0:0:
254,204,160430,1,0,0:0:0:0:
254,204,160493,1,8,0:0:0:0:
254,204,160618,1,0,0:0:0:0:
254,204,160743,1,8,0:0:0:0:
254,204,160868,1,8,0:0:0:0:
254,204,160930,1,0,0:0:0:0:
254,204,160993,1,8,0:0:0:0:
254,204,161055,1,8,0:0:0:0:
254,204,161118,1,0,0:0:0:0:
269,207,161243,1,8,0:0:0:0:
269,207,161368,1,0,0:0:0:0:
269,207,161430,1,8,0:0:0:0:
269,207,161493,1,0,0:0:0:0:
269,207,161618,1,0,0:0:0:0:
269,207,161743,1,8,0:0:0:0:
269,207,161868,1,0,0:0:0:0:
256,192,161993,1,12,0:0:0:0:
245,181,162243,1,8,0:0:0:0:
245,181,162368,1,0,0:0:0:0:
245,181,162430,1,0,0:0:0:0:
245,181,162493,1,8,0:0:0:0:
245,181,162618,1,0,0:0:0:0:
245,180,162743,1,8,0:0:0:0:
245,180,162868,1,8,0:0:0:0:
245,180,162930,1,8,0:0:0:0:
244,180,162993,1,0,0:0:0:0:
239,155,163055,1,0,0:0:0:0:
245,181,163118,1,0,0:0:0:0:
245,181,163243,1,8,0:0:0:0:
251,182,163368,1,0,0:0:0:0:
251,182,163493,1,8,0:0:0:0:
232,141,163555,1,8,0:0:0:0:
251,182,163618,1,0,0:0:0:0:
251,182,163743,1,8,0:0:0:0:
251,182,163805,1,0,0:0:0:0:
251,182,163868,1,8,0:0:0:0:
251,182,163993,1,0,0:0:0:0:
255,184,164118,1,0,0:0:0:0:
255,184,164180,1,0,0:0:0:0:
255,184,164243,1,8,0:0:0:0:
251,182,164368,1,0,0:0:0:0:
251,182,164493,1,8,0:0:0:0:
251,182,164618,1,0,0:0:0:0:
251,182,164680,1,0,0:0:0:0:
251,182,164743,1,0,0:0:0:0:
251,182,164868,1,8,0:0:0:0:
255,184,165118,1,0,0:0:0:0:
271,181,165243,1,8,0:0:0:0:
288,185,165305,1,8,0:0:0:0:
288,185,165368,1,0,0:0:0:0:
255,171,165430,1,0,0:0:0:0:
288,185,165493,1,8,0:0:0:0:
285,186,165618,1,0,0:0:0:0:
285,186,165743,1,8,0:0:0:0:
285,186,165868,1,8,0:0:0:0:
285,186,165993,1,0,0:0:0:0:
255,184,166055,1,8,0:0:0:0:
243,104,166118,1,0,0:0:0:0:
203,63,166180,1,0,0:0:0:0:
260,188,166243,1,8,0:0:0:0:
260,188,166368,1,0,0:0:0:0:
260,188,166493,1,8,0:0:0:0:
260,188,166618,1,8,0:0:0:0:
260,188,166680,1,0,0:0:0:0:
260,188,166743,1,8,0:0:0:0:
260,188,166868,1,0,0:0:0:0:
261,189,166930,1,8,0:0:0:0:
261,188,166993,1,0,0:0:0:0:
263,189,167118,1,0,0:0:0:0:
261,189,167243,1,8,0:0:0:0:
260,188,167368,1,0,0:0:0:0:
260,188,167430,1,0,0:0:0:0:
260,188,167493,1,8,0:0:0:0:
260,188,167618,1,0,0:0:0:0:
260,188,167743,1,8,0:0:0:0:
260,188,167805,1,0,0:0:0:0:
254,204,167868,1,8,0:0:0:0:
254,204,167993,1,0,0:0:0:0:
254,204,168243,1,8,0:0:0:0:
254,204,168368,1,0,0:0:0:0:
254,204,168430,1,0,0:0:0:0:
254,204,168493,1,8,0:0:0:0:
254,204,168618,1,0,0:0:0:0:
254,204,168743,1,8,0:0:0:0:
254,204,168868,1,0,0:0:0:0:
258,160,168930,1,0,0:0:0:0:
254,204,168993,1,8,0:0:0:0:
254,204,169055,1,0,0:0:0:0:
254,204,169118,1,0,0:0:0:0:
269,207,169243,1,8,0:0:0:0:
269,207,169368,1,0,0:0:0:0:
269,207,169493,1,8,0:0:0:0:
242,157,169555,1,8,0:0:0:0:
269,207,169618,1,0,0:0:0:0:
259,142,169680,1,0,0:0:0:0:
269,207,169743,1,8,0:0:0:0:
255,192,169805,1,8,0:0:0:0:
269,207,169868,1,8,0:0:0:0:
272,181,169930,1,8,0:0:0:0:
269,207,169993,1,4,0:0:0:0:
254,184,170243,1,8,0:0:0:0:
252,184,170743,1,8,0:0:0:0:
254,184,171243,1,8,0:0:0:0:
252,184,171743,1,8,0:0:0:0:
254,184,172243,1,8,0:0:0:0:
252,184,172743,1,8,0:0:0:0:
254,184,173243,1,8,0:0:0:0:
252,184,173743,1,8,0:0:0:0:
254,184,174243,1,8,0:0:0:0:
252,184,174743,1,8,0:0:0:0:
254,184,175243,1,8,0:0:0:0:
252,184,175743,1,8,0:0:0:0:
246,182,176243,1,8,0:0:0:0:
252,184,176743,1,8,0:0:0:0:
246,182,177243,1,8,0:0:0:0:
252,184,177493,1,0,0:0:0:0:
255,189,177993,1,12,0:0:0:0:
251,176,178243,1,8,0:0:0:0:
251,176,178368,1,0,0:0:0:0:
251,176,178493,1,8,0:0:0:0:
251,176,178555,1,8,0:0:0:0:
251,176,178618,1,0,0:0:0:0:
251,176,178743,1,8,0:0:0:0:
251,176,178868,1,0,0:0:0:0:
251,177,178930,1,8,0:0:0:0:
251,176,178993,1,0,0:0:0:0:
251,176,179055,1,0,0:0:0:0:
251,176,179118,1,8,0:0:0:0:
251,176,179243,1,8,0:0:0:0:
251,176,179368,1,0,0:0:0:0:
251,176,179430,1,0,0:0:0:0:
251,176,179493,1,8,0:0:0:0:
250,147,179555,1,8,0:0:0:0:
251,176,179618,1,0,0:0:0:0:
251,176,179743,1,8,0:0:0:0:
243,142,179805,1,0,0:0:0:0:
251,176,179868,1,8,0:0:0:0:
251,176,179993,1,0,0:0:0:0:
256,171,180118,1,0,0:0:0:0:
250,147,180180,1,0,0:0:0:0:
256,171,180243,1,8,0:0:0:0:
251,176,180368,1,0,0:0:0:0:
251,176,180430,1,8,0:0:0:0:
251,176,180493,1,0,0:0:0:0:
238,146,180618,1,0,0:0:0:0:
238,146,180743,1,8,0:0:0:0:
243,142,180805,1,0,0:0:0:0:
238,146,180868,1,8,0:0:0:0:
238,146,180930,1,8,0:0:0:0:
255,162,180993,1,0,0:0:0:0:
242,155,181055,1,0,0:0:0:0:
255,162,181118,1,8,0:0:0:0:
255,162,181243,1,8,0:0:0:0:
255,162,181368,1,0,0:0:0:0:
245,157,181430,1,0,0:0:0:0:
255,162,181493,1,8,0:0:0:0:
238,146,181555,1,0,0:0:0:0:
245,157,181618,1,0,0:0:0:0:
245,157,181743,1,12,0:0:0:0:
221,136,181868,1,0,0:0:0:0:
245,157,181993,1,12,0:0:0:0:
251,176,182243,1,8,0:0:0:0:
251,176,182368,1,8,0:0:0:0:
251,176,182493,1,0,0:0:0:0:
251,176,182555,1,0,0:0:0:0:
251,176,182618,1,0,0:0:0:0:
251,176,182743,1,8,0:0:0:0:
251,176,182868,1,8,0:0:0:0:
251,177,182930,1,8,0:0:0:0:
251,176,182993,1,0,0:0:0:0:
251,176,183055,1,0,0:0:0:0:
251,176,183118,1,8,0:0:0:0:
251,176,183243,1,8,0:0:0:0:
251,176,183368,1,0,0:0:0:0:
251,176,183430,1,8,0:0:0:0:
251,176,183493,1,0,0:0:0:0:
251,176,183618,1,8,0:0:0:0:
251,176,183743,1,0,0:0:0:0:
243,142,183805,1,0,0:0:0:0:
251,176,183868,1,8,0:0:0:0:
251,176,183993,1,4,0:0:0:0:
256,171,184243,1,8,0:0:0:0:
249,141,184305,1,8,0:0:0:0:
251,176,184368,1,0,0:0:0:0:
251,176,184430,1,0,0:0:0:0:
251,176,184493,1,8,0:0:0:0:
238,146,184618,1,0,0:0:0:0:
238,146,184743,1,8,0:0:0:0:
238,146,184868,1,0,0:0:0:0:
238,146,184930,1,0,0:0:0:0:
255,162,184993,1,8,0:0:0:0:
255,162,185118,1,0,0:0:0:0:
255,162,185243,1,8,0:0:0:0:
256,168,185305,1,0,0:0:0:0:
255,162,185368,1,0,0:0:0:0:
245,157,185430,1,0,0:0:0:0:
255,162,185493,1,8,0:0:0:0:
251,97,185555,1,8,0:0:0:0:
244,150,185618,1,0,0:0:0:0:
245,157,185743,1,8,0:0:0:0:
257,160,185805,1,0,0:0:0:0:
257,160,185868,1,8,0:0:0:0:
245,157,185993,1,4,0:0:0:0:
256,192,186993,1,0,0:0:0:0:
256,192,187993,1,8,0:0:0:0:
256,192,188993,1,8,0:0:0:0:
256,192,189993,1,0,0:0:0:0:
256,192,190993,1,0,0:0:0:0:
256,192,191993,1,8,0:0:0:0:
256,192,192993,1,0,0:0:0:0:
256,192,193993,1,8,0:0:0:0:
256,192,194243,1,0,0:0:0:0:
288,192,194305,1,0,0:0:0:0:
256,192,194368,1,0,0:0:0:0:
256,192,194430,1,0,0:0:0:0:
288,192,194493,1,8,0:0:0:0:
288,192,194743,1,0,0:0:0:0:
288,192,194993,1,8,0:0:0:0:
288,192,195993,1,8,0:0:0:0:
288,192,196243,1,8,0:0:0:0:
288,192,196305,1,8,0:0:0:0:
288,192,196368,1,8,0:0:0:0:
288,192,196430,1,8,0:0:0:0:
288,192,196493,1,0,0:0:0:0:
288,192,196743,1,0,0:0:0:0:
288,192,196993,1,8,0:0:0:0:
288,192,197743,1,8,0:0:0:0:
288,192,197868,1,0,0:0:0:0:
288,192,197993,1,8,0:0:0:0:
288,192,198243,1,0,0:0:0:0:
288,192,198305,1,0,0:0:0:0:
288,192,198368,1,0,0:0:0:0:
288,192,198430,1,0,0:0:0:0:
288,192,198493,1,8,0:0:0:0:
288,192,198743,1,0,0:0:0:0:
288,192,198993,1,8,0:0:0:0:
288,192,199993,1,8,0:0:0:0:
288,192,200243,1,8,0:0:0:0:
288,192,200305,1,8,0:0:0:0:
288,192,200368,1,8,0:0:0:0:
288,192,200430,1,8,0:0:0:0:
288,192,200493,1,0,0:0:0:0:
288,192,200743,1,0,0:0:0:0:
288,192,200993,1,8,0:0:0:0:
256,192,201493,1,8,0:0:0:0:
256,192,201618,1,8,0:0:0:0:
288,192,201743,1,8,0:0:0:0:
288,192,201868,1,8,0:0:0:0:
288,192,201993,1,4,0:0:0:0:
288,192,202243,1,8,0:0:0:0:
288,192,202368,1,0,0:0:0:0:
288,192,202493,1,8,0:0:0:0:
288,192,202743,1,8,0:0:0:0:
288,192,202993,1,0,0:0:0:0:
288,192,203243,1,0,0:0:0:0:
288,192,203368,1,0,0:0:0:0:
288,192,203430,1,0,0:0:0:0:
288,192,203493,1,8,0:0:0:0:
288,192,203618,1,0,0:0:0:0:
288,192,203743,1,8,0:0:0:0:
288,192,203868,1,8,0:0:0:0:
288,192,203993,1,0,0:0:0:0:
288,192,204243,1,8,0:0:0:0:
288,224,204368,1,0,0:0:0:0:
288,224,204493,1,8,0:0:0:0:
288,224,204743,1,8,0:0:0:0:
288,224,204993,1,0,0:0:0:0:
288,224,205055,1,0,0:0:0:0:
288,224,205118,1,0,0:0:0:0:
288,192,205180,1,0,0:0:0:0:
288,224,205243,1,0,0:0:0:0:
288,224,205368,1,0,0:0:0:0:
288,224,205493,1,8,0:0:0:0:
288,224,205618,1,0,0:0:0:0:
288,224,205743,1,8,0:0:0:0:
288,224,205868,1,8,0:0:0:0:
288,224,205993,1,0,0:0:0:0:
288,224,206243,1,8,0:0:0:0:
288,224,206368,1,0,0:0:0:0:
288,224,206493,1,8,0:0:0:0:
288,224,206743,1,8,0:0:0:0:
288,224,206993,1,0,0:0:0:0:
288,224,207243,1,0,0:0:0:0:
288,224,207305,1,0,0:0:0:0:
320,224,207368,1,0,0:0:0:0:
288,224,207430,1,0,0:0:0:0:
288,224,207493,1,8,0:0:0:0:
288,224,207618,1,0,0:0:0:0:
288,224,207743,1,8,0:0:0:0:
288,224,207805,1,8,0:0:0:0:
288,224,207868,1,8,0:0:0:0:
256,128,207930,1,8,0:0:0:0:
288,224,207993,1,0,0:0:0:0:
352,224,208243,1,8,0:0:0:0:
352,224,208368,1,0,0:0:0:0:
352,224,208493,1,8,0:0:0:0:
352,224,208743,1,8,0:0:0:0:
352,224,208868,1,8,0:0:0:0:
352,224,208993,1,0,0:0:0:0:
352,224,209243,1,8,0:0:0:0:
352,224,209305,1,8,0:0:0:0:
352,224,209368,1,8,0:0:0:0:
352,224,209430,1,8,0:0:0:0:
352,224,209493,1,0,0:0:0:0:
352,224,209618,1,0,0:0:0:0:
352,224,209743,1,8,0:0:0:0:
352,224,209868,1,8,0:0:0:0:
288,192,209993,1,0,0:0:0:0:
288,192,210243,1,8,0:0:0:0:
288,192,210368,1,0,0:0:0:0:
288,192,210493,1,8,0:0:0:0:
288,192,210743,1,8,0:0:0:0:
288,192,210993,1,0,0:0:0:0:
288,192,211243,1,0,0:0:0:0:
288,192,211368,1,0,0:0:0:0:
288,192,211430,1,0,0:0:0:0:
288,192,211493,1,8,0:0:0:0:
288,192,211618,1,0,0:0:0:0:
288,192,211743,1,8,0:0:0:0:
288,192,211868,1,8,0:0:0:0:
288,192,211993,1,0,0:0:0:0:
288,192,212243,1,8,0:0:0:0:
288,224,212368,1,0,0:0:0:0:
288,224,212493,1,8,0:0:0:0:
288,224,212743,1,8,0:0:0:0:
288,224,212993,1,0,0:0:0:0:
288,224,213055,1,0,0:0:0:0:
288,224,213118,1,0,0:0:0:0:
288,192,213180,1,0,0:0:0:0:
288,224,213243,1,0,0:0:0:0:
288,224,213368,1,0,0:0:0:0:
288,224,213493,1,8,0:0:0:0:
288,224,213618,1,0,0:0:0:0:
288,224,213743,1,8,0:0:0:0:
288,224,213868,1,8,0:0:0:0:
288,224,213993,1,0,0:0:0:0:
288,224,214243,1,8,0:0:0:0:
288,224,214368,1,0,0:0:0:0:
288,224,214493,1,8,0:0:0:0:
288,224,214743,1,8,0:0:0:0:
288,224,214993,1,0,0:0:0:0:
288,224,215243,1,0,0:0:0:0:
288,224,215305,1,0,0:0:0:0:
320,224,215368,1,0,0:0:0:0:
288,224,215430,1,0,0:0:0:0:
288,224,215493,1,8,0:0:0:0:
288,224,215618,1,0,0:0:0:0:
288,224,215743,1,8,0:0:0:0:
288,224,215805,1,8,0:0:0:0:
288,224,215868,1,8,0:0:0:0:
256,128,215930,1,8,0:0:0:0:
288,224,215993,1,0,0:0:0:0:
288,192,216993,1,8,0:0:0:0:
288,192,217243,1,0,0:0:0:0:
288,192,217493,1,8,0:0:0:0:
256,192,218000,5,12,0:0:0:0:
256,192,218250,1,8,0:0:0:0:
256,192,218375,1,0,0:0:0:0:
256,192,218437,1,0,0:0:0:0:
256,192,218500,1,8,0:0:0:0:
256,192,218625,1,0,0:0:0:0:
256,192,218750,1,8,0:0:0:0:
256,192,218875,1,8,0:0:0:0:
256,192,218937,1,8,0:0:0:0:
256,192,219000,1,0,0:0:0:0:
256,192,219062,1,0,0:0:0:0:
256,192,219125,1,0,0:0:0:0:
256,192,219250,1,8,0:0:0:0:
256,192,219375,1,8,0:0:0:0:
256,192,219437,1,0,0:0:0:0:
256,192,219500,1,8,0:0:0:0:
256,192,219562,1,8,0:0:0:0:
256,192,219625,1,0,0:0:0:0:
256,192,219687,1,0,0:0:0:0:
256,192,219750,1,8,0:0:0:0:
256,192,219875,1,8,0:0:0:0:
256,192,220000,1,0,0:0:0:0:
256,192,220125,1,0,0:0:0:0:
256,192,220187,1,0,0:0:0:0:
256,160,220250,1,8,0:0:0:0:
256,192,220375,1,0,0:0:0:0:
256,192,220500,1,8,0:0:0:0:
256,160,220562,1,0,0:0:0:0:
249,196,220625,1,8,0:0:0:0:
256,192,220687,1,0,0:0:0:0:
256,192,220750,1,8,0:0:0:0:
256,192,220875,1,8,0:0:0:0:
256,192,220937,1,8,0:0:0:0:
256,192,221000,1,0,0:0:0:0:
256,192,221125,1,0,0:0:0:0:
256,192,221250,1,8,0:0:0:0:
256,192,221312,1,0,0:0:0:0:
256,192,221375,1,0,0:0:0:0:
256,192,221437,1,0,0:0:0:0:
256,192,221500,1,8,0:0:0:0:
256,192,221625,1,0,0:0:0:0:
256,192,221750,1,8,0:0:0:0:
256,192,221875,1,8,0:0:0:0:
256,192,221937,1,0,0:0:0:0:
256,192,222000,1,8,0:0:0:0:
256,192,222125,1,0,0:0:0:0:
256,192,222250,1,8,0:0:0:0:
256,192,222375,1,0,0:0:0:0:
256,160,222437,1,0,0:0:0:0:
256,192,222500,1,8,0:0:0:0:
256,192,222562,1,0,0:0:0:0:
256,192,222625,1,8,0:0:0:0:
256,192,222750,1,0,0:0:0:0:
256,192,222875,1,8,0:0:0:0:
256,192,222937,1,8,0:0:0:0:
256,192,223000,1,0,0:0:0:0:
160,128,223062,1,8,0:0:0:0:
256,192,223125,1,0,0:0:0:0:
241,163,223187,1,0,0:0:0:0:
256,192,223250,1,8,0:0:0:0:
256,192,223375,1,8,0:0:0:0:
256,192,223437,1,0,0:0:0:0:
256,192,223500,1,8,0:0:0:0:
256,192,223625,1,0,0:0:0:0:
256,192,223687,1,0,0:0:0:0:
256,192,223750,1,8,0:0:0:0:
256,192,223875,1,8,0:0:0:0:
256,160,224000,1,0,0:0:0:0:
224,192,224062,1,0,0:0:0:0:
224,192,224125,1,0,0:0:0:0:
224,192,224250,1,8,0:0:0:0:
224,192,224375,1,8,0:0:0:0:
224,192,224437,1,0,0:0:0:0:
224,192,224500,1,8,0:0:0:0:
224,192,224562,1,8,0:0:0:0:
224,192,224625,1,0,0:0:0:0:
224,192,224750,1,8,0:0:0:0:
224,192,224875,1,0,0:0:0:0:
256,128,224937,1,0,0:0:0:0:
224,192,225000,1,8,0:0:0:0:
256,192,225062,1,8,0:0:0:0:
224,160,225125,1,0,0:0:0:0:
256,128,225187,1,0,0:0:0:0:
256,192,225250,1,8,0:0:0:0:
224,192,225375,1,0,0:0:0:0:
224,192,225500,1,8,0:0:0:0:
224,192,225625,1,0,0:0:0:0:
224,192,225750,1,8,0:0:0:0:
224,192,225812,1,0,0:0:0:0:
224,192,225875,1,8,0:0:0:0:
256,192,226000,5,4,0:0:0:0:
256,192,226250,1,8,0:0:0:0:
256,160,226312,1,8,0:0:0:0:
256,192,226375,1,0,0:0:0:0:
256,192,226500,1,8,0:0:0:0:
256,192,226625,1,0,0:0:0:0:
224,160,226687,1,0,0:0:0:0:
256,192,226750,1,8,0:0:0:0:
256,192,226875,1,8,0:0:0:0:
256,192,226937,1,8,0:0:0:0:
256,192,227000,1,0,0:0:0:0:
256,128,227062,1,0,0:0:0:0:
256,192,227125,1,0,0:0:0:0:
256,192,227250,1,8,0:0:0:0:
256,192,227375,1,8,0:0:0:0:
256,160,227437,1,0,0:0:0:0:
256,192,227500,1,8,0:0:0:0:
256,192,227625,1,0,0:0:0:0:
256,192,227750,1,8,0:0:0:0:
256,192,227875,1,0,0:0:0:0:
256,192,227937,1,8,0:0:0:0:
256,192,228000,1,0,0:0:0:0:
256,192,228125,1,0,0:0:0:0:
256,128,228187,1,0,0:0:0:0:
256,160,228250,1,8,0:0:0:0:
192,128,228312,1,0,0:0:0:0:
256,192,228375,1,0,0:0:0:0:
256,192,228500,1,8,0:0:0:0:
249,196,228625,1,0,0:0:0:0:
256,192,228687,1,0,0:0:0:0:
256,192,228750,1,8,0:0:0:0:
256,160,228812,1,0,0:0:0:0:
256,192,228875,1,8,0:0:0:0:
256,192,228937,1,8,0:0:0:0:
256,192,229000,1,0,0:0:0:0:
256,192,229125,1,0,0:0:0:0:
256,192,229250,1,8,0:0:0:0:
256,192,229312,1,8,0:0:0:0:
256,192,229375,1,0,0:0:0:0:
256,192,229437,1,0,0:0:0:0:
256,192,229500,1,8,0:0:0:0:
256,192,229625,1,0,0:0:0:0:
256,192,229750,1,8,0:0:0:0:
256,192,229812,1,0,0:0:0:0:
256,192,229875,1,8,0:0:0:0:
256,192,230000,1,0,0:0:0:0:
256,192,230125,1,0,0:0:0:0:
256,192,230187,1,0,0:0:0:0:
256,192,230250,1,8,0:0:0:0:
256,192,230375,1,0,0:0:0:0:
256,192,230500,1,8,0:0:0:0:
256,192,230562,1,0,0:0:0:0:
256,192,230625,1,8,0:0:0:0:
256,192,230750,1,8,0:0:0:0:
256,192,230875,1,0,0:0:0:0:
256,192,230937,1,8,0:0:0:0:
256,192,231000,1,0,0:0:0:0:
256,192,231125,1,0,0:0:0:0:
256,192,231250,1,8,0:0:0:0:
256,192,231375,1,8,0:0:0:0:
256,192,231437,1,0,0:0:0:0:
256,192,231500,1,8,0:0:0:0:
256,160,231562,1,8,0:0:0:0:
256,192,231625,1,0,0:0:0:0:
256,192,231687,1,0,0:0:0:0:
256,192,231750,1,8,0:0:0:0:
256,192,231875,1,8,0:0:0:0:
256,160,232000,1,0,0:0:0:0:
224,192,232062,1,0,0:0:0:0:
224,192,232125,1,0,0:0:0:0:
224,192,232250,1,8,0:0:0:0:
224,192,232375,1,0,0:0:0:0:
224,192,232437,1,0,0:0:0:0:
224,192,232500,1,8,0:0:0:0:
224,192,232562,1,0,0:0:0:0:
224,192,232625,1,0,0:0:0:0:
224,192,232750,1,8,0:0:0:0:
224,192,232875,1,0,0:0:0:0:
224,192,233000,1,8,0:0:0:0:
256,192,233062,1,8,0:0:0:0:
224,160,233125,1,0,0:0:0:0:
256,128,233187,1,0,0:0:0:0:
256,192,233250,1,8,0:0:0:0:
224,192,233312,1,0,0:0:0:0:
224,192,233375,1,8,0:0:0:0:
224,192,233500,1,8,0:0:0:0:
256,160,233562,1,8,0:0:0:0:
224,192,233625,1,8,0:0:0:0:
224,64,233687,1,8,0:0:0:0:
224,192,233750,1,0,0:0:0:0:
256,160,233812,1,0,0:0:0:0:
224,192,233875,1,0,0:0:0:0:
256,192,233937,1,0,0:0:0:0:
256,192,234500,1,12,0:0:0:0:
256,192,234625,1,0,0:0:0:0:
256,128,234687,1,0,0:0:0:0:
256,192,234750,1,8,0:0:0:0:
256,192,234875,1,8,0:0:0:0:
256,192,234937,1,8,0:0:0:0:
256,192,235000,1,8,0:0:0:0:
256,192,235062,1,8,0:0:0:0:
256,192,235125,1,0,0:0:0:0:
256,192,235250,1,8,0:0:0:0:
256,192,235375,1,8,0:0:0:0:
256,192,235437,1,0,0:0:0:0:
256,192,235500,1,8,0:0:0:0:
256,192,235562,1,8,0:0:0:0:
256,192,235625,1,0,0:0:0:0:
256,192,235687,1,0,0:0:0:0:
256,192,235750,1,8,0:0:0:0:
256,192,235812,1,0,0:0:0:0:
256,192,235875,1,8,0:0:0:0:
256,192,236000,1,4,0:0:0:0:
256,192,236125,1,0,0:0:0:0:
256,192,236187,1,0,0:0:0:0:
256,160,236250,1,8,0:0:0:0:
256,192,236375,1,0,0:0:0:0:
256,192,236500,1,8,0:0:0:0:
256,160,236562,1,0,0:0:0:0:
249,196,236625,1,8,0:0:0:0:
256,192,236687,1,0,0:0:0:0:
256,192,236750,1,8,0:0:0:0:
256,192,236875,1,8,0:0:0:0:
256,192,236937,1,8,0:0:0:0:
256,192,237000,1,0,0:0:0:0:
256,192,237125,1,0,0:0:0:0:
256,192,237250,1,8,0:0:0:0:
256,192,237312,1,0,0:0:0:0:
256,192,237375,1,0,0:0:0:0:
256,192,237437,1,0,0:0:0:0:
256,192,237500,1,8,0:0:0:0:
256,192,237625,1,0,0:0:0:0:
256,192,237750,1,8,0:0:0:0:
256,192,237812,1,8,0:0:0:0:
256,192,237875,1,8,0:0:0:0:
256,192,238000,1,4,0:0:0:0:
256,192,238125,1,0,0:0:0:0:
256,160,238187,1,0,0:0:0:0:
256,192,238250,1,8,0:0:0:0:
256,192,238375,1,0,0:0:0:0:
256,160,238437,1,0,0:0:0:0:
256,192,238500,1,8,0:0:0:0:
256,192,238562,1,0,0:0:0:0:
256,192,238625,1,8,0:0:0:0:
256,192,238750,1,0,0:0:0:0:
256,192,238875,1,8,0:0:0:0:
256,192,238937,1,8,0:0:0:0:
256,192,239000,1,0,0:0:0:0:
160,128,239062,1,8,0:0:0:0:
256,192,239125,1,0,0:0:0:0:
241,163,239187,1,0,0:0:0:0:
256,192,239250,1,8,0:0:0:0:
256,192,239375,1,8,0:0:0:0:
256,192,239437,1,0,0:0:0:0:
256,192,239500,1,8,0:0:0:0:
256,192,239625,1,0,0:0:0:0:
256,192,239687,1,0,0:0:0:0:
256,192,239750,1,8,0:0:0:0:
256,192,239875,1,8,0:0:0:0:
256,160,240000,1,0,0:0:0:0:
224,192,240062,1,0,0:0:0:0:
224,192,240125,1,0,0:0:0:0:
256,128,240187,1,0,0:0:0:0:
224,192,240250,1,8,0:0:0:0:
224,192,240375,1,8,0:0:0:0:
224,192,240437,1,0,0:0:0:0:
224,192,240500,1,8,0:0:0:0:
224,192,240562,1,8,0:0:0:0:
224,192,240625,1,0,0:0:0:0:
224,192,240750,1,8,0:0:0:0:
224,192,240875,1,0,0:0:0:0:
256,128,240937,1,0,0:0:0:0:
224,192,241000,1,8,0:0:0:0:
256,192,241062,1,8,0:0:0:0:
224,160,241125,1,0,0:0:0:0:
256,128,241187,1,0,0:0:0:0:
256,192,241250,1,8,0:0:0:0:
224,192,241375,1,0,0:0:0:0:
224,192,241500,1,8,0:0:0:0:
256,160,241562,1,8,0:0:0:0:
224,192,241625,1,0,0:0:0:0:
256,160,241687,1,0,0:0:0:0:
224,192,241750,1,8,0:0:0:0:
224,192,241812,1,0,0:0:0:0:
224,192,241875,1,8,0:0:0:0:
256,192,242000,5,4,0:0:0:0:
256,160,242125,1,8,0:0:0:0:
256,160,242250,1,0,0:0:0:0:
256,160,242312,1,0,0:0:0:0:
256,192,242375,1,8,0:0:0:0:
256,192,242500,1,0,0:0:0:0:
256,192,242625,1,8,0:0:0:0:
224,160,242687,1,0,0:0:0:0:
256,192,242750,1,8,0:0:0:0:
256,192,242875,1,0,0:0:0:0:
256,128,242937,1,0,0:0:0:0:
256,192,243000,1,0,0:0:0:0:
256,192,243125,1,0,0:0:0:0:
256,192,243250,1,12,0:0:0:0:
256,192,243375,1,0,0:0:0:0:
256,160,243437,1,0,0:0:0:0:
256,192,243500,1,8,0:0:0:0:
256,160,243562,1,8,0:0:0:0:
224,160,243625,1,0,0:0:0:0:
224,128,243687,1,0,0:0:0:0:
256,192,243750,1,8,0:0:0:0:
224,128,243812,1,0,0:0:0:0:
256,192,243875,1,8,0:0:0:0:
256,192,244000,1,4,0:0:0:0:
256,192,244125,1,0,0:0:0:0:
256,128,244187,1,0,0:0:0:0:
256,160,244250,1,8,0:0:0:0:
256,192,244375,1,0,0:0:0:0:
256,192,244500,1,8,0:0:0:0:
256,160,244562,1,0,0:0:0:0:
249,196,244625,1,0,0:0:0:0:
256,192,244687,1,0,0:0:0:0:
256,192,244750,1,8,0:0:0:0:
256,160,244812,1,0,0:0:0:0:
256,192,244875,1,8,0:0:0:0:
256,192,244937,1,8,0:0:0:0:
256,192,245000,1,0,0:0:0:0:
256,192,245125,1,0,0:0:0:0:
256,192,245250,1,8,0:0:0:0:
256,192,245312,1,8,0:0:0:0:
256,192,245375,1,0,0:0:0:0:
256,192,245437,1,0,0:0:0:0:
256,192,245500,1,8,0:0:0:0:
256,192,245625,1,0,0:0:0:0:
256,192,245750,1,8,0:0:0:0:
256,192,245812,1,0,0:0:0:0:
256,192,245875,1,8,0:0:0:0:
256,192,246000,1,4,0:0:0:0:
256,192,246125,1,0,0:0:0:0:
256,192,246187,1,0,0:0:0:0:
256,192,246250,1,8,0:0:0:0:
256,192,246312,1,0,0:0:0:0:
256,192,246375,1,0,0:0:0:0:
256,192,246500,1,8,0:0:0:0:
256,192,246562,1,0,0:0:0:0:
256,192,246625,1,8,0:0:0:0:
256,192,246750,1,8,0:0:0:0:
256,192,246875,1,0,0:0:0:0:
256,192,246937,1,8,0:0:0:0:
256,192,247000,1,8,0:0:0:0:
288,160,247062,1,8,0:0:0:0:
256,192,247125,1,0,0:0:0:0:
256,192,247250,1,8,0:0:0:0:
256,192,247375,1,8,0:0:0:0:
256,192,247437,1,0,0:0:0:0:
256,192,247500,1,8,0:0:0:0:
256,160,247562,1,8,0:0:0:0:
256,192,247625,1,0,0:0:0:0:
256,192,247687,1,0,0:0:0:0:
256,192,247750,1,8,0:0:0:0:
256,192,247875,1,8,0:0:0:0:
256,160,248000,1,0,0:0:0:0:
224,192,248062,1,0,0:0:0:0:
224,192,248125,1,0,0:0:0:0:
256,160,248187,1,0,0:0:0:0:
224,192,248250,1,8,0:0:0:0:
224,192,248375,1,0,0:0:0:0:
224,192,248437,1,0,0:0:0:0:
224,192,248500,1,8,0:0:0:0:
224,192,248562,1,0,0:0:0:0:
224,192,248625,1,0,0:0:0:0:
224,192,248750,1,8,0:0:0:0:
234,167,248875,1,0,0:0:0:0:
230,165,248937,1,0,0:0:0:0:
224,192,249000,1,8,0:0:0:0:
256,192,249062,1,8,0:0:0:0:
224,160,249125,1,0,0:0:0:0:
256,128,249187,1,0,0:0:0:0:
256,192,249250,1,8,0:0:0:0:
224,192,249312,1,0,0:0:0:0:
224,192,249375,1,8,0:0:0:0:
224,192,249500,1,8,0:0:0:0:
256,160,249562,1,0,0:0:0:0:
224,192,249625,1,8,0:0:0:0:
224,192,249750,1,0,0:0:0:0:
224,160,249875,1,8,0:0:0:0:
224,128,249993,1,0,0:0:0:0:
256,160,250243,1,0,0:0:0:0:
256,160,250305,1,0,0:0:0:0:
256,160,250368,1,0,0:0:0:0:
256,160,250430,1,0,0:0:0:0:
256,160,250493,1,8,0:0:0:0:
256,160,250743,1,8,0:0:0:0:
256,160,250993,1,0,0:0:0:0:
237,143,251055,1,0,0:0:0:0:
256,192,251118,1,0,0:0:0:0:
238,143,251180,1,0,0:0:0:0:
256,160,251243,1,8,0:0:0:0:
256,192,251493,1,8,0:0:0:0:
256,192,251743,1,8,0:0:0:0:
256,192,251805,1,8,0:0:0:0:
256,192,251868,1,8,0:0:0:0:
256,192,251930,1,8,0:0:0:0:
256,192,251993,1,0,0:0:0:0:
256,192,252243,1,0,0:0:0:0:
256,160,252305,1,0,0:0:0:0:
256,192,252368,1,0,0:0:0:0:
256,192,252430,1,0,0:0:0:0:
256,192,252493,1,8,0:0:0:0:
256,192,252743,1,8,0:0:0:0:
256,192,252993,1,8,0:0:0:0:
256,165,253055,1,0,0:0:0:0:
256,192,253118,1,0,0:0:0:0:
256,192,253180,1,0,0:0:0:0:
256,192,253243,1,8,0:0:0:0:
256,192,253493,1,8,0:0:0:0:
256,192,253743,1,8,0:0:0:0:
256,192,253805,1,8,0:0:0:0:
256,192,253868,1,8,0:0:0:0:
256,192,253930,1,8,0:0:0:0:
256,192,253993,1,4,0:0:0:0:
256,192,254493,1,8,0:0:0:0:
256,192,254743,1,0,0:0:0:0:
256,192,254993,1,8,0:0:0:0:
256,192,255243,1,0,0:0:0:0:
256,192,255493,1,0,0:0:0:0:
256,192,255743,1,8,0:0:0:0:
256,192,255993,1,8,0:0:0:0:
256,192,256243,1,0,0:0:0:0:
256,192,256493,1,8,0:0:0:0:
256,192,256743,1,8,0:0:0:0:
256,192,256993,1,0,0:0:0:0:
256,192,257243,1,0,0:0:0:0:
256,192,257493,1,8,0:0:0:0:
256,192,257743,1,8,0:0:0:0:
256,192,257993,1,8,0:0:0:0:
256,192,258243,1,0,0:0:0:0:
256,192,258493,1,0,0:0:0:0:
256,192,258743,1,0,0:0:0:0:
256,192,258993,1,8,0:0:0:0:
256,192,259243,1,0,0:0:0:0:
256,192,259493,1,0,0:0:0:0:
256,192,259743,1,0,0:0:0:0:
256,192,259993,1,8,0:0:0:0:
256,192,260243,1,0,0:0:0:0:
256,192,260493,1,8,0:0:0:0:
256,192,260743,1,8,0:0:0:0:
256,192,260993,1,0,0:0:0:0:
256,192,261243,1,0,0:0:0:0:
256,192,261493,1,8,0:0:0:0:
256,192,261618,1,0,0:0:0:0:
256,192,261743,1,8,0:0:0:0:
256,192,261993,1,8,0:0:0:0:
256,192,262243,1,0,0:0:0:0:
256,192,262493,1,0,0:0:0:0:
256,192,262743,1,8,0:0:0:0:
256,192,262993,1,8,0:0:0:0:
256,192,263243,1,0,0:0:0:0:
256,192,263493,1,0,0:0:0:0:
256,192,263743,1,8,0:0:0:0:
256,192,263993,1,8,0:0:0:0:
256,192,264243,1,0,0:0:0:0:
256,192,264493,1,8,0:0:0:0:
256,192,264743,1,8,0:0:0:0:
256,192,264993,1,8,0:0:0:0:
256,192,265243,1,0,0:0:0:0:
256,192,265493,1,8,0:0:0:0:
256,192,265743,1,0,0:0:0:0:
256,192,265993,1,8,0:0:0:0:
256,192,266243,1,0,0:0:0:0:
256,192,266493,1,0,0:0:0:0:
256,192,266743,1,0,0:0:0:0:
256,192,266993,1,8,0:0:0:0:
256,192,267243,1,0,0:0:0:0:
256,192,267493,1,0,0:0:0:0:
256,192,267743,1,0,0:0:0:0:
256,192,267993,1,8,0:0:0:0:
256,192,268243,1,8,0:0:0:0:
256,192,268493,1,0,0:0:0:0:
256,192,268743,1,8,0:0:0:0:
256,192,268993,1,0,0:0:0:0:
256,192,269243,1,0,0:0:0:0:
256,192,269493,1,0,0:0:0:0:
256,192,269618,1,8,0:0:0:0:
256,192,269743,1,0,0:0:0:0:
256,192,269993,5,12,0:0:0:0:
256,192,270243,1,8,0:0:0:0:
256,192,270368,1,0,0:0:0:0:
256,192,270430,1,0,0:0:0:0:
256,192,270493,1,0,0:0:0:0:
256,192,270618,1,0,0:0:0:0:
256,192,270743,1,8,0:0:0:0:
256,192,270868,1,0,0:0:0:0:
256,160,270930,1,0,0:0:0:0:
256,192,270993,1,8,0:0:0:0:
288,160,271055,1,0,0:0:0:0:
256,192,271118,1,0,0:0:0:0:
256,192,271243,1,8,0:0:0:0:
256,160,271368,1,0,0:0:0:0:
256,160,271430,1,0,0:0:0:0:
256,192,271493,1,8,0:0:0:0:
256,192,271618,1,0,0:0:0:0:
256,192,271743,1,8,0:0:0:0:
256,160,271805,1,0,0:0:0:0:
256,192,271868,1,8,0:0:0:0:
256,192,271993,1,4,0:0:0:0:
256,192,272118,1,0,0:0:0:0:
256,192,272243,1,8,0:0:0:0:
256,192,272368,1,0,0:0:0:0:
256,160,272430,1,0,0:0:0:0:
256,192,272493,1,8,0:0:0:0:
256,192,272618,1,0,0:0:0:0:
256,192,272743,1,8,0:0:0:0:
256,160,272805,1,0,0:0:0:0:
256,192,272868,1,0,0:0:0:0:
256,160,272930,1,0,0:0:0:0:
256,192,272993,1,8,0:0:0:0:
256,192,273118,1,0,0:0:0:0:
256,192,273243,1,8,0:0:0:0:
256,192,273368,1,0,0:0:0:0:
256,160,273430,1,0,0:0:0:0:
256,192,273493,1,0,0:0:0:0:
256,192,273618,1,0,0:0:0:0:
256,160,273680,1,0,0:0:0:0:
256,192,273743,1,8,0:0:0:0:
256,192,273868,1,0,0:0:0:0:
256,192,273993,5,12,0:0:0:0:
256,192,274118,1,0,0:0:0:0:
256,192,274243,1,8,0:0:0:0:
256,192,274368,1,0,0:0:0:0:
256,160,274430,1,0,0:0:0:0:
256,192,274493,1,8,0:0:0:0:
256,192,274618,1,0,0:0:0:0:
256,192,274743,1,8,0:0:0:0:
256,160,274868,1,0,0:0:0:0:
256,160,274930,1,0,0:0:0:0:
256,192,274993,1,8,0:0:0:0:
256,160,275055,1,0,0:0:0:0:
256,192,275118,1,0,0:0:0:0:
256,160,275243,1,8,0:0:0:0:
256,192,275368,1,0,0:0:0:0:
256,192,275493,1,8,0:0:0:0:
256,160,275555,1,0,0:0:0:0:
256,192,275618,1,0,0:0:0:0:
256,192,275743,1,8,0:0:0:0:
256,160,275805,1,0,0:0:0:0:
256,192,275868,1,8,0:0:0:0:
256,192,275993,1,4,0:0:0:0:
256,192,276118,1,0,0:0:0:0:
256,192,276243,1,8,0:0:0:0:
256,192,276368,1,0,0:0:0:0:
256,160,276430,1,0,0:0:0:0:
256,160,276493,1,8,0:0:0:0:
256,192,276618,1,0,0:0:0:0:
256,160,276680,1,8,0:0:0:0:
256,192,276743,1,0,0:0:0:0:
256,160,276868,1,0,0:0:0:0:
256,192,276993,1,8,0:0:0:0:
256,160,277055,1,0,0:0:0:0:
256,192,277118,1,0,0:0:0:0:
224,128,277180,1,0,0:0:0:0:
256,160,277243,1,8,0:0:0:0:
256,192,277368,1,0,0:0:0:0:
256,192,277493,1,8,0:0:0:0:
256,160,277555,1,0,0:0:0:0:
256,192,277618,1,8,0:0:0:0:
256,160,277680,1,0,0:0:0:0:
256,192,277743,1,8,0:0:0:0:
256,160,277805,1,8,0:0:0:0:
224,192,277868,1,0,0:0:0:0:
256,192,277993,5,12,0:0:0:0:
256,192,278243,1,8,0:0:0:0:
256,192,278368,1,0,0:0:0:0:
256,192,278430,1,0,0:0:0:0:
256,192,278493,1,0,0:0:0:0:
256,192,278618,1,0,0:0:0:0:
256,192,278743,1,8,0:0:0:0:
256,192,278868,1,0,0:0:0:0:
256,160,278930,1,0,0:0:0:0:
256,192,278993,1,8,0:0:0:0:
288,160,279055,1,8,0:0:0:0:
256,192,279118,1,0,0:0:0:0:
256,192,279243,1,8,0:0:0:0:
256,160,279368,1,0,0:0:0:0:
256,160,279430,1,0,0:0:0:0:
256,192,279493,1,8,0:0:0:0:
256,192,279618,1,0,0:0:0:0:
256,192,279743,1,8,0:0:0:0:
256,160,279805,1,0,0:0:0:0:
256,192,279868,1,8,0:0:0:0:
256,192,279993,1,4,0:0:0:0:
256,192,280118,5,0,0:0:0:0:
256,192,280243,1,8,0:0:0:0:
256,192,280368,1,0,0:0:0:0:
256,160,280430,1,0,0:0:0:0:
256,192,280493,1,8,0:0:0:0:
256,192,280618,1,0,0:0:0:0:
256,192,280743,1,8,0:0:0:0:
256,160,280805,1,8,0:0:0:0:
256,192,280868,1,0,0:0:0:0:
256,160,280930,1,0,0:0:0:0:
256,192,280993,1,8,0:0:0:0:
256,192,281118,1,0,0:0:0:0:
256,192,281243,1,8,0:0:0:0:
256,192,281368,1,0,0:0:0:0:
256,160,281430,1,8,0:0:0:0:
256,192,281493,1,0,0:0:0:0:
256,192,281618,1,0,0:0:0:0:
256,160,281680,1,0,0:0:0:0:
256,192,281743,1,8,0:0:0:0:
256,192,281868,1,0,0:0:0:0:
256,192,281993,5,12,0:0:0:0:
256,192,282118,1,0,0:0:0:0:
256,192,282243,1,8,0:0:0:0:
256,192,282368,1,0,0:0:0:0:
256,160,282430,1,0,0:0:0:0:
256,192,282493,1,8,0:0:0:0:
256,192,282618,1,0,0:0:0:0:
256,192,282743,1,8,0:0:0:0:
256,160,282868,1,0,0:0:0:0:
256,160,282930,1,0,0:0:0:0:
256,192,282993,1,8,0:0:0:0:
256,160,283055,1,8,0:0:0:0:
256,192,283118,1,0,0:0:0:0:
256,160,283243,1,8,0:0:0:0:
256,192,283368,1,0,0:0:0:0:
256,192,283493,1,8,0:0:0:0:
256,160,283555,1,0,0:0:0:0:
256,192,283618,1,0,0:0:0:0:
256,192,283743,1,8,0:0:0:0:
256,160,283805,1,0,0:0:0:0:
256,192,283868,1,8,0:0:0:0:
256,192,283993,1,4,0:0:0:0:
256,192,284118,1,0,0:0:0:0:
256,192,284243,1,8,0:0:0:0:
256,192,284368,1,0,0:0:0:0:
256,160,284430,1,0,0:0:0:0:
256,160,284493,1,8,0:0:0:0:
256,192,284618,1,0,0:0:0:0:
256,160,284680,1,8,0:0:0:0:
256,192,284743,1,0,0:0:0:0:
256,160,284868,1,0,0:0:0:0:
256,192,284993,1,8,0:0:0:0:
256,160,285055,1,0,0:0:0:0:
256,192,285118,1,0,0:0:0:0:
224,128,285180,1,0,0:0:0:0:
256,160,285243,1,8,0:0:0:0:
256,192,285368,1,0,0:0:0:0:
256,192,285493,1,8,0:0:0:0:
256,160,285555,1,0,0:0:0:0:
256,192,285618,1,8,0:0:0:0:
256,160,285680,1,8,0:0:0:0:
256,192,285743,1,0,0:0:0:0:
256,160,285805,1,0,0:0:0:0:
224,192,285868,1,0,0:0:0:0:
256,192,285993,5,12,0:0:0:0:
256,192,286243,1,8,0:0:0:0:
256,192,286368,1,0,0:0:0:0:
256,192,286430,1,0,0:0:0:0:
256,192,286493,1,0,0:0:0:0:
256,192,286618,1,0,0:0:0:0:
256,192,286743,1,8,0:0:0:0:
256,192,286868,1,0,0:0:0:0:
256,160,286930,1,0,0:0:0:0:
256,192,286993,1,8,0:0:0:0:
288,160,287055,1,0,0:0:0:0:
256,192,287118,1,0,0:0:0:0:
256,192,287243,1,8,0:0:0:0:
256,160,287368,1,0,0:0:0:0:
256,160,287430,1,0,0:0:0:0:
256,192,287493,1,8,0:0:0:0:
256,192,287618,1,0,0:0:0:0:
256,192,287743,1,8,0:0:0:0:
256,160,287805,1,0,0:0:0:0:
256,192,287868,1,8,0:0:0:0:
256,192,287993,1,4,0:0:0:0:
256,192,288118,1,0,0:0:0:0:
256,192,288243,1,8,0:0:0:0:
256,192,288368,1,0,0:0:0:0:
256,160,288430,1,0,0:0:0:0:
256,192,288493,1,8,0:0:0:0:
256,192,288618,1,0,0:0:0:0:
256,192,288743,1,8,0:0:0:0:
256,160,288805,1,0,0:0:0:0:
256,192,288868,1,0,0:0:0:0:
256,160,288930,1,0,0:0:0:0:
256,192,288993,1,8,0:0:0:0:
256,192,289118,1,0,0:0:0:0:
256,192,289243,1,8,0:0:0:0:
256,192,289368,1,0,0:0:0:0:
256,160,289430,1,0,0:0:0:0:
256,192,289493,1,0,0:0:0:0:
256,192,289618,1,0,0:0:0:0:
256,160,289680,1,0,0:0:0:0:
256,192,289743,1,8,0:0:0:0:
256,192,289868,1,0,0:0:0:0:
256,192,289993,5,12,0:0:0:0:
256,192,290118,1,0,0:0:0:0:
256,192,290243,1,8,0:0:0:0:
256,192,290368,1,0,0:0:0:0:
256,160,290430,1,0,0:0:0:0:
256,192,290493,1,8,0:0:0:0:
256,192,290618,1,0,0:0:0:0:
256,192,290743,1,8,0:0:0:0:
256,160,290868,1,0,0:0:0:0:
256,160,290930,1,0,0:0:0:0:
256,192,290993,1,8,0:0:0:0:
256,160,291055,1,0,0:0:0:0:
256,192,291118,1,0,0:0:0:0:
256,160,291243,1,8,0:0:0:0:
256,192,291368,1,0,0:0:0:0:
256,192,291493,1,8,0:0:0:0:
256,160,291555,1,0,0:0:0:0:
256,192,291618,1,0,0:0:0:0:
256,192,291743,1,8,0:0:0:0:
256,160,291805,1,0,0:0:0:0:
256,192,291868,1,8,0:0:0:0:
256,192,291993,1,4,0:0:0:0:
256,192,292118,1,0,0:0:0:0:
256,192,292243,1,8,0:0:0:0:
256,192,292368,1,0,0:0:0:0:
256,160,292430,1,0,0:0:0:0:
256,160,292493,1,8,0:0:0:0:
256,192,292618,1,0,0:0:0:0:
256,160,292680,1,8,0:0:0:0:
256,192,292743,1,0,0:0:0:0:
256,160,292868,1,0,0:0:0:0:
256,192,292993,1,8,0:0:0:0:
256,160,293055,1,0,0:0:0:0:
256,192,293118,1,0,0:0:0:0:
224,128,293180,1,0,0:0:0:0:
256,160,293243,1,8,0:0:0:0:
256,192,293368,1,0,0:0:0:0:
256,192,293493,1,8,0:0:0:0:
256,160,293555,1,0,0:0:0:0:
256,192,293618,1,8,0:0:0:0:
256,160,293680,1,0,0:0:0:0:
256,192,293743,1,8,0:0:0:0:
256,160,293805,1,8,0:0:0:0:
224,192,293868,1,0,0:0:0:0:
256,192,293993,5,12,0:0:0:0:
256,192,294243,1,8,0:0:0:0:
256,192,294368,1,0,0:0:0:0:
256,192,294430,1,0,0:0:0:0:
256,192,294493,1,0,0:0:0:0:
256,192,294618,1,0,0:0:0:0:
256,192,294743,1,8,0:0:0:0:
256,192,294868,1,0,0:0:0:0:
256,160,294930,1,0,0:0:0:0:
256,192,294993,1,8,0:0:0:0:
288,160,295055,1,8,0:0:0:0:
256,192,295118,1,0,0:0:0:0:
256,192,295243,1,8,0:0:0:0:
256,160,295368,1,0,0:0:0:0:
256,160,295430,1,0,0:0:0:0:
256,192,295493,1,8,0:0:0:0:
256,192,295618,1,0,0:0:0:0:
256,192,295743,1,8,0:0:0:0:
256,160,295805,1,0,0:0:0:0:
256,192,295868,1,8,0:0:0:0:
256,192,295993,1,4,0:0:0:0:
256,192,296118,5,0,0:0:0:0:
256,192,296243,1,8,0:0:0:0:
256,192,296368,1,0,0:0:0:0:
256,160,296430,1,0,0:0:0:0:
256,192,296493,1,8,0:0:0:0:
256,192,296618,1,0,0:0:0:0:
256,192,296743,1,8,0:0:0:0:
256,160,296805,1,8,0:0:0:0:
256,192,296868,1,0,0:0:0:0:
256,160,296930,1,0,0:0:0:0:
256,192,296993,1,8,0:0:0:0:
256,192,297118,1,0,0:0:0:0:
256,192,297243,1,8,0:0:0:0:
256,192,297368,1,0,0:0:0:0:
256,160,297430,1,8,0:0:0:0:
256,192,297493,1,0,0:0:0:0:
256,192,297618,1,0,0:0:0:0:
256,160,297680,1,0,0:0:0:0:
256,192,297743,1,8,0:0:0:0:
256,192,297868,1,0,0:0:0:0:
256,192,297993,5,12,0:0:0:0:
256,192,298118,1,0,0:0:0:0:
256,192,298243,1,8,0:0:0:0:
256,192,298368,1,0,0:0:0:0:
256,160,298430,1,0,0:0:0:0:
256,192,298493,1,8,0:0:0:0:
256,192,298618,1,0,0:0:0:0:
256,192,298743,1,8,0:0:0:0:
256,160,298868,1,0,0:0:0:0:
256,160,298930,1,0,0:0:0:0:
256,192,298993,1,8,0:0:0:0:
256,160,299055,1,8,0:0:0:0:
256,192,299118,1,0,0:0:0:0:
256,160,299243,1,8,0:0:0:0:
256,192,299368,1,0,0:0:0:0:
256,192,299493,1,8,0:0:0:0:
256,160,299555,1,0,0:0:0:0:
256,192,299618,1,0,0:0:0:0:
256,192,299743,1,8,0:0:0:0:
256,160,299805,1,0,0:0:0:0:
256,192,299868,1,8,0:0:0:0:
256,192,299993,1,4,0:0:0:0:
256,192,300118,1,0,0:0:0:0:
256,192,300243,1,8,0:0:0:0:
256,192,300368,1,0,0:0:0:0:
256,160,300430,1,0,0:0:0:0:
256,160,300493,1,8,0:0:0:0:
256,192,300618,1,0,0:0:0:0:
256,160,300680,1,8,0:0:0:0:
256,192,300743,1,0,0:0:0:0:
256,160,300868,1,0,0:0:0:0:
256,192,300993,1,8,0:0:0:0:
256,160,301055,1,0,0:0:0:0:
256,192,301118,1,0,0:0:0:0:
224,128,301180,1,0,0:0:0:0:
256,160,301243,1,8,0:0:0:0:
256,192,301368,1,0,0:0:0:0:
256,192,301493,1,8,0:0:0:0:
256,160,301555,1,0,0:0:0:0:
256,192,301618,1,8,0:0:0:0:
256,160,301680,1,0,0:0:0:0:
256,192,301743,1,8,0:0:0:0:
