osu file format v14

[General]
AudioFilename: audio.ogg
AudioLeadIn: 0
PreviewTime: 60361
Countdown: 0
SampleSet: Soft
StackLeniency: 0.6
Mode: 0
LetterboxInBreaks: 0
WidescreenStoryboard: 1

[Editor]
DistanceSpacing: 1
BeatDivisor: 4
GridSize: 32
TimelineZoom: 1.7

[Metadata]
Title:The World's End
TitleUnicode:The♡World’s♡End
Artist:Horie Yui
ArtistUnicode:堀江由衣
Creator:attendant
Version:Another
Source:ゴールデンタイム
Tags:ワールドエンドの庭 golden time world end no niwa japanese pop anime opening omphen
BeatmapID:3544529
BeatmapSetID:1726464

[Difficulty]
HPDrainRate:6
CircleSize:3.8
OverallDifficulty:8
ApproachRate:9
SliderMultiplier:1.2
SliderTickRate:0.5

[Events]
//Background and Video events
0,0,"bg.png",0,0
//Break Periods
2,80686,85386
2,187311,192986
2,255986,268986
//Storyboard Layer 0 (Background)
//Storyboard Layer 1 (Fail)
//Storyboard Layer 2 (Pass)
//Storyboard Layer 3 (Foreground)
//Storyboard Layer 4 (Overlay)
//Storyboard Sound Samples

[TimingPoints]
1497,545.454545454546,4,2,1,20,1,0
2315,666.666666666667,4,2,1,20,1,0
2648,571.428571428571,4,2,1,20,1,0
2648,-133.333333333333,4,2,1,20,0,0
3505,685.714285714286,4,2,1,20,1,0
3847,558.139534883721,4,2,1,20,1,0
4684,666.666666666667,4,2,1,20,1,0
5017,545.454545454546,4,2,1,20,1,0
5017,-133.333333333333,4,2,1,20,0,0
5562,-133.333333333333,4,2,1,10,0,0
5835,631.578947368421,4,2,1,20,1,0
6150,585.365853658537,4,2,1,20,1,0
7028,631.578947368421,4,2,1,20,1,0
7343,571.428571428571,4,2,1,20,1,0
7343,-133.333333333333,4,2,1,20,0,0
7914,-133.333333333333,4,2,1,10,0,0
8200,600,4,2,1,20,1,0
8500,600,4,2,1,20,1,0
9400,923.076923076923,4,2,1,20,1,0
9861,1142.85714285714,4,2,1,20,1,0
11932,-100,4,2,1,10,0,0
12486,250,4,2,1,50,1,0
15423,-100,4,2,11,5,0,0
15486,-100,4,2,1,50,0,0
26486,-86.9565217391304,4,2,1,50,0,0
28423,-86.9565217391304,4,2,11,5,0,0
28486,-100,4,2,1,50,0,0
31423,-100,4,2,11,5,0,0
31486,-100,4,2,1,50,0,0
52423,-100,4,2,11,5,0,0
52486,-100,4,2,1,50,0,0
55423,-100,4,2,11,5,0,0
55486,-100,4,2,1,50,0,0
58423,-100,4,2,11,5,0,0
58486,-100,4,2,1,50,0,0
60423,-100,4,2,11,5,0,0
60486,-86.9565217391304,4,2,13,60,0,1
60736,-86.9565217391304,4,2,1,60,0,1
76486,-142.857142857143,4,2,13,45,0,0
76548,-222.222222222222,4,2,1,65,0,0
76611,-222.222222222222,4,2,13,70,0,0
76673,-222.222222222222,4,2,1,75,0,0
76736,-222.222222222222,4,2,13,80,0,0
76798,-222.222222222222,4,2,1,85,0,0
76861,-222.222222222222,4,2,13,90,0,0
76923,-222.222222222222,4,2,1,95,0,0
76986,-142.857142857143,4,2,1,20,0,0
77236,-142.857142857143,4,2,13,35,0,0
77361,-142.857142857143,4,2,13,25,0,0
77486,-142.857142857143,4,2,13,45,0,0
77986,-142.857142857143,4,2,13,40,0,0
78486,-142.857142857143,4,2,1,65,0,0
80486,-142.857142857143,4,2,1,20,0,0
85986,-142.857142857143,4,2,1,45,0,0
86486,250,4,2,1,45,1,0
86486,-142.857142857143,4,2,1,45,0,0
109986,-142.857142857143,4,2,11,5,0,0
110486,-100,4,2,1,65,0,0
115486,-100,4,2,1,75,0,0
117986,-100,4,2,1,65,0,0
118486,-100,4,2,13,35,0,0
118986,250,4,2,1,45,1,0
118986,-142.857142857143,4,2,1,45,0,0
126986,-117.647058823529,4,2,1,55,0,0
128923,-117.647058823529,4,2,11,5,0,0
128986,-117.647058823529,4,2,1,55,0,0
130861,-117.647058823529,4,2,1,25,0,0
130986,-117.647058823529,4,2,1,55,0,0
134986,-117.647058823529,4,2,13,35,0,0
135486,-117.647058823529,4,2,13,50,0,0
135569,-117.647058823529,4,2,13,35,0,0
135652,-117.647058823529,4,2,13,40,0,0
135736,-117.647058823529,4,2,13,50,0,0
135819,-117.647058823529,4,2,13,40,0,0
135902,-117.647058823529,4,2,13,30,0,0
135986,250,4,2,1,65,1,0
135986,-100,4,2,1,65,0,0
151923,-100,4,2,11,5,0,0
151986,-100,4,2,1,45,0,0
152986,-142.857142857143,4,2,1,45,0,0
153486,-142.857142857143,4,2,1,55,0,0
153923,-142.857142857143,4,2,11,5,0,0
153986,250,4,2,1,65,1,0
153986,-100,4,2,1,65,0,0
169986,-100,4,2,1,45,0,0
170236,-142.857142857143,4,2,13,35,0,0
177486,-142.857142857143,4,2,1,55,0,0
177986,-117.647058823529,4,2,1,55,0,0
185986,-117.647058823529,4,2,1,65,0,0
187111,-117.647058823529,4,2,11,5,0,0
193986,-117.647058823529,4,2,1,35,0,0
194236,-250,4,2,1,35,0,0
201986,-181.818181818182,4,2,1,35,0,0
217819,-181.818181818182,4,2,1,45,0,0
217902,-181.818181818182,4,2,1,55,0,0
217986,-100,4,2,1,65,0,0
224173,-100,4,2,11,5,0,0
224236,-100,4,2,1,65,0,0
235736,-100,4,2,2,65,0,0
235923,-100,4,2,11,5,0,0
235986,-100,4,2,1,65,0,0
240923,-100,4,2,11,5,0,0
240986,-100,4,2,1,65,0,0
241986,-100,4,2,1,75,0,0
243236,-100,4,2,2,85,0,0
243486,-100,4,2,2,75,0,0
243736,-100,4,2,2,85,0,0
243986,-100,4,2,1,65,0,0
244423,-100,4,2,11,5,0,0
244486,-100,4,2,1,65,0,0
249923,-100,4,2,11,5,0,0
249986,-100,4,2,1,45,0,0
250236,-142.857142857143,4,2,1,45,0,0
253986,-142.857142857143,4,2,1,65,0,0
255611,-142.857142857143,4,2,11,5,0,0
269986,-86.9565217391304,4,2,13,60,0,1
270236,-86.9565217391304,4,2,1,60,0,1
277923,-86.9565217391304,4,2,11,5,0,1
277986,-86.9565217391304,4,2,1,60,0,1
301986,-86.9565217391304,4,2,1,60,0,0

[Colours]
Combo1 : 202,247,157
Combo2 : 200,190,180
Combo3 : 180,160,140
Combo4 : 217,176,230
Combo5 : 230,176,187
Combo6 : 130,164,242
Combo7 : 159,138,247
Combo8 : 154,239,233

[HitObjects]
448,192,1497,5,2,2:0:0:0:
448,192,2315,1,0,2:0:0:0:
370,190,2648,2,0,P|309:195|226:188,1,135.000005149841,2|0,2:0|2:0,2:0:0:0:
158,203,3847,1,2,2:0:0:0:
158,203,4684,1,0,2:0:0:0:
83,186,5017,2,0,P|75:110|79:65,1,90.0000000000002,2|0,2:0|2:0,2:0:0:0:
152,78,5835,1,2,2:0:0:0:
86,20,6150,5,2,2:0:0:0:
86,20,7028,1,0,2:0:0:0:
75,96,7343,2,0,P|76:141|83:186,1,90.0000000000002,2|0,2:0|2:0,2:0:0:0:
170,225,8200,1,0,2:0:0:0:
243,199,8500,1,2,2:0:0:0:
243,199,9400,2,0,P|277:198|322:203,1,60,2|2,2:0|2:0,2:0:0:0:
256,192,10146,12,0,11932,2:0:0:0:
464,32,12486,38,0,L|442:117,1,60,14|0,1:0|2:0,2:0:0:0:
465,229,12736,2,0,L|443:144,1,60,10|0,1:0|2:0,2:0:0:0:
256,136,12986,2,0,P|320:141|375:135,1,120,10|0,1:0|1:0,2:0:0:0:
353,268,13361,1,0,3:0:0:0:
353,268,13423,1,0,3:0:0:0:
353,268,13486,2,0,L|331:353,1,60,10|0,1:0|2:0,2:0:0:0:
159,268,13736,2,0,L|181:353,1,60,10|0,1:0|0:0,2:0:0:0:
256,136,13986,2,0,P|192:141|137:135,1,120,10|0,1:0|1:0,2:0:0:0:
83,221,14361,1,0,1:0:0:0:
256,256,14486,5,14,1:0:0:0:
376,135,14736,1,10,1:0:0:0:
244,38,14986,1,10,1:0:0:0:
244,38,15111,1,0,1:0:0:0:
343,47,15236,2,0,P|391:51|453:48,1,90,10|0,1:0|2:0,2:0:0:0:
465,76,15486,2,0,P|482:129|488:212,2,120,14|10|0,1:0|1:0|1:0,2:0:0:0:
413,12,16111,1,0,1:0:0:0:
338,76,16236,2,0,P|337:120|338:155,1,60,10|0,1:0|2:0,2:0:0:0:
464,274,16486,102,2,B|355:218|355:218|231:286,1,240,14|10,1:0|1:0,2:1:0:0:
199,357,17111,1,0,3:0:0:0:
199,357,17173,1,0,3:0:0:0:
199,357,17236,2,0,L|118:336,1,60,10|0,1:0|0:0,2:0:0:0:
61,284,17486,2,0,P|51:228|54:163,1,120,10|0,1:0|1:0,2:0:0:0:
142,131,17861,1,0,1:0:0:0:
213,165,17986,2,0,L|294:144,1,60,10|0,1:0|0:0,2:0:0:0:
321,63,18236,1,10,1:0:0:0:
250,32,18361,1,10,1:0:0:0:
352,64,18486,6,0,P|428:56|492:30,2,120,14|10|4,1:0|1:0|1:0,2:0:0:0:
403,156,19111,1,0,1:0:0:0:
357,231,19236,1,10,1:0:0:0:
357,231,19361,1,0,1:0:0:0:
444,332,19486,2,0,P|382:326|319:332,1,120,14|0,1:0|1:0,2:0:0:0:
254,297,19861,1,0,1:0:0:0:
169,337,19986,1,10,1:0:0:0:
148,332,20048,1,0,1:0:0:0:
127,336,20111,1,2,1:0:0:0:
58,301,20236,2,0,P|56:279|61:222,1,60,10|0,1:0|0:0,2:0:0:0:
14,155,20486,102,0,P|23:74|37:36,1,120,14|0,1:0|1:0,2:0:0:0:
110,14,20861,1,0,1:0:0:0:
189,67,20986,2,0,L|264:65,1,60,10|0,1:0|2:0,2:0:0:0:
370,16,21236,2,0,L|445:18,1,60,10|0,1:0|2:0,2:0:0:0:
511,75,21486,1,10,1:0:0:0:
446,221,21736,1,10,1:0:0:0:
501,342,21986,2,0,L|435:343,1,60,10|0,1:0|2:0,2:0:0:0:
348,320,22236,1,10,1:0:0:0:
274,344,22361,1,0,1:0:0:0:
224,261,22486,6,0,P|220:201|228:139,1,120,14|0,1:0|1:0,2:0:0:0:
310,93,22861,1,0,1:0:0:0:
249,17,22986,2,0,L|183:18,1,60,10|0,1:0|2:0,2:0:0:0:
133,74,23236,1,10,1:0:0:0:
133,74,23361,1,0,1:0:0:0:
36,37,23486,2,0,P|40:97|32:159,1,120,14|0,1:0|1:0,2:0:0:0:
65,255,23861,1,0,3:0:0:0:
65,255,23923,1,0,3:0:0:0:
65,255,23986,2,0,L|61:336,1,60,10|0,1:0|1:0,2:0:0:0:
142,367,24236,1,10,1:0:0:0:
206,328,24361,1,0,1:0:0:0:
301,362,24486,102,0,P|356:360|421:334,2,120,14|10|0,1:0|1:0|1:0,2:0:0:0:
283,262,25111,1,0,1:0:0:0:
307,169,25236,2,0,P|309:139|309:92,1,60,10|0,1:0|0:0,2:0:0:0:
449,30,25486,2,2,P|449:114|474:235,1,180,14|0,1:0|2:0,2:1:0:0:
512,291,25986,2,0,P|510:321|510:368,1,60,10|0,1:0|0:0,2:0:0:0:
416,337,26236,1,10,1:0:0:0:
350,375,26361,1,2,1:0:0:0:
260,336,26486,22,0,B|195:356|195:356|117:328,1,138,14|10,1:0|1:0,2:0:0:0:
81,254,26861,1,0,3:0:0:0:
81,254,26923,1,0,3:0:0:0:
81,254,26986,2,0,L|104:166,1,69,14|0,1:0|0:0,2:0:0:0:
305,256,27236,2,0,L|282:168,1,69,10|0,1:0|0:0,2:0:0:0:
96,106,27486,1,14,1:0:0:0:
293,98,27611,1,0,1:0:0:0:
96,90,27736,1,10,1:0:0:0:
391,26,27986,5,14,1:0:0:0:
421,31,28048,1,0,1:0:0:0:
452,28,28111,1,2,1:0:0:0:
509,80,28236,2,0,P|509:159|500:210,1,103.5,14|0,1:0|1:0,2:0:0:0:
470,206,28486,70,0,P|470:242|477:286,1,60,14|0,1:0|2:0,2:0:0:0:
512,363,28736,1,10,1:0:0:0:
512,363,28861,1,0,1:0:0:0:
384,333,28986,2,0,B|326:349|326:349|248:325,1,120,10|0,1:0|1:0,2:0:0:0:
196,300,29361,1,0,1:0:0:0:
111,340,29486,2,0,L|48:339,1,60,14|0,1:0|2:0,2:0:0:0:
0,216,29736,2,0,L|59:216,1,60,10|0,1:0|0:0,2:0:0:0:
182,173,29986,2,0,B|240:157|240:157|318:181,1,120,10|0,1:0|1:0,2:0:0:0:
386,141,30361,1,0,1:0:0:0:
479,199,30486,6,0,L|492:137,1,60,14|0,1:0|2:0,2:0:0:0:
474,3,30736,2,0,L|486:61,1,60,10|0,1:0|0:0,2:0:0:0:
389,129,30986,1,10,1:0:0:0:
389,129,31111,1,0,1:0:0:0:
305,82,31236,2,0,P|260:83|204:80,1,90,10|0,1:0|2:0,2:0:0:0:
182,53,31486,1,14,1:0:0:0:
100,96,31611,1,0,1:0:0:0:
26,64,31736,2,0,P|21:124|24:192,2,120,10|10|0,1:0|1:0|1:0,2:0:0:0:
91,20,32361,1,0,1:0:0:0:
182,53,32486,102,0,P|241:54|310:36,1,120,14|0,1:0|1:0,2:0:0:0:
371,99,32861,1,0,1:0:0:0:
251,162,32986,2,0,L|316:162,1,60,10|0,1:0|0:0,2:0:0:0:
449,254,33236,2,0,L|389:254,1,60,10|0,1:0|0:0,2:0:0:0:
284,327,33486,2,0,P|225:326|156:344,1,120,14|0,1:0|1:0,2:0:0:0:
98,303,33861,1,0,1:0:0:0:
180,244,33986,2,0,L|245:244,1,60,10|0,1:0|0:0,2:0:0:0:
103,178,34236,1,10,1:0:0:0:
103,178,34361,1,0,1:0:0:0:
172,71,34486,6,2,B|256:101|256:101|365:67,1,180,14|0,1:0|2:0,2:1:0:0:
417,137,34986,2,0,L|399:206,1,60,10|0,1:0|0:0,2:0:0:0:
416,331,35236,2,0,L|400:272,1,60,10|0,1:0|2:0,2:0:0:0:
490,233,35486,1,14,1:0:0:0:
295,269,35736,1,10,1:0:0:0:
136,238,35986,1,10,1:0:0:0:
109,243,36048,1,0,1:0:0:0:
81,239,36111,1,2,1:0:0:0:
7,262,36236,2,0,P|2:233|6:180,1,60,10|0,1:0|0:0,2:0:0:0:
44,82,36486,102,2,B|126:116|126:116|228:79,1,180,14|0,1:0|2:0,2:1:0:0:
301,47,36986,2,0,L|381:51,1,60,10|0,1:0|0:0,2:0:0:0:
431,124,37236,1,10,1:0:0:0:
431,124,37361,1,0,1:0:0:0:
327,201,37486,2,0,P|326:262|347:343,1,120,6|0,1:0|1:0,2:0:0:0:
425,370,37861,1,0,1:0:0:0:
496,341,37986,2,0,L|496:264,1,60,10|0,1:0|0:0,2:0:0:0:
416,168,38236,1,10,1:0:0:0:
327,201,38361,1,0,1:0:0:0:
251,168,38486,6,0,P|186:175|130:169,1,120,14|0,1:0|1:0,2:0:0:0:
69,244,38861,1,0,3:0:0:0:
69,244,38923,1,0,3:0:0:0:
69,244,38986,2,0,L|87:314,1,60,10|0,1:0|2:0,2:0:0:0:
203,356,39236,2,0,L|217:297,1,60,10|0,1:0|2:0,2:0:0:0:
251,168,39486,2,0,P|259:113|255:44,1,120,14|0,1:0|1:0,2:0:0:0:
160,6,39861,1,0,1:0:0:0:
90,44,39986,2,0,L|99:119,1,60,10|0,1:0|2:0,2:0:0:0:
41,195,40236,1,10,1:0:0:0:
41,195,40361,1,0,1:0:0:0:
158,245,40486,102,2,P|247:234|341:250,1,180,14|0,1:0|2:0,2:1:0:0:
418,294,40986,2,0,L|481:294,1,60,10|0,1:0|2:0,2:0:0:0:
512,170,41236,2,0,L|452:170,1,60,10|0,1:0|0:0,2:0:0:0:
369,113,41486,1,14,1:0:0:0:
297,137,41611,1,0,1:0:0:0:
223,106,41736,2,0,P|171:110|86:103,2,120,10|10|2,1:0|1:0|1:0,2:0:0:0:
299,33,42361,1,0,1:0:0:0:
369,113,42486,6,0,P|366:203|352:257,1,120,14|0,1:0|1:0,2:0:0:0:
316,316,42861,1,0,1:0:0:0:
450,366,42986,2,0,L|381:368,1,60,10|0,1:0|2:0,2:0:0:0:
230,383,43236,2,0,L|161:385,1,60,10|0,1:0|2:0,2:0:0:0:
11,279,43486,2,2,B|95:313|95:313|190:279,1,180,14|0,1:0|2:0,2:1:0:0:
137,186,43986,1,10,1:0:0:0:
132,159,44048,1,0,1:0:0:0:
137,132,44111,1,2,1:0:0:0:
199,82,44236,2,0,P|205:42|205:13,1,60,10|0,1:0|0:0,2:0:0:0:
44,1,44486,102,0,P|46:81|59:123,1,120,14|0,1:0|1:0,2:0:0:0:
137,186,44861,1,0,1:0:0:0:
27,259,44986,2,0,P|20:219|21:190,1,60,10|0,1:0|0:0,2:0:0:0:
125,54,45236,1,10,1:0:0:0:
125,54,45361,1,0,1:0:0:0:
267,125,45486,2,0,P|323:122|388:129,1,120,14|0,1:0|1:0,2:0:0:0:
440,71,45861,1,0,1:0:0:0:
504,191,45986,2,0,L|444:188,1,60,10|0,1:0|2:0,2:0:0:0:
335,258,46236,2,0,L|275:260,1,60,10|0,1:0|2:0,2:0:0:0:
488,358,46486,6,0,P|434:347|369:354,1,120,14|0,1:0|1:0,2:0:0:0:
272,341,46861,1,0,1:0:0:0:
196,358,46986,2,0,L|136:356,1,60,10|0,1:0|2:0,2:0:0:0:
27,259,47236,2,0,L|87:261,1,60,10|0,1:0|2:0,2:0:0:0:
199,192,47486,1,14,1:0:0:0:
34,33,47736,2,0,P|100:38|156:31,2,120,10|10|0,1:0|1:0|1:0,2:0:0:0:
7,107,48361,1,0,1:0:0:0:
165,114,48486,102,0,L|242:113,1,60,14|0,1:0|2:0,2:0:0:0:
345,60,48736,2,0,P|354:117|351:190,2,120,10|10|0,1:0|1:0|1:0,2:0:0:0:
409,14,49361,1,0,1:0:0:0:
231,0,49486,2,0,L|308:-1,1,60,14|0,1:0|2:0,2:0:0:0:
493,107,49736,2,0,L|433:107,1,60,10|0,1:0|2:0,2:0:0:0:
282,208,49986,1,10,1:0:0:0:
282,208,50111,1,0,1:0:0:0:
450,265,50236,2,0,L|390:265,1,60,10|0,1:0|0:0,2:0:0:0:
296,357,50486,6,0,P|241:341|161:341,1,120,14|0,1:0|1:0,2:0:0:0:
99,347,50861,1,0,1:0:0:0:
200,226,50986,2,0,L|140:226,1,60,10|0,1:0|0:0,2:0:0:0:
78,148,51236,1,10,1:0:0:0:
116,80,51361,1,0,1:0:0:0:
27,7,51486,2,0,L|86:6,1,60,14|0,1:0|2:0,2:0:0:0:
202,71,51736,1,10,1:0:0:0:
202,71,51861,1,0,1:0:0:0:
284,24,51986,1,10,1:0:0:0:
312,31,52048,1,0,1:0:0:0:
341,26,52111,1,2,1:0:0:0:
397,83,52236,2,0,P|394:138|396:180,1,90,10|0,1:0|0:0,2:0:0:0:
435,185,52486,102,0,P|427:245|383:319,1,120,14|0,1:0|1:0,2:0:0:0:
329,263,52861,1,0,1:0:0:0:
205,311,52986,2,0,L|272:313,1,60,10|0,1:0|2:0,2:0:0:0:
471,379,53236,2,0,L|411:377,1,60,10|0,1:0|0:0,2:0:0:0:
329,263,53486,2,0,P|302:209|294:150,1,120,14|0,1:0|1:0,2:0:0:0:
208,50,53861,1,0,1:0:0:0:
129,147,53986,2,0,L|207:150,1,60,10|0,1:0|0:0,2:0:0:0:
314,58,54236,1,10,1:0:0:0:
314,58,54361,1,0,1:0:0:0:
117,22,54486,6,0,P|63:46|21:102,2,120,14|10|0,1:0|1:0|1:0,2:0:0:0:
208,50,55111,1,0,1:0:0:0:
303,24,55236,2,0,P|368:27|416:22,1,90,10|0,1:0|0:0,2:0:0:0:
430,53,55486,1,14,1:0:0:0:
430,53,55611,1,0,1:0:0:0:
381,135,55736,2,0,P|378:180|380:204,1,60,10|0,1:0|2:0,2:0:0:0:
439,275,55986,2,0,P|421:327|362:374,1,120,10|0,1:0|1:0,2:0:0:0:
302,338,56361,1,0,1:0:0:0:
205,367,56486,102,0,P|141:359|64:366,2,120,14|10|0,1:0|1:0|1:0,2:0:0:0:
93,279,57111,1,0,1:0:0:0:
222,224,57236,2,0,L|154:225,1,60,10|0,1:0|2:0,2:0:0:0:
63,68,57486,2,0,P|118:125|172:143,1,120,14|0,1:0|1:0,2:0:0:0:
248,107,57861,1,0,1:0:0:0:
321,135,57986,2,0,L|380:134,1,60,10|0,1:0|2:0,2:0:0:0:
480,95,58236,2,0,P|483:156|472:209,1,90,10|0,1:0|0:0,2:0:0:0:
465,224,58486,5,14,1:0:0:0:
501,314,58611,1,0,1:0:0:0:
454,376,58736,2,0,L|386:377,1,60,10|0,1:0|0:0,2:0:0:0:
313,323,58986,2,0,P|258:329|188:323,2,120,10|10|6,1:0|1:0|1:0,2:0:0:0:
356,232,59611,1,0,1:0:0:0:
321,135,59736,2,0,L|261:135,1,60,10|0,1:0|0:0,2:0:0:0:
144,184,59986,1,10,1:0:0:0:
117,177,60048,1,0,1:0:0:0:
90,182,60111,1,2,1:0:0:0:
28,134,60236,2,0,P|30:86|27:41,1,90,10|0,1:0|2:0,2:0:0:0:
59,17,60486,6,0,P|118:47|204:56,2,138,14|10|10,1:0|1:0|1:0,2:0:0:0:
28,134,61111,1,0,1:0:0:0:
113,85,61236,1,10,1:0:0:0:
117,222,61361,5,0,3:0:0:0:
117,222,61423,1,0,3:0:0:0:
117,222,61486,2,0,P|200:218|262:225,1,138,14|10,1:0|1:0,2:0:0:0:
342,273,61861,1,0,1:0:0:0:
233,353,61986,2,0,L|314:352,1,69,10|0,1:0|0:0,2:0:0:0:
395,384,62236,1,10,1:0:0:0:
395,384,62361,1,0,1:0:0:0:
483,284,62486,102,0,P|484:244|483:212,1,69,14|0,1:0|2:0,2:0:0:0:
373,142,62736,2,0,P|377:97|437:4,1,138,10|10,1:0|1:0,2:0:0:0:
492,93,63111,1,0,1:0:0:0:
492,93,63236,1,10,1:0:0:0:
373,142,63361,1,2,1:0:0:0:
285,93,63486,6,0,P|213:98|136:92,1,138,14|10,1:0|1:0,2:0:0:0:
53,80,63861,1,0,1:0:0:0:
169,200,63986,2,0,P|100:195|31:200,1,138,14|10,1:0|1:0,2:0:0:0:
36,298,64361,1,0,1:0:0:0:
171,298,64486,102,0,P|217:298|250:301,1,69,14|0,1:0|2:0,2:0:0:0:
363,337,64736,2,0,P|429:327|486:280,1,138,10|10,1:0|1:0,2:0:0:0:
458,187,65111,1,0,1:0:0:0:
485,102,65236,1,10,1:0:0:0:
399,137,65361,5,0,3:0:0:0:
399,137,65423,1,0,3:0:0:0:
399,137,65486,2,0,P|313:142|254:134,1,138,14|10,1:0|1:0,2:0:0:0:
353,49,65861,1,0,1:0:0:0:
259,23,65986,2,0,L|190:23,1,69,10|0,1:0|0:0,2:0:0:0:
133,105,66236,1,10,1:0:0:0:
133,105,66361,1,0,1:0:0:0:
14,50,66486,102,0,P|17:128|12:203,1,138,14|10,1:0|1:0,2:0:0:0:
151,272,66861,1,0,1:0:0:0:
277,227,66986,2,0,P|274:305|279:380,1,138,14|10,1:0|1:0,2:0:0:0:
390,294,67361,5,0,3:0:0:0:
390,294,67423,1,0,3:0:0:0:
390,294,67486,2,0,B|454:317|454:317|537:293,2,138,14|14|14,1:0|1:0|1:0,2:0:0:0:
433,203,68111,1,0,1:0:0:0:
398,133,68236,2,0,P|397:103|399:63,1,69,10|0,1:0|0:0,2:0:0:0:
317,0,68486,102,0,P|277:32|248:128,1,138,14|10,1:0|1:0,2:0:0:0:
308,199,68861,1,0,1:0:0:0:
173,250,68986,2,0,P|210:252|246:250,1,69,10|0,1:0|0:0,2:0:0:0:
312,320,69236,1,10,1:0:0:0:
188,364,69361,5,0,3:0:0:0:
188,364,69423,1,0,3:0:0:0:
188,364,69486,2,0,P|120:360|51:334,1,138,14|10,1:0|1:0,2:0:0:0:
21,209,69861,1,0,1:0:0:0:
150,261,69986,1,10,1:0:0:0:
150,261,70111,1,0,1:0:0:0:
152,156,70236,2,0,P|155:123|153:82,1,69,10|0,1:0|0:0,2:0:0:0:
269,17,70486,102,0,P|286:66|287:159,1,138,14|14,1:0|1:0,2:0:0:0:
338,242,70861,1,0,1:0:0:0:
455,160,70986,2,0,L|454:250,1,69,10|0,1:0|0:0,2:0:0:0:
454,362,71236,1,10,1:0:0:0:
454,362,71361,1,0,1:0:0:0:
325,328,71486,6,0,L|244:326,1,69,14|0,1:0|2:0,2:0:0:0:
134,372,71736,2,0,P|81:366|1:319,2,138,10|14|10,1:0|1:0|1:0,2:0:0:0:
160,276,72361,1,0,1:0:0:0:
151,183,72486,102,0,L|151:113,1,69,14|0,1:0|2:0,2:0:0:0:
293,25,72736,2,0,P|295:92|274:176,1,138,10|10,1:0|1:0,2:0:0:0:
241,250,73111,1,0,1:0:0:0:
151,183,73236,1,10,1:0:0:0:
59,233,73361,5,0,3:0:0:0:
59,233,73423,1,0,3:0:0:0:
59,233,73486,2,0,P|44:165|45:97,1,138,14|10,1:0|1:0,2:0:0:0:
117,27,73861,1,0,1:0:0:0:
205,54,73986,2,0,L|279:56,1,69,10|0,1:0|2:0,2:0:0:0:
366,20,74236,1,10,1:0:0:0:
366,20,74361,1,0,1:0:0:0:
511,111,74486,102,0,B|450:85|450:85|369:114,1,138,14|10,1:0|1:0,2:0:0:0:
449,218,74861,1,0,1:0:0:0:
384,336,74986,2,0,B|451:311|451:311|512:337,1,138,14|10,1:0|1:0,2:0:0:0:
256,192,75361,5,0,3:0:0:0:
256,192,75423,1,0,3:0:0:0:
256,192,75486,2,0,P|186:198|115:186,2,138,14|14|14,1:0|1:0|1:0,2:0:0:0:
310,306,76111,1,0,1:0:0:0:
246,384,76236,1,10,1:0:0:0:
246,384,76361,1,0,1:0:0:0:
90,283,76486,38,2,P|94:207|93:98,1,168,2|2,2:1|2:0,2:1:0:0:
204,32,77236,2,0,L|203:74,1,42,2|2,2:0|2:0,2:0:0:0:
255,190,77486,1,2,2:1:0:0:
255,190,77986,1,2,2:0:0:0:
255,190,78486,1,14,1:0:0:0:
256,192,78548,12,2,80486,2:0:0:0:
199,57,85986,85,8,1:0:0:0:
199,57,86486,1,10,1:0:0:0:
110,12,86736,1,0,1:0:0:0:
110,12,86861,1,0,1:0:0:0:
110,12,86986,2,0,P|105:92|107:112,1,83.9999999999999,8|0,1:2|1:0,2:0:0:0:
54,180,87486,2,0,P|79:240|175:291,1,168,10|8,1:0|1:2,2:0:0:0:
256,247,88236,1,0,1:0:0:0:
340,283,88486,5,10,1:0:0:0:
427,247,88736,1,0,1:0:0:0:
427,247,88861,1,0,1:0:0:0:
427,247,88986,2,0,P|428:192|427:153,1,83.9999999999999,8|0,1:2|1:0,2:0:0:0:
512,57,89486,2,0,P|461:45|393:2,1,126,10|0,1:0|0:0,2:0:0:0:
307,37,89986,1,10,1:0:0:0:
220,14,90236,1,0,1:0:0:0:
220,14,90361,1,0,1:0:0:0:
220,14,90486,1,10,1:0:0:0:
123,44,90736,102,0,L|136:103,1,42,2|2,1:0|1:0,2:0:0:0:
155,159,90986,1,10,1:2:0:0:
128,254,91236,1,2,1:0:0:0:
128,254,91486,1,10,1:0:0:0:
170,341,91736,2,0,L|239:339,3,42,2|2|10|2,3:2|3:2|1:2|3:2,2:0:0:0:
108,384,92236,1,2,3:2:0:0:
30,322,92486,6,0,P|28:265|33:203,1,83.9999999999999,10|2,1:0|1:0,2:0:0:0:
55,164,92861,1,2,1:0:0:0:
55,164,92986,2,0,P|56:122|54:80,1,83.9999999999999,10|2,1:2|1:0,2:0:0:0:
169,22,93486,2,0,P|210:96|220:165,1,126,10|0,1:0|2:0,2:0:0:0:
211,215,93986,2,0,P|208:246|209:267,3,42,10|0|0|0,1:2|1:0|1:0|1:0,2:0:0:0:
273,332,94486,102,0,P|327:331|419:295,1,126,10|0,1:0|0:0,2:0:0:0:
455,262,94986,1,10,1:0:0:0:
419,138,95361,1,0,1:0:0:0:
419,138,95486,2,0,P|365:137|273:101,1,126,10|0,1:0|0:0,2:0:0:0:
243,58,95986,1,10,1:0:0:0:
211,215,96361,1,0,1:0:0:0:
211,215,96486,6,2,P|157:216|65:252,1,126,10|0,1:0|0:0,2:1:0:0:
24,284,96986,1,10,1:0:0:0:
34,157,97236,2,0,P|36:124|36:99,1,42,0|0,1:0|1:0,2:0:0:0:
87,56,97486,2,2,B|161:88|161:88|253:55,1,168,10|10,1:0|1:0,2:1:0:0:
358,110,98236,2,0,L|409:112,1,42,0|0,1:0|1:0,2:0:0:0:
489,68,98486,102,0,P|501:137|497:197,1,126,10|0,1:0|0:0,2:0:0:0:
482,268,98986,1,10,1:0:0:0:
346,308,99361,1,0,1:0:0:0:
346,308,99486,2,0,P|334:239|338:179,1,126,10|0,1:0|0:0,2:0:0:0:
358,110,99986,1,10,1:0:0:0:
231,211,100236,2,0,L|236:255,1,42,0|0,1:0|1:0,2:0:0:0:
187,317,100486,6,2,B|113:285|113:285|21:318,1,168,10|10,1:0|1:0,2:1:0:0:
34,157,101236,2,0,P|36:124|36:99,1,42,0|0,1:0|1:0,2:0:0:0:
100,67,101486,2,2,P|188:66|275:39,1,168,10|10,1:0|1:0,2:1:0:0:
420,102,102236,2,0,L|369:100,1,42,0|0,1:0|1:0,2:0:0:0:
297,153,102486,102,2,P|301:241|323:290,1,126,10|0,1:0|2:0,2:1:0:0:
370,328,102986,1,10,1:0:0:0:
477,249,103361,1,0,1:0:0:0:
477,249,103486,2,0,P|496:189|494:126,1,126,10|0,1:0|2:0,2:0:0:0:
420,102,103986,5,10,1:0:0:0:
393,233,104236,1,0,1:0:0:0:
271,174,104486,1,10,1:0:0:0:
298,43,104736,1,0,1:0:0:0:
179,106,104986,2,0,P|137:105|76:108,1,83.9999999999999,10|0,1:0|1:0,2:0:0:0:
17,206,105486,2,2,P|91:254|186:260,1,168,10|10,1:0|1:0,2:1:0:0:
281,324,106236,2,0,L|334:323,1,42,0|0,1:0|1:0,2:0:0:0:
412,289,106486,101,10,1:0:0:0:
412,289,106861,1,0,1:0:0:0:
443,217,106986,2,0,P|454:138|450:82,1,126,10|0,1:0|0:0,2:0:0:0:
428,18,107486,1,10,1:0:0:0:
271,174,107736,5,10,1:0:0:0:
174,76,107986,1,10,1:0:0:0:
310,98,108236,1,0,1:0:0:0:
188,164,108486,1,10,1:0:0:0:
251,39,108736,1,0,1:0:0:0:
354,163,108986,2,0,P|352:214|352:278,1,83.9999999999999,10|0,1:0|1:0,2:0:0:0:
294,363,109486,2,2,P|211:352|142:306,1,168,10|0,1:0|2:0,2:1:0:0:
142,306,110486,6,0,P|145:242|144:178,1,120,14|10,1:0|1:0,2:0:0:0:
203,135,110861,1,0,1:0:0:0:
300,221,110986,1,10,1:0:0:0:
300,221,111111,2,0,P|300:171|302:126,1,60,2|0,1:0|0:0,2:0:0:0:
361,49,111361,6,0,P|421:73|473:131,1,120,10|2,1:0|1:0,2:0:0:0:
488,185,111736,1,8,1:0:0:0:
384,260,111861,1,2,1:0:0:0:
384,260,111986,2,0,P|384:310|382:355,1,60,0|0,1:0|0:0,2:0:0:0:
263,353,112236,1,10,1:0:0:0:
335,384,112361,1,10,1:0:0:0:
231,362,112486,102,0,P|177:360|98:337,2,120,2|2|10,1:0|1:0|1:0,2:0:0:0:
272,237,113111,2,0,P|272:187|274:142,1,60,10|0,1:0|2:0,2:0:0:0:
194,74,113361,2,0,P|136:89|76:92,1,120,10|2,1:0|1:0,2:0:0:0:
21,175,113736,1,2,1:0:0:0:
81,250,113861,2,0,P|138:265|198:268,1,120,10|2,1:0|1:0,2:0:0:0:
272,237,114236,2,0,P|272:187|274:142,1,60,2|2,1:0|1:2,2:0:0:0:
414,86,114486,6,2,P|413:193|424:283,1,180,14|10,1:0|1:0,2:1:0:0:
442,346,114986,1,0,1:0:0:0:
442,346,115111,1,0,1:0:0:0:
308,378,115236,2,0,L|368:383,1,60,2|0,1:0|0:0,2:0:0:0:
258,262,115486,6,2,B|341:302|341:302|436:259,1,180,14|2,1:0|1:0,2:1:0:0:
425,189,115986,1,14,1:0:0:0:
338,156,116111,1,8,1:2:0:0:
265,182,116236,1,12,1:2:0:0:
265,182,116361,1,14,1:0:0:0:
79,23,116611,5,8,1:2:0:0:
30,107,116736,1,10,1:0:0:0:
30,107,116861,1,12,1:2:0:0:
111,187,116986,101,12,1:2:0:0:
160,103,117111,1,10,1:0:0:0:
160,103,117236,1,10,1:0:0:0:
40,280,117361,22,2,P|105:277|185:286,1,120,14|10,1:0|1:2,2:1:0:0:
238,294,117736,1,12,1:2:0:0:
130,371,117861,2,0,L|204:370,1,60,14|0,1:0|1:0,2:0:0:0:
295,384,118111,1,8,1:2:0:0:
295,384,118173,1,8,1:2:0:0:
295,384,118236,1,8,1:2:0:0:
373,373,118361,1,8,1:2:0:0:
293,237,118486,21,2,2:3:0:0:
293,237,118736,1,2,2:3:0:0:
293,237,118986,6,0,P|294:188|293:145,2,83.9999999999999,14|8|10,1:0|1:0|1:0,2:0:0:0:
374,291,119736,1,8,1:0:0:0:
455,239,119986,2,0,P|454:147|456:67,1,168,10|10,1:0|1:0,2:0:0:0:
340,32,120736,5,8,1:2:0:0:
294,153,120986,86,0,P|229:152|131:102,1,168,10|10,1:0|1:0,2:0:0:0:
71,40,121736,1,8,1:0:0:0:
19,125,121986,2,0,P|19:173|16:223,1,83.9999999999999,10|8,1:0|1:0,2:0:0:0:
100,305,122486,1,8,1:0:0:0:
51,370,122611,21,8,2:0:0:0:
51,370,122736,1,8,1:2:0:0:
214,344,122986,102,0,P|256:342|308:347,2,83.9999999999999,14|8|8,1:0|1:0|1:0,2:0:0:0:
173,255,123736,1,8,1:0:0:0:
241,188,123986,2,0,P|331:194|414:189,1,168,10|10,1:0|1:0,2:0:0:0:
493,93,124736,21,8,1:2:0:0:
409,45,124986,70,0,L|323:49,1,83.9999999999999,10|8,1:0|1:0,2:0:0:0:
236,98,125486,2,0,L|150:94,1,83.9999999999999,10|8,1:0|1:0,2:0:0:0:
63,38,125986,2,0,P|47:110|51:211,1,168,10|10,1:0|1:0,2:0:0:0:
131,303,126611,21,8,1:2:0:0:
92,370,126736,1,8,1:2:0:0:
207,353,126861,101,0,3:0:0:0:
207,353,126923,1,0,3:0:0:0:
207,353,126986,2,0,P|291:347|318:339,1,102,6|2,1:0|1:0,2:0:0:0:
344,271,127361,1,0,1:0:0:0:
225,230,127486,2,0,L|291:234,1,51.0000000000002,2|0,1:0|2:0,2:0:0:0:
354,177,127736,1,12,1:2:0:0:
354,177,127861,1,0,1:0:0:0:
420,219,127986,101,6,1:0:0:0:
479,106,128236,1,2,1:0:0:0:
392,12,128486,1,2,1:0:0:0:
272,57,128736,2,0,P|216:62|176:57,1,76.5000000000003,12|0,1:2|2:0,2:0:0:0:
163,85,128986,6,0,P|161:138|166:201,1,102,6|12,1:0|1:2,2:0:0:0:
289,218,129361,102,0,L|226:245,1,51.0000000000002,10|0,1:0|2:0,2:0:0:0:
41,218,129611,2,0,L|104:245,1,51.0000000000002,10|0,1:0|2:0,2:0:0:0:
165,384,129861,6,0,P|167:331|162:268,1,102,6|8,1:0|1:2,2:0:0:0:
276,338,130236,101,8,1:0:0:0:
276,338,130361,1,8,1:0:0:0:
349,309,130486,1,8,1:2:0:0:
424,336,130611,2,0,P|444:341|530:341,1,102,10|2,1:0|2:0,2:0:0:0:
470,228,130986,6,0,P|467:167|470:114,1,102,6|2,1:0|1:0,2:0:0:0:
416,67,131361,1,0,1:0:0:0:
345,163,131486,2,0,L|345:102,1,51.0000000000002,10|0,1:0|2:0,2:0:0:0:
231,46,131736,2,0,L|231:97,1,51.0000000000002,12|0,1:2|0:0,2:0:0:0:
163,203,131986,102,0,P|121:199|59:166,2,102,2|2|2,1:0|1:0|1:0,2:0:0:0:
217,262,132611,1,8,1:2:0:0:
180,332,132736,1,2,1:0:0:0:
180,332,132861,1,8,1:2:0:0:
307,384,132986,6,0,P|303:320|307:262,1,102,4|12,1:0|1:2,2:0:0:0:
355,221,133361,1,10,1:0:0:0:
163,203,133611,1,10,1:0:0:0:
447,112,133861,102,0,P|390:116|324:107,1,102,6|12,1:0|1:2,2:0:0:0:
271,93,134236,1,8,1:2:0:0:
446,6,134361,2,0,B|371:29|371:29|288:0,1,153.000000000001,14|12,1:0|1:2,2:0:0:0:
223,24,134861,1,12,1:2:0:0:
147,16,134986,5,2,2:3:0:0:
147,16,135236,1,2,2:3:0:0:
105,110,135486,5,2,2:0:0:0:
95,151,135569,5,2,2:0:0:0:
106,186,135652,101,2,2:0:0:0:
129,205,135736,6,0,L|177:202,2,34.0000000000001,2|2|2,2:0|2:0|2:0,2:0:0:0:
81,268,135986,102,0,P|38:270|1:267,1,60,14|0,1:0|2:0,2:0:0:0:
159,357,136236,2,0,P|216:354|284:327,1,120,12|2,1:2|1:0,2:0:0:0:
335,280,136611,1,2,1:0:0:0:
335,280,136736,1,12,1:2:0:0:
449,345,136861,2,0,P|455:276|450:200,1,120,10|0,1:0|2:0,2:0:0:0:
344,139,137236,2,0,L|344:203,1,60,12|0,1:2|2:0,2:0:0:0:
348,298,137486,1,2,1:0:0:0:
348,298,137611,1,2,1:0:0:0:
257,258,137736,2,0,L|257:198,1,60,12|0,1:2|0:0,2:0:0:0:
173,101,137986,6,0,P|129:109|51:97,2,120,10|12|2,1:0|1:2|1:0,2:0:0:0:
236,53,138611,1,2,1:0:0:0:
236,53,138736,1,12,1:2:0:0:
344,139,138861,2,0,P|353:82|388:12,1,120,10|0,1:0|0:0,2:0:0:0:
482,101,139236,2,0,L|483:177,1,60,12|0,1:2|2:0,2:0:0:0:
419,271,139486,1,2,1:0:0:0:
465,341,139611,1,0,1:0:0:0:
465,341,139736,1,12,1:2:0:0:
275,332,139986,102,0,L|204:337,1,60,14|0,1:0|0:0,2:0:0:0:
88,367,140236,2,0,P|62:312|53:253,1,120,12|2,1:2|1:0,2:0:0:0:
64,178,140611,1,2,1:0:0:0:
64,178,140736,1,12,1:2:0:0:
202,257,140861,2,0,P|227:202|236:143,1,120,10|0,1:0|0:0,2:0:0:0:
105,49,141236,2,0,B|165:66|165:66|224:51,1,120,12|2,1:2|1:0,2:0:0:0:
309,21,141611,1,2,1:0:0:0:
385,58,141736,1,12,1:2:0:0:
385,58,141861,1,0,1:0:0:0:
500,27,141986,6,0,P|504:107|516:157,1,120,14|12,1:0|1:2,2:0:0:0:
463,227,142361,1,2,1:0:0:0:
374,189,142486,1,14,1:0:0:0:
374,189,142611,1,0,1:0:0:0:
306,257,142736,2,0,L|217:256,1,60,12|0,1:2|0:0,2:0:0:0:
130,325,142986,2,0,P|118:266|117:206,2,120,14|12|14,1:0|1:2|1:0,2:0:0:0:
220,372,143611,1,0,1:0:0:0:
294,343,143736,2,0,L|353:343,1,60,12|0,1:2|0:0,2:0:0:0:
461,287,143986,102,0,P|463:244|461:201,1,60,14|0,1:0|0:0,2:0:0:0:
363,147,144236,2,0,P|370:87|406:26,1,120,12|2,1:2|1:0,2:0:0:0:
474,7,144611,1,2,1:0:0:0:
474,7,144736,1,12,1:2:0:0:
312,22,144861,2,0,B|256:35|256:35|169:7,1,120,10|0,1:0|0:0,2:0:0:0:
62,111,145236,2,0,P|140:106|214:120,1,120,12|2,1:2|1:0,2:0:0:0:
241,185,145611,1,2,1:0:0:0:
198,252,145736,1,12,1:2:0:0:
198,252,145861,1,0,1:0:0:0:
56,219,145986,6,0,L|133:220,1,60,10|0,1:0|2:0,2:0:0:0:
232,330,146236,2,0,P|292:323|353:287,1,120,12|2,1:2|1:0,2:0:0:0:
385,228,146611,1,2,1:0:0:0:
385,228,146736,1,12,1:2:0:0:
298,134,146861,2,0,P|235:130|172:106,1,120,10|0,1:0|2:0,2:0:0:0:
351,13,147236,2,0,P|354:56|351:88,1,60,12|0,1:2|2:0,2:0:0:0:
385,228,147486,2,0,P|448:224|511:200,1,120,2|12,1:0|1:2,2:0:0:0:
232,330,147986,102,0,L|155:331,1,60,14|0,1:0|0:0,2:0:0:0:
36,240,148236,2,0,B|91:255|91:255|179:232,1,120,12|2,1:2|1:0,2:0:0:0:
235,249,148611,1,2,1:0:0:0:
235,249,148736,1,12,1:2:0:0:
119,164,148861,2,0,P|120:105|119:36,1,120,10|0,1:0|0:0,2:0:0:0:
248,10,149236,2,0,L|247:93,1,60,12|0,1:2|2:0,2:0:0:0:
214,161,149486,1,2,1:0:0:0:
214,161,149611,1,2,1:0:0:0:
254,230,149736,1,12,1:2:0:0:
232,303,149861,1,0,1:0:0:0:
324,369,149986,6,0,P|385:359|436:324,1,120,14|12,1:0|1:2,2:0:0:0:
476,262,150361,1,0,1:0:0:0:
310,167,150486,2,0,P|359:199|418:208,1,120,14|12,1:0|1:2,2:0:0:0:
472,127,150861,1,0,1:0:0:0:
365,53,150986,2,0,L|305:55,1,60,14|0,1:0|2:0,2:0:0:0:
221,102,151236,1,12,1:2:0:0:
146,73,151361,1,8,1:2:0:0:
73,93,151486,1,12,1:2:0:0:
73,93,151611,1,8,1:2:0:0:
137,204,151736,102,2,P|137:266|124:319,1,90,10|0,1:0|2:0,2:1:0:0:
120,333,151986,85,8,1:0:0:0:
310,379,152361,1,0,1:0:0:0:
310,379,152486,1,8,1:2:0:0:
404,355,152736,1,8,1:2:0:0:
495,383,152986,2,0,P|503:341|502:298,1,83.9999999999999,8|0,1:2|1:2,2:0:0:0:
447,172,153486,2,2,B|378:197|378:197|304:164,1,147,10|0,1:0|2:0,2:1:0:0:
272,192,153986,22,0,L|256:264,1,60,14|0,1:0|0:0,2:0:0:0:
75,195,154236,2,0,L|91:267,1,60,12|0,1:2|2:0,2:0:0:0:
243,116,154486,1,2,1:0:0:0:
113,117,154611,1,2,1:0:0:0:
113,117,154736,1,12,1:2:0:0:
269,27,154861,2,0,P|183:34|76:20,1,180,10|12,1:0|1:2,2:0:0:0:
23,129,155361,1,0,1:0:0:0:
168,199,155486,2,0,L|82:198,1,60,2|2,1:0|0:0,2:0:0:0:
28,260,155736,1,12,1:2:0:0:
28,260,155861,1,2,1:2:0:0:
128,340,155986,5,10,1:0:0:0:
314,289,156236,1,12,1:2:0:0:
497,353,156486,1,2,1:0:0:0:
485,278,156611,1,2,1:0:0:0:
485,278,156736,1,12,1:2:0:0:
381,363,156861,2,0,P|398:294|403:174,1,180,10|12,1:0|1:2,2:0:0:0:
496,79,157361,1,0,3:0:0:0:
496,79,157423,1,0,3:0:0:0:
496,79,157486,2,0,L|428:100,1,60,10|0,1:0|2:0,2:0:0:0:
348,71,157736,1,12,1:2:0:0:
348,71,157861,1,0,1:0:0:0:
228,122,157986,102,0,P|177:123|92:94,2,120,10|12|2,1:0|1:2|1:0,2:0:0:0:
269,27,158611,1,2,1:0:0:0:
189,28,158736,1,12,1:2:0:0:
231,154,158861,2,0,P|226:230|233:354,1,180,10|12,1:0|1:2,2:0:0:0:
295,381,159361,1,2,1:0:0:0:
100,373,159486,2,0,L|173:376,1,60,2|2,1:0|0:0,2:0:0:0:
274,262,159736,1,12,1:2:0:0:
179,261,159861,1,2,0:0:0:0:
352,310,159986,6,0,P|419:292|468:250,1,120,10|12,1:0|1:2,2:0:0:0:
492,189,160361,1,0,1:0:0:0:
363,200,160486,2,0,P|296:182|247:140,1,120,10|12,1:0|1:2,2:0:0:0:
402,66,160861,1,0,3:0:0:0:
402,66,160923,1,0,3:0:0:0:
402,66,160986,2,0,P|401:103|396:146,1,60,10|0,1:0|2:0,2:0:0:0:
492,189,161236,2,0,P|492:151|497:108,1,60,12|0,1:2|2:0,2:0:0:0:
511,36,161486,1,10,1:0:0:0:
511,36,161611,1,0,1:0:0:0:
418,51,161736,1,12,1:2:0:0:
251,0,161986,102,0,P|191:7|127:-2,1,120,14|12,1:0|1:2,2:0:0:0:
108,99,162361,1,0,3:0:0:0:
108,99,162423,1,0,3:0:0:0:
108,99,162486,2,0,L|118:177,1,60,2|2,1:0|1:0,2:0:0:0:
9,89,162736,1,12,1:2:0:0:
77,238,162861,2,0,P|136:245|201:236,1,120,10|2,1:0|2:1,2:0:0:0:
341,174,163236,2,0,L|331:252,1,60,12|2,1:2|0:1,2:0:0:0:
270,300,163486,1,2,1:0:0:0:
196,237,163611,1,2,1:0:0:0:
253,182,163736,1,12,1:2:0:0:
253,182,163861,1,0,1:0:0:0:
360,326,163986,6,0,B|417:309|417:309|476:331,1,120,10|12,1:0|1:2,2:0:0:0:
425,212,164361,1,0,3:0:0:0:
425,212,164423,1,0,3:0:0:0:
425,212,164486,1,2,1:0:0:0:
506,135,164611,2,0,L|441:131,1,60,2|12,1:0|1:2,2:0:0:0:
330,77,164861,2,0,P|270:84|188:68,1,120,10|0,1:0|2:0,2:0:0:0:
33,127,165236,2,0,L|98:123,1,60,12|0,1:2|2:0,2:0:0:0:
196,237,165486,1,10,1:0:0:0:
120,264,165611,1,0,1:0:0:0:
47,238,165736,1,12,1:2:0:0:
256,384,165986,102,0,P|255:353|257:313,1,60,14|0,1:0|2:0,2:0:0:0:
382,357,166236,2,0,P|393:301|394:236,1,120,12|2,1:2|1:0,2:0:0:0:
317,240,166611,1,2,1:0:0:0:
317,240,166736,1,12,1:2:0:0:
477,124,166861,2,0,B|391:158|391:158|299:111,1,180,10|12,1:0|1:2,2:0:0:0:
358,55,167361,1,2,1:0:0:0:
229,23,167486,2,0,L|306:21,1,60,2|2,1:0|1:0,2:0:0:0:
414,0,167736,1,12,1:2:0:0:
414,0,167861,1,2,1:0:0:0:
477,124,167986,6,0,P|474:189|479:262,1,120,14|12,1:0|1:2,2:0:0:0:
356,203,168361,1,0,1:0:0:0:
239,308,168486,2,0,P|242:243|237:170,1,120,10|12,1:0|1:2,2:0:0:0:
118,238,168861,1,0,3:0:0:0:
118,238,168923,1,0,3:0:0:0:
118,238,168986,2,0,P|81:240|46:233,1,60,14|0,1:0|2:0,2:0:0:0:
0,112,169236,2,0,P|38:137|126:147,1,120,12|14,1:2|1:0,2:0:0:0:
194,108,169611,1,2,1:0:0:0:
239,188,169736,1,8,1:2:0:0:
266,177,169798,1,8,1:2:0:0:
296,173,169861,1,8,1:2:0:0:
326,177,169923,1,8,1:2:0:0:
354,187,169986,69,14,1:0:0:0:
502,59,170236,2,0,P|453:57|340:4,2,168,8|8|8,1:2|1:2|1:2,2:0:0:0:
479,155,171486,1,2,1:2:0:0:
500,244,171736,2,0,P|499:274|501:293,1,42,8|0,1:2|0:0,2:0:0:0:
389,363,171986,6,0,P|391:299|388:251,1,83.9999999999999,2|8,1:2|1:2,2:0:0:0:
328,205,172486,1,2,1:2:0:0:
236,237,172736,1,8,1:2:0:0:
236,237,172861,2,0,P|183:236|110:183,1,126,2|8,1:2|1:2,2:0:0:0:
128,103,173486,2,0,P|129:79|129:45,3,42,2|0|8|0,1:2|1:0|1:2|1:0,2:0:0:0:
212,16,173986,102,0,P|252:38|402:49,1,168,6|2,1:2|1:2,2:0:0:0:
455,111,174736,1,8,1:2:0:0:
455,111,174861,2,0,P|446:164|410:234,1,126,2|8,1:2|1:2,2:0:0:0:
477,343,175486,2,0,L|406:338,1,42,2|0,1:2|2:0,2:0:0:0:
362,369,175736,1,8,1:2:0:0:
362,369,175861,1,0,3:0:0:0:
279,346,175986,6,0,P|237:347|197:361,1,83.9999999999999,2|8,1:2|1:2,2:0:0:0:
116,307,176486,1,2,1:2:0:0:
198,255,176736,1,8,1:2:0:0:
198,255,176861,2,0,P|206:192|207:106,1,126,2|8,1:2|1:2,2:0:0:0:
279,346,177486,101,12,1:2:0:0:
279,346,177986,6,0,L|345:348,1,51.0000000000002,6|0,1:0|2:0,2:0:0:0:
480,268,178236,2,0,L|429:266,1,51.0000000000002,12|0,1:2|2:0,2:0:0:0:
333,187,178486,2,0,P|307:146|292:84,1,102,2|8,1:0|1:2,2:0:0:0:
294,16,178861,1,2,1:0:0:0:
421,135,179111,1,0,3:0:0:0:
421,135,179236,2,0,L|418:233,1,51.0000000000002,12|0,1:2|2:0,2:0:0:0:
304,264,179486,2,0,P|249:263|185:282,1,102,2|12,1:0|1:2,2:0:0:0:
141,325,179861,1,2,1:0:0:0:
37,245,179986,102,0,P|41:180|40:122,2,102,2|12|2,1:0|1:2|1:0,2:0:0:0:
195,137,180736,1,12,1:2:0:0:
133,87,180861,2,0,P|80:73|38:41,1,102,2|0,1:0|0:0,2:0:0:0:
226,15,181236,2,0,L|162:15,1,51.0000000000002,12|0,1:2|2:0,2:0:0:0:
279,96,181486,1,2,1:0:0:0:
355,70,181611,1,2,1:0:0:0:
431,98,181736,1,12,1:2:0:0:
431,98,181986,6,0,P|429:126|430:166,1,51.0000000000002,6|0,1:0|2:0,2:0:0:0:
508,252,182236,2,0,P|499:304|463:348,1,102,12|2,1:2|1:0,2:0:0:0:
385,301,182611,1,0,1:0:0:0:
385,301,182736,1,12,1:2:0:0:
270,363,182861,2,0,P|207:354|159:320,1,102,2|2,1:0|1:0,2:0:0:0:
151,258,183236,1,12,1:2:0:0:
217,105,183486,2,0,P|216:72|218:34,1,51.0000000000002,12|12,1:2|1:2,2:0:0:0:
281,8,183736,1,10,1:0:0:0:
366,114,183861,1,0,1:0:0:0:
256,192,183986,5,14,1:0:0:0:
256,192,184236,2,0,L|252:228,4,25.5000000000001,8|8|8|8|8,1:2|1:2|1:2|1:2|1:0,2:0:0:0:
133,123,184736,1,12,1:2:0:0:
256,353,184986,5,14,1:0:0:0:
420,250,185236,1,12,1:2:0:0:
151,258,185486,102,0,P|100:255|26:257,1,102,10|2,1:0|2:1,2:0:0:0:
256,192,185986,101,14,1:0:0:0:
256,192,186048,12,0,187111,2:0:0:0:
480,192,193986,101,10,1:0:0:0:
480,192,194236,2,0,L|449:189,1,24,0|0,1:0|1:0,2:0:0:0:
382,210,194486,2,0,P|351:206|333:200,2,48,8|8|8,1:2|1:2|1:2,2:0:0:0:
382,210,195986,2,0,P|339:212|280:229,1,96,8|8,1:2|1:2,2:0:0:0:
228,275,196736,1,8,1:2:0:0:
162,236,196986,1,8,1:2:0:0:
162,236,197736,2,0,L|163:206,1,24,8|8,1:2|1:2,2:0:0:0:
104,159,197986,6,0,P|95:109|102:55,1,96,8|8,1:2|1:2,2:0:0:0:
176,88,198736,1,8,1:2:0:0:
249,68,198986,1,8,1:2:0:0:
249,68,199986,2,0,P|296:69|345:67,1,96,8|8,1:2|1:2,2:0:0:0:
425,90,200736,1,8,1:2:0:0:
425,90,200986,1,8,1:2:0:0:
512,229,201486,2,0,L|504:255,3,24,8|8|8|8,1:2|1:2|1:2|1:2,2:0:0:0:
430,282,201986,102,2,B|367:265|362:318|294:318,1,132,14|8,1:0|1:2,2:1:0:0:
231,295,202736,1,8,1:2:0:0:
156,318,202986,2,2,P|124:288|85:209,1,132,10|8,1:0|1:2,2:1:0:0:
159,178,203736,1,8,1:2:0:0:
0,81,203986,6,2,P|65:88|133:81,1,132,10|8,1:0|1:2,2:1:0:0:
209,60,204736,1,8,1:2:0:0:
281,84,204986,1,10,1:0:0:0:
281,84,205486,1,8,1:2:0:0:
281,84,205736,2,0,L|329:86,1,33,8|8,1:2|1:2,2:0:0:0:
402,51,205986,102,2,P|460:42|527:9,1,132,10|8,1:0|1:2,2:1:0:0:
481,133,206736,1,8,1:2:0:0:
509,225,206986,1,10,1:0:0:0:
509,225,207486,2,0,P|509:271|512:298,1,65.9999999999999,8|8,1:2|1:2,2:0:0:0:
418,329,207986,6,2,B|352:320|356:370|285:369,1,132,10|8,1:0|1:2,2:1:0:0:
220,346,208736,1,8,1:2:0:0:
151,368,208986,1,10,1:0:0:0:
151,368,209486,2,0,L|106:367,3,33,8|0|8|0,1:2|1:0|1:2|1:0,2:0:0:0:
64,312,209986,102,2,P|49:264|56:173,1,132.00000402832,10|8,1:0|1:2,2:1:0:0:
125,153,210736,1,8,1:2:0:0:
190,186,210986,1,10,1:0:0:0:
190,186,211486,2,0,L|283:185,1,65.9999999999999,8|8,1:2|1:2,2:0:0:0:
357,238,211986,6,2,P|371:190|365:99,1,132,10|8,1:0|1:2,2:1:0:0:
420,48,212736,1,8,1:2:0:0:
350,19,212986,2,0,L|284:19,1,65.9999999999999,10|0,1:0|2:0,2:0:0:0:
216,84,213486,1,8,1:2:0:0:
129,45,213736,2,0,L|128:78,1,33,8|0,1:2|1:2,2:0:0:0:
79,165,213986,102,2,P|96:227|158:280,1,132,10|8,1:0|1:2,2:1:0:0:
218,246,214736,1,8,1:2:0:0:
284,288,214986,2,2,P|350:283|426:294,1,132,10|8,1:0|1:2,2:1:0:0:
501,255,215736,1,8,1:2:0:0:
432,209,217736,37,2,2:0:0:0:
442,168,217819,101,2,2:0:0:0:
431,133,217902,5,2,2:0:0:0:
408,114,217986,102,0,L|335:114,1,60,14|0,1:0|2:0,2:0:0:0:
253,197,218236,2,0,P|179:190|133:170,1,120,12|2,1:2|1:0,2:0:0:0:
114,101,218611,1,2,1:0:0:0:
114,101,218736,1,12,1:2:0:0:
46,248,218861,2,0,P|120:255|166:275,1,120,10|0,1:0|0:0,2:0:0:0:
287,272,219236,2,0,P|285:308|286:339,1,60,12|0,1:2|2:0,2:0:0:0:
361,384,219486,1,2,1:0:0:0:
437,360,219611,1,2,1:0:0:0:
511,380,219736,2,0,P|513:344|512:313,1,60,12|0,1:2|0:0,2:0:0:0:
395,168,219986,6,0,P|395:227|420:293,2,120,10|12|2,1:0|1:2|1:0,2:0:0:0:
455,114,220611,1,2,1:0:0:0:
455,114,220736,1,12,1:2:0:0:
290,37,220861,2,0,B|345:57|345:57|410:34,1,120,10|0,1:0|0:0,2:0:0:0:
191,158,221236,2,0,P|258:154|321:159,2,120,12|2|12,1:2|1:0|1:2,2:0:0:0:
102,116,221861,1,0,1:0:0:0:
193,8,221986,102,0,P|194:59|190:88,1,60,14|0,1:0|2:0,2:0:0:0:
110,204,222236,2,0,P|109:251|130:330,1,120,12|2,1:2|1:0,2:0:0:0:
215,356,222611,1,2,1:0:0:0:
286,318,222736,1,12,1:2:0:0:
366,370,222861,2,0,P|430:375|495:366,1,120,10|0,1:0|0:0,2:0:0:0:
395,168,223236,2,0,P|386:238|390:294,1,120,12|2,1:2|1:0,2:0:0:0:
510,237,223611,1,2,1:0:0:0:
512,160,223736,1,12,1:2:0:0:
512,160,223861,1,0,1:0:0:0:
275,131,223986,6,0,P|319:138|370:131,1,90,14|0,1:0|2:0,2:0:0:0:
395,168,224236,1,12,1:2:0:0:
246,237,224361,1,0,1:0:0:0:
155,199,224486,2,0,P|84:200|23:193,1,120,14|12,1:0|1:2,2:0:0:0:
152,309,224861,1,0,1:0:0:0:
6,329,224986,2,0,L|65:322,1,60,14|0,1:0|2:0,2:0:0:0:
221,370,225236,2,0,L|280:376,1,60,12|0,1:2|2:0,2:0:0:0:
412,369,225486,2,0,P|418:307|416:250,1,120,14|12,1:0|1:2,2:0:0:0:
329,287,225861,1,8,1:2:0:0:
455,167,225986,102,0,L|375:168,1,60,14|0,1:0|2:0,2:0:0:0:
280,101,226236,2,0,P|212:102|141:85,1,120,12|2,1:2|1:0,2:0:0:0:
118,27,226611,1,2,1:0:0:0:
191,0,226736,1,12,1:2:0:0:
161,174,226861,2,0,P|166:226|195:300,1,120,10|0,1:0|0:0,2:0:0:0:
49,384,227236,2,0,P|44:332|15:258,1,120,12|2,1:2|1:0,2:0:0:0:
46,192,227611,1,0,1:0:0:0:
3,130,227736,1,12,1:2:0:0:
3,130,227861,1,0,1:0:0:0:
161,174,227986,6,0,L|234:177,1,60,10|0,1:0|2:0,2:0:0:0:
342,135,228236,2,0,B|400:154|400:154|475:132,1,120,12|2,1:2|1:0,2:0:0:0:
510,222,228611,1,2,1:0:0:0:
462,284,228736,1,12,1:2:0:0:
342,135,228861,2,0,P|345:79|342:5,1,120,10|0,1:0|0:0,2:0:0:0:
168,63,229236,2,0,L|239:63,1,60,12|0,1:2|2:0,2:0:0:0:
299,211,229486,2,0,P|282:271|240:327,1,120,10|12,1:0|1:2,2:0:0:0:
178,354,229861,1,0,1:0:0:0:
46,322,229986,102,0,L|117:322,1,60,10|0,1:0|2:0,2:0:0:0:
307,376,230236,2,0,P|356:376|436:350,1,120,12|2,1:2|1:0,2:0:0:0:
486,308,230611,1,2,1:0:0:0:
486,308,230736,1,12,1:2:0:0:
393,227,230861,2,0,P|384:161|388:84,1,120,10|0,1:0|0:2,2:0:0:0:
505,0,231236,2,0,P|514:66|510:143,1,120,12|2,1:2|1:0,2:0:0:0:
474,209,231611,1,2,1:0:0:0:
509,286,231736,1,12,1:2:0:0:
509,286,231861,1,0,1:0:0:0:
393,227,231986,6,0,L|313:227,1,60,14|0,1:0|2:0,2:0:0:0:
247,185,232236,1,12,1:2:0:0:
247,185,232361,1,0,1:0:0:0:
143,260,232486,2,0,P|80:260|8:232,1,120,14|12,1:0|1:2,2:0:0:0:
58,152,232861,1,0,1:0:0:0:
30,80,232986,102,0,L|31:6,1,60,10|0,1:0|0:0,2:0:0:0:
125,0,233236,1,8,1:2:0:0:
125,0,233361,1,8,1:2:0:0:
179,59,233486,1,8,1:3:0:0:
187,84,233548,1,4,1:3:0:0:
185,111,233611,1,8,1:3:0:0:
173,140,233673,1,4,1:3:0:0:
173,140,233736,2,0,L|123:145,1,30,2|0,1:0|2:0,2:0:0:0:
57,246,233861,2,0,L|27:243,1,30,0|0,1:0|2:0,2:0:0:0:
27,243,234486,5,12,1:0:0:0:
222,364,234736,1,12,1:2:0:0:
299,339,234861,2,0,P|358:346|418:341,1,120,10|0,1:0|0:0,2:0:0:0:
507,382,235236,2,0,L|515:304,1,60,12|0,1:2|2:0,2:0:0:0:
449,252,235486,1,2,1:0:0:0:
449,252,235611,1,2,1:0:0:0:
506,169,235736,2,0,P|506:115|497:70,1,90,12|0,1:2|2:0,2:0:0:0:
480,44,235986,101,10,1:0:0:0:
299,107,236236,1,12,1:2:0:0:
115,56,236486,1,2,1:0:0:0:
26,95,236611,1,2,1:0:0:0:
26,95,236736,1,12,1:2:0:0:
129,178,236861,2,0,P|120:250|98:304,1,120,10|0,1:0|0:2,2:0:0:0:
211,364,237236,2,0,L|271:364,1,60,12|0,1:2|2:0,2:0:0:0:
362,334,237486,1,2,1:0:0:0:
439,368,237611,1,0,1:0:0:0:
439,368,237736,2,0,L|499:368,1,60,12|0,1:2|0:0,2:0:0:0:
364,253,237986,5,14,1:0:0:0:
501,117,238236,1,12,1:2:0:0:
372,24,238486,1,2,1:0:0:0:
306,68,238611,1,2,1:0:0:0:
306,68,238736,1,12,1:2:0:0:
222,21,238861,2,0,P|164:28|91:15,1,120,14|0,1:0|0:0,2:0:0:0:
39,128,239236,2,0,L|50:199,1,60,12|0,1:2|0:0,2:0:0:0:
146,268,239486,2,0,L|135:339,1,60,2|2,1:0|2:1,2:0:0:0:
275,236,239736,1,12,1:2:0:0:
275,236,239861,1,0,1:0:0:0:
389,298,239986,102,0,P|460:302|509:293,1,120,10|12,1:0|1:2,2:0:0:0:
448,180,240361,1,0,1:0:0:0:
502,45,240486,2,0,P|505:83|502:119,1,60,10|0,1:0|2:0,2:0:0:0:
348,150,240736,2,0,P|291:150|247:137,1,90,12|0,1:2|2:0,2:0:0:0:
222,116,240986,1,10,1:0:0:0:
142,292,241236,2,0,L|142:328,2,30,8|8|8,1:2|1:2|1:2,2:0:0:0:
51,205,241486,1,10,1:0:0:0:
9,298,241611,1,8,1:2:0:0:
9,298,241673,1,8,1:2:0:0:
9,298,241736,1,8,1:2:0:0:
50,363,241861,1,8,1:2:0:0:
225,276,241986,6,0,P|263:275|296:271,1,60,14|8,1:0|1:2,2:0:0:0:
410,316,242236,1,10,1:0:0:0:
410,316,242361,1,8,1:2:0:0:
493,179,242486,1,10,1:0:0:0:
404,209,242611,1,8,1:2:0:0:
331,183,242736,1,8,1:2:0:0:
465,90,242861,2,0,P|409:94|327:84,1,120,10|8,1:0|1:0,2:0:0:0:
246,10,243236,37,12,1:2:0:0:
50,222,243486,1,2,1:0:0:0:
81,295,243611,1,2,1:0:0:0:
50,363,243736,1,12,1:2:0:0:
62,18,243986,54,0,P|60:53|61:84,1,60,14|0,1:0|2:0,2:0:0:0:
163,200,244236,2,0,P|207:201|268:189,1,90,12|0,1:2|2:0,2:0:0:0:
296,177,244486,1,2,1:0:0:0:
371,210,244611,1,2,1:0:0:0:
371,210,244736,1,12,1:2:0:0:
479,144,244861,2,0,P|475:209|480:279,1,120,10|0,1:0|0:0,2:0:0:0:
355,305,245236,2,0,P|357:340|356:371,1,60,12|0,1:2|2:0,2:0:0:0:
232,331,245486,1,2,1:0:0:0:
156,349,245611,1,2,1:0:0:0:
84,330,245736,1,12,1:2:0:0:
252,102,245986,6,0,L|314:102,1,60,14|0,1:0|2:0,2:0:0:0:
396,59,246236,2,0,P|465:60|521:42,1,120,12|2,1:2|1:0,2:0:0:0:
447,157,246611,1,2,1:0:0:0:
485,244,246736,1,12,1:2:0:0:
442,312,246861,2,0,P|373:311|317:329,1,120,10|0,1:0|0:0,2:0:0:0:
263,276,247236,1,12,1:2:0:0:
0,95,247486,1,2,1:0:0:0:
94,65,247611,1,2,1:0:0:0:
184,94,247736,1,12,1:2:0:0:
184,94,247861,1,0,1:0:0:0:
265,84,247986,102,0,P|329:89|401:83,1,120,14|12,1:0|1:2,2:0:0:0:
447,157,248361,1,0,1:0:0:0:
305,202,248486,2,0,L|387:202,1,60,14|0,1:0|2:0,2:0:0:0:
485,244,248736,1,12,1:2:0:0:
207,339,248986,2,0,P|143:334|75:344,1,120,14|12,1:0|1:2,2:0:0:0:
28,261,249361,1,8,1:2:0:0:
76,198,249486,1,12,1:2:0:0:
76,198,249611,1,8,1:2:0:0:
145,234,249736,2,2,L|248:234,1,90,10|0,1:0|2:0,2:1:0:0:
269,271,249986,85,8,1:0:0:0:
444,350,250236,2,0,L|443:382,4,21,0|0|0|0|8,1:0|1:0|1:0|1:0|1:2,2:0:0:0:
496,289,250736,1,8,1:2:0:0:
457,224,250986,1,0,1:0:0:0:
457,224,251236,1,8,1:2:0:0:
362,310,251486,2,0,P|299:312|233:293,1,126,8|0,1:2|0:0,2:0:0:0:
189,236,251986,5,10,1:0:0:0:
189,236,252486,1,8,1:2:0:0:
227,153,252736,1,8,1:2:0:0:
198,83,252986,1,0,1:0:0:0:
198,83,253236,1,8,1:2:0:0:
101,166,253486,2,0,P|98:241|108:294,1,126,8|0,1:2|0:0,2:0:0:0:
145,358,253986,1,14,1:0:0:0:
256,192,254048,12,0,255611,2:0:0:0:
385,38,269986,70,0,P|383:80|386:123,1,69,14|0,1:0|2:0,2:0:0:0:
492,174,270236,2,0,P|486:250|456:321,1,138,10|0,1:0|1:0,2:0:0:0:
369,278,270611,1,0,1:0:0:0:
292,303,270736,2,0,L|202:303,1,69,10|0,1:0|2:0,2:0:0:0:
31,213,270986,6,0,B|98:233|98:233|184:208,1,138,10|0,1:0|1:0,2:0:0:0:
231,142,271361,1,0,3:0:0:0:
231,142,271423,1,0,3:0:0:0:
231,142,271486,2,0,L|212:65,1,69,10|0,1:0|2:0,2:0:0:0:
89,52,271736,1,10,1:0:0:0:
89,52,271861,1,0,1:0:0:0:
31,213,271986,102,0,P|30:292|39:350,1,138,14|0,1:0|1:0,2:0:0:0:
142,305,272361,1,0,1:0:0:0:
256,372,272486,2,0,P|258:341|257:301,1,69,10|0,1:0|0:0,2:0:0:0:
371,243,272736,1,10,1:0:0:0:
371,243,272861,1,0,1:0:0:0:
485,309,272986,6,0,P|494:243|494:162,1,138,14|0,1:0|1:0,2:0:0:0:
384,109,273361,1,0,3:0:0:0:
384,109,273423,1,0,3:0:0:0:
384,109,273486,2,0,L|286:99,1,69,10|0,1:0|0:0,2:0:0:0:
240,161,273736,1,10,1:0:0:0:
240,161,273861,1,0,1:0:0:0:
142,0,273986,102,2,P|228:12|357:1,1,207,14|0,1:0|0:0,2:1:0:0:
484,21,274486,2,0,L|469:100,1,69,10|0,1:0|2:0,2:0:0:0:
389,197,274736,2,0,L|404:276,1,69,10|0,1:0|0:0,2:0:0:0:
493,376,274986,5,10,1:0:0:0:
493,376,275111,1,0,1:0:0:0:
370,340,275236,2,0,P|313:334|227:341,2,138,10|10|2,1:0|1:0|1:0,2:0:0:0:
303,230,275861,1,2,1:0:0:0:
182,276,275986,102,0,P|144:275|95:265,1,69,14|0,1:0|2:0,2:0:0:0:
38,159,276236,2,0,P|108:153|175:119,1,138,10|0,1:0|1:0,2:0:0:0:
90,24,276611,1,0,3:0:0:0:
90,24,276673,1,0,3:0:0:0:
90,24,276736,2,0,L|4:25,1,69,10|0,1:0|0:0,2:0:0:0:
209,12,276986,5,14,1:0:0:0:
304,35,277111,1,0,1:0:0:0:
304,35,277236,1,10,1:0:0:0:
491,181,277486,1,10,1:0:0:0:
470,186,277548,1,0,1:0:0:0:
449,182,277611,1,0,1:0:0:0:
373,208,277736,2,0,P|323:200|259:207,1,103.5,10|0,1:0|2:0,2:0:0:0:
245,239,277986,101,14,1:0:0:0:
298,320,278111,1,0,1:0:0:0:
252,384,278236,1,10,1:0:0:0:
39,228,278486,2,0,P|37:191|40:148,1,69,10|0,1:0|2:0,2:0:0:0:
105,84,278736,1,10,1:0:0:0:
105,84,278861,1,2,1:0:0:0:
199,122,278986,6,0,P|256:116|329:68,1,138,10|0,1:0|1:0,2:0:0:0:
451,35,279361,1,0,3:0:0:0:
451,35,279423,1,0,3:0:0:0:
451,35,279486,2,0,P|452:78|445:132,1,69,10|0,1:0|0:0,2:0:0:0:
373,208,279736,2,0,P|372:251|379:305,1,69,10|0,1:0|0:0,2:0:0:0:
474,367,279986,101,14,1:0:0:0:
505,272,280111,1,0,1:0:0:0:
480,199,280236,1,10,1:0:0:0:
480,199,280361,1,0,1:0:0:0:
373,208,280486,2,0,P|336:208|290:206,1,69,10|0,1:0|0:0,2:0:0:0:
168,267,280736,1,10,1:0:0:0:
248,268,280861,1,2,1:0:0:0:
140,289,280986,6,0,P|85:281|5:222,1,138,14|0,1:0|1:0,2:0:0:0:
110,145,281361,1,0,3:0:0:0:
110,145,281423,1,0,3:0:0:0:
110,145,281486,2,0,P|112:97|110:52,1,69,10|0,1:0|0:0,2:0:0:0:
34,19,281736,1,10,1:0:0:0:
34,19,281861,1,0,1:0:0:0:
194,7,281986,102,0,B|255:35|255:35|345:4,2,138,14|10|0,1:0|1:0|1:0,2:0:0:0:
258,124,282611,1,0,1:0:0:0:
216,225,282736,2,0,L|308:227,1,69,10|0,1:0|2:0,2:0:0:0:
179,354,282986,6,0,P|259:349|334:361,1,138,10|0,1:0|1:0,2:0:0:0:
410,328,283361,1,0,1:0:0:0:
502,384,283486,2,0,L|505:306,1,69,10|0,1:0|2:0,2:0:0:0:
436,233,283736,1,10,1:0:0:0:
498,186,283861,1,2,1:0:0:0:
378,141,283986,102,0,P|333:120|282:35,1,138,14|0,1:0|1:0,2:0:0:0:
457,36,284361,1,0,3:0:0:0:
457,36,284423,1,0,3:0:0:0:
457,36,284486,2,0,P|459:80|456:134,1,69,14|0,1:0|0:0,2:0:0:0:
436,233,284736,2,0,P|434:277|437:331,1,69,10|0,1:0|0:0,2:0:0:0:
349,346,284986,5,14,1:0:0:0:
278,318,285111,1,0,1:0:0:0:
278,318,285236,1,14,1:0:0:0:
59,367,285486,1,10,1:0:0:0:
52,347,285548,1,0,1:0:0:0:
55,326,285611,1,2,1:0:0:0:
19,255,285736,2,0,P|22:222|20:167,1,69,10|0,1:0|0:0,2:0:0:0:
139,78,285986,102,0,P|146:157|169:223,1,138,14|0,1:0|1:0,2:0:0:0:
264,187,286361,1,0,1:0:0:0:
339,215,286486,2,0,L|416:218,1,69,14|0,1:0|2:0,2:0:0:0:
489,118,286736,2,0,L|420:115,1,69,10|0,1:0|0:0,2:0:0:0:
339,13,286986,6,0,P|278:21|193:13,2,138,14|10|0,1:0|1:0|1:0,2:0:0:0:
263,112,287611,1,0,1:0:0:0:
339,215,287736,1,10,1:0:0:0:
339,215,287861,1,2,1:0:0:0:
250,348,287986,102,0,P|331:340|399:357,1,138,14|10,1:0|1:0,2:0:0:0:
499,283,288361,1,0,3:0:0:0:
499,283,288423,1,0,3:0:0:0:
499,283,288486,2,0,L|413:279,1,69,10|0,1:0|0:0,2:0:0:0:
339,215,288736,2,0,L|253:211,1,69,10|0,1:0|2:0,2:0:0:0:
158,280,288986,6,0,B|93:258|93:258|22:277,2,138,14|10|14,1:0|1:0|1:0,2:0:0:0:
91,168,289611,1,0,1:0:0:0:
188,88,289736,2,0,P|190:134|183:174,1,69,10|0,1:0|0:0,2:0:0:0:
339,215,289986,102,0,P|372:215|472:144,1,138,14|0,1:0|1:0,2:0:0:0:
470,88,290361,1,0,1:0:0:0:
355,22,290486,2,0,P|353:68|360:108,1,69,10|0,1:0|2:0,2:0:0:0:
425,240,290736,1,10,1:0:0:0:
425,240,290861,1,0,1:0:0:0:
354,356,290986,6,0,P|289:348|190:356,2,138,14|14|14,1:0|1:0|1:0,2:0:0:0:
446,327,291611,1,0,1:0:0:0:
265,263,291736,2,0,L|340:264,1,69,10|0,1:0|0:0,2:0:0:0:
134,341,291986,101,14,1:0:0:0:
134,341,292111,1,0,1:0:0:0:
58,200,292236,1,14,1:0:0:0:
58,200,292361,1,0,1:0:0:0:
126,86,292486,1,14,1:0:0:0:
126,86,292611,1,0,1:0:0:0:
24,10,292736,6,0,P|22:50|24:90,1,69,10|0,1:0|0:0,2:0:0:0:
149,182,292986,2,0,P|203:179|294:128,1,138,14|8,1:0|1:0,2:0:0:0:
501,16,293486,1,10,1:0:0:0:
495,35,293548,1,0,1:0:0:0:
499,55,293611,1,2,1:0:0:0:
481,131,293736,2,0,P|483:174|481:218,1,69,10|0,1:0|0:0,2:0:0:0:
383,291,293986,102,0,P|329:288|238:237,1,138,14|0,1:0|1:0,2:0:0:0:
146,364,294361,1,0,3:0:0:0:
146,364,294423,1,0,3:0:0:0:
146,364,294486,2,0,L|143:282,1,69,10|0,1:0|2:0,2:0:0:0:
21,337,294736,2,0,L|24:255,1,69,10|0,1:0|0:0,2:0:0:0:
43,140,294986,6,0,B|108:162|108:162|179:143,2,138,14|14|14,1:0|1:0|1:0,2:0:0:0:
128,68,295611,1,0,1:0:0:0:
0,9,295736,2,0,L|76:11,1,69,10|0,1:0|1:0,2:0:0:0:
218,62,295986,102,0,L|386:59,1,138,14|0,1:0|1:0,2:0:0:0:
494,156,296361,1,0,3:0:0:0:
494,156,296423,1,0,3:0:0:0:
494,156,296486,2,0,L|416:151,1,69,10|0,1:0|0:0,2:0:0:0:
342,249,296736,1,10,1:0:0:0:
419,250,296861,1,0,1:0:0:0:
316,273,296986,6,0,P|255:270|173:230,1,138,14|0,1:0|1:0,2:0:0:0:
246,159,297361,1,0,1:0:0:0:
99,234,297486,2,0,P|101:303|89:385,1,138,10|0,1:0|1:0,2:0:0:0:
12,174,297986,102,0,L|17:91,1,69,14|0,1:0|2:0,2:0:0:0:
175,51,298236,2,0,P|113:29|42:24,2,138,10|10|0,1:0|1:0|1:0,2:0:0:0:
278,79,298861,1,0,3:0:0:0:
278,79,298923,1,0,3:0:0:0:
278,79,298986,6,0,P|276:33|280:-1,1,69,14|0,1:0|2:0,2:0:0:0:
438,130,299236,2,0,P|383:153|294:159,2,138,14|14|2,1:0|1:0|1:0,2:0:0:0:
494,51,299861,1,2,1:0:0:0:
475,218,299986,102,0,P|469:299|471:364,1,138,14|14,1:0|1:0,2:0:0:0:
343,265,300361,1,0,1:0:0:0:
216,365,300486,2,0,P|222:284|220:219,1,138,14|0,1:0|1:0,2:0:0:0:
64,191,300861,1,0,3:0:0:0:
64,191,300923,1,0,3:0:0:0:
64,191,300986,6,0,L|146:188,1,69,14|0,1:0|0:0,2:0:0:0:
240,116,301236,2,0,L|322:119,1,69,14|0,1:0|0:0,2:0:0:0:
135,32,301486,2,0,L|90:34,1,34.5,10|0,1:0|1:0,2:0:0:0:
40,79,301611,1,2,1:0:0:0:
40,79,301673,1,0,1:0:0:0:
40,79,301736,1,10,1:0:0:0:
