osu file format v14

[General]
AudioFilename: Golden Time Ending 1 (ED 1) (HD) - -Sweet Sweet CHERRY- by Yui Horie.mp3
AudioLeadIn: 2000
PreviewTime: 18818
Countdown: 0
SampleSet: Soft
StackLeniency: 0.7
Mode: 0
LetterboxInBreaks: 0
WidescreenStoryboard: 0

[Editor]
DistanceSpacing: 0.8
BeatDivisor: 4
GridSize: 8
TimelineZoom: 0.9999997

[Metadata]
Title:Sweet & Sweet CHERRY
TitleUnicode:Sweet & Sweet CHERRY
Artist:Horie Yui
ArtistUnicode:堀江由衣
Creator:ganad
Version:RE: Normal
Source:ゴールデンタイム
Tags:Golden Time TV size
BeatmapID:1007428
BeatmapSetID:281729

[Difficulty]
HPDrainRate:4
CircleSize:2.5
OverallDifficulty:4
ApproachRate:4.5
SliderMultiplier:1.2
SliderTickRate:1

[Events]
//Background and Video events
Video,0,"Golden Time Ending 1 (ED 1) (HD) - -Sweet & Sweet CHERRY- by Yui Horie.avi"
0,0,"Golden Time.jpg",0,0
//Break Periods
//Storyboard Layer 0 (Background)
//Storyboard Layer 1 (Fail)
//Storyboard Layer 2 (Pass)
//Storyboard Layer 3 (Foreground)
//Storyboard Sound Samples

[TimingPoints]
-1375,576.923076923077,4,2,1,55,1,0
56317,-100,4,2,1,70,0,1
65403,-100,4,2,1,70,0,0
65548,-100,4,2,1,70,0,1
74778,-100,4,2,1,55,0,0

[Colours]
Combo1 : 87,118,174
Combo2 : 255,4,249
Combo3 : 249,242,11
Combo4 : 242,34,65

[HitObjects]
272,224,355,37,0,0:0:0:0:
184,260,932,2,0,P|180:199|224:144,1,120,2|0,0:0|0:0,0:0:0:0:
256,128,1798,2,0,P|288:128|332:148,1,60,0|2,0:0|0:0,0:0:0:0:
408,132,2663,1,0,0:0:0:0:
408,132,2951,2,0,P|403:175|384:204,2,60,0|2|0,0:0|0:0|0:0,0:0:0:0:
385,89,3817,6,0,P|320:52|244:50,1,120,0|2,0:0|0:0,0:0:0:0:
184,76,4971,2,0,L|120:36,2,60,0|0|8,0:0|0:0|0:0,0:0:0:0:
120,148,6125,2,0,L|56:108,2,60,0|0|8,0:0|0:0|0:0,0:0:0:0:
168,228,7278,1,0,0:0:0:0:
248,172,7855,6,0,P|264:228|240:292,1,120,2|0,0:0|0:0,0:0:0:0:
216,324,8721,2,0,L|160:364,1,60,0|8,0:0|0:0,0:0:0:0:
80,316,9586,2,0,B|48:252,1,60
64,216,10163,6,0,B|80:152|80:152|144:124,1,120,4|8,0:0|0:0,0:0:0:0:
216,96,11317,2,0,L|288:72,2,60,2|0|8,0:0|0:0|0:0,0:0:0:0:
264,176,12471,6,0,L|336:152,2,60,2|0|8,0:0|0:0|0:0,0:0:0:0:
168,200,13625,2,0,P|192:256|264:272,1,120,2|8,0:0|0:0,0:0:0:0:
328,328,14778,5,8,0:0:0:0:
328,328,15067,2,0,P|342:280|337:249,1,60,0|8,0:0|0:0,0:0:0:0:
376,184,15932,1,2,0:0:0:0:
376,184,16221,2,0,B|335:170|293:189,2,60,8|8|8,0:0|0:0|0:0,0:0:0:0:
256,192,17086,12,8,18817,0:0:0:0:
192,176,19394,5,4,0:0:0:0:
136,256,19971,1,8,0:0:0:0:
136,256,20259,2,0,P|165:270|201:272,1,60,0|2,0:0|0:0,0:0:0:0:
288,264,21125,1,8,0:0:0:0:
384,264,21701,6,0,P|360:200|296:168,1,120,2|8,0:0|0:0,0:0:0:0:
344,136,22567,1,0,0:0:0:0:
344,136,22855,2,0,B|328:80|416:80|416:16,1,120,2|8,0:0|0:0,0:0:0:0:
312,24,24009,6,0,P|272:64|261:140,1,120,8|8,0:0|0:0,0:0:0:0:
256,168,24875,1,0,0:0:0:0:
256,168,25163,2,0,B|224:112|224:112|160:80,1,120,2|0,0:0|0:0,0:0:0:0:
80,104,26317,6,0,B|104:153|104:153|161:181,1,120,8|8,0:0|0:0,0:0:0:0:
232,248,27471,2,0,L|304:248,2,60,2|0|8,0:0|0:0|0:0,0:0:0:0:
216,344,28625,6,0,P|163:318|137:263,1,120,4|8,0:0|0:0,0:0:0:0:
72,192,29778,2,0,L|16:232,2,60,2|0|8,0:0|0:0|0:0,0:0:0:0:
72,96,30932,6,0,P|136:112|168:168,1,120,8|8,0:0|0:0,0:0:0:0:
208,144,31798,2,0,L|264:112,1,60,0|2,0:0|0:0,0:0:0:0:
312,112,32375,2,0,L|368:80,1,60,0|8,0:0|0:0,0:0:0:0:
456,72,33240,6,0,B|448:136|448:136|392:168,1,120,2|8,0:0|0:0,0:0:0:0:
392,208,34105,1,0,0:0:0:0:
400,256,34394,2,0,B|448:283|448:283|456:347,1,120,2|8,0:0|0:0,0:0:0:0:
360,336,35548,6,0,L|216:336,1,120,2|0,0:0|0:0,0:0:0:0:
152,304,36701,2,0,P|144:336|152:368,2,60,2|0|0,0:0|0:0|0:0,0:0:0:0:
192,216,37855,6,0,P|222:234|235:268,2,60,4|0|8,0:0|0:0|0:0,0:0:0:0:
144,195,38721,2,0,L|80:152,1,60,0|2,0:0|0:0,0:0:0:0:
64,128,39298,2,0,P|46:91|51:59,1,60,0|8,0:0|0:0,0:0:0:0:
144,80,40163,5,2,0:0:0:0:
144,80,40451,2,0,L|208:64,1,60,0|8,0:0|0:0,0:0:0:0:
296,80,41317,1,2,0:0:0:0:
296,80,41605,2,0,L|368:104,1,60,0|8,0:0|0:0,0:0:0:0:
384,192,42471,6,0,L|456:192,2,60,2|0|8,0:0|0:0|0:0,0:0:0:0:
352,285,43625,1,2,0:0:0:0:
352,285,43913,2,0,L|296:304,1,60,0|8,0:0|0:0,0:0:0:0:
200,288,44778,5,2,0:0:0:0:
200,288,45067,2,0,L|141:273,1,60,0|8,0:0|0:0,0:0:0:0:
96,192,45932,2,0,L|16:192,2,60,2|8|8,0:0|0:0|0:0,0:0:0:0:
192,176,47086,6,0,P|168:120|96:96,1,120,4|8,0:0|0:0,0:0:0:0:
80,64,47951,1,0,0:0:0:0:
80,64,48240,2,0,B|160:64|160:64|200:32,1,120,2|8,0:0|0:0,0:0:0:0:
288,48,49394,6,0,L|360:40,2,60,2|0|8,0:0|0:0|0:0,0:0:0:0:
328,136,50548,2,0,L|400:128,2,60,2|0|8,0:0|0:0|0:0,0:0:0:0:
232,152,51701,6,0,P|256:208|312:232,1,120,2|8,0:0|0:0,0:0:0:0:
328,136,52855,2,0,P|304:80|248:56,1,120,2|8,0:0|0:0,0:0:0:0:
256,192,54009,12,8,55740,0:0:0:0:
96,128,56317,6,0,P|136:80|192:72,1,120,4|8,0:0|0:0,0:0:0:0:
192,168,57471,2,0,P|248:152|280:96,1,120,2|8,0:0|0:0,0:0:0:0:
360,56,58625,5,2,0:0:0:0:
392,88,58913,1,0,0:0:0:0:
400,136,59201,1,0,0:0:0:0:
384,232,59778,2,0,P|344:288|288:288,1,120,2|0,0:0|0:0,0:0:0:0:
288,192,60932,6,0,P|230:201|201:251,1,120,2|0,0:0|0:0,0:0:0:0:
120,304,62086,2,0,P|168:353|223:344,1,120,2|8,0:0|0:0,0:0:0:0:
312,328,63240,5,2,0:0:0:0:
360,312,63528,1,0,0:0:0:0:
400,280,63817,1,8,0:0:0:0:
432,192,64394,2,0,L|488:216,2,60,2|0|8,0:0|0:0|0:0,0:0:0:0:
336,208,65548,6,0,P|344:136|392:104,1,120,4|0,0:0|0:0,0:0:0:0:
472,88,66701,2,0,P|448:40|368:16,1,120,2|8,0:0|0:0,0:0:0:0:
304,56,67855,6,0,L|240:0,2,60,2|0|0,0:0|0:0|0:0,0:0:0:0:
264,144,69009,1,2,0:0:0:0:
288,240,69586,1,8,0:0:0:0:
232,320,70163,22,0,B|160:256|80:192|0:136|112:16|200:16|232:72|232:104,1,420,2|0,0:0|0:0,0:0:0:0:
264,96,72471,2,0,B|263:83|306:9|423:13|488:130|425:174|367:257|263:345,1,480,2|2,0:0|0:0,0:0:0:0:
176,312,75355,5,0,0:0:0:0:
176,312,75644,2,0,L|128:248,1,60,0|2,0:0|0:0,0:0:0:0:
104,176,76509,1,0,0:0:0:0:
80,136,76798,1,0,0:0:0:0:
168,88,77375,6,0,L|152:24,2,60
200,120,78240,2,0,P|256:88|312:96,1,120,2|0,0:0|0:0,0:0:0:0:
360,88,79105,1,0,0:0:0:0:
400,64,79394,5,2,0:0:0:0:
448,144,79971,2,0,P|480:120|488:72,2,60,0|0|2,0:0|0:0|0:0,0:0:0:0:
376,208,81125,1,0,0:0:0:0:
256,232,81846,5,2,0:0:0:0:
160,168,82566,1,2,0:0:0:0:
256,96,83288,1,0,0:0:0:0:
