osu file format v14

[General]
AudioFilename: Golden Time Ending 1 (ED 1) (HD) - -Sweet Sweet CHERRY- by Yui Horie.mp3
AudioLeadIn: 2000
PreviewTime: 18818
Countdown: 0
SampleSet: Soft
StackLeniency: 0.7
Mode: 0
LetterboxInBreaks: 0
WidescreenStoryboard: 0

[Editor]
DistanceSpacing: 1.4
BeatDivisor: 4
GridSize: 8
TimelineZoom: 1.9

[Metadata]
Title:Sweet & Sweet CHERRY
TitleUnicode:Sweet & Sweet CHERRY
Artist:Horie Yui
ArtistUnicode:堀江由衣
Creator:ganad
Version:RE: Hard
Source:ゴールデンタイム
Tags:Golden Time TV size
BeatmapID:1007427
BeatmapSetID:281729

[Difficulty]
HPDrainRate:5
CircleSize:3.5
OverallDifficulty:5
ApproachRate:6
SliderMultiplier:1.4
SliderTickRate:1

[Events]
//Background and Video events
0,0,"Golden Time.jpg",0,0
Video,0,"Golden Time Ending 1 (ED 1) (HD) - -Sweet & Sweet CHERRY- by Yui Horie.avi"
//Break Periods
//Storyboard Layer 0 (Background)
//Storyboard Layer 1 (Fail)
//Storyboard Layer 2 (Pass)
//Storyboard Layer 3 (Foreground)
//Storyboard Sound Samples

[TimingPoints]
-1375,576.923076923077,4,2,1,55,1,0
6701,-133.333333333333,4,2,1,55,0,0
7855,-100,4,2,1,55,0,0
42471,-133.333333333333,4,2,1,55,0,0
43048,-100,4,2,1,55,0,0
47086,-133.333333333333,4,2,1,55,0,0
48817,-100,4,2,1,55,0,0
55740,-66.6666666666667,4,2,1,55,0,0
56317,-100,4,2,1,70,0,1
57471,-80,4,2,1,70,0,1
58048,-100,4,2,1,70,0,1
65403,-100,4,2,1,70,0,0
65548,-100,4,2,1,70,0,1
72326,-200,4,2,1,70,0,1
74778,-100,4,2,1,55,0,0
80334,-200,4,2,1,55,0,0

[Colours]
Combo1 : 87,118,174
Combo2 : 255,4,249
Combo3 : 249,242,11
Combo4 : 242,34,65

[HitObjects]
88,32,355,5,0,0:0:0:0:
136,48,499,1,0,0:0:0:0:
168,88,644,1,0,0:0:0:0:
80,128,932,5,2,0:0:0:0:
112,296,1509,1,0,0:0:0:0:
152,328,1653,1,0,0:0:0:0:
200,320,1798,1,0,0:0:0:0:
288,272,2086,2,0,P|328:248|344:208,1,70,2|0,0:0|0:0,0:0:0:0:
264,168,2663,2,0,P|288:136|336:120,1,70
488,120,3240,5,2,0:0:0:0:
424,216,3528,1,0,0:0:0:0:
376,112,3817,1,0,0:0:0:0:
272,80,4105,2,0,P|296:32|336:24,2,70,0|2|0,0:0|0:0|0:0,0:0:0:0:
256,192,4971,2,0,L|288:240,2,35
152,152,5548,5,8,0:0:0:0:
184,288,6125,2,0,L|216:336,2,35
104,232,6701,2,0,P|64:192|56:144,1,105.000004005432,8|0,0:0|0:0,0:0:0:0:
64,48,7567,1,0,0:0:0:0:
112,32,7711,1,0,0:0:0:0:
160,32,7855,6,0,L|240:32,1,70,2|0,0:0|0:0,0:0:0:0:
272,120,8432,2,0,L|352:120,1,70
392,32,9009,1,8,0:0:0:0:
448,216,9586,2,0,L|488:216,2,35
440,312,10163,6,0,B|400:288|400:288|296:304,1,140,4|8,0:0|0:0,0:0:0:0:
208,256,11028,1,0,0:0:0:0:
280,184,11317,2,0,L|328:176,2,35,2|2|0,0:0|0:0|0:0,0:0:0:0:
184,168,11894,2,0,P|144:184|128:232,1,70,8|0,0:0|0:0,0:0:0:0:
136,304,12471,6,0,P|156:331|189:341,1,70,2|0,0:0|0:0,0:0:0:0:
288,320,13048,2,0,L|376:320,1,70
424,248,13625,1,2,0:0:0:0:
440,200,13769,1,0,0:0:0:0:
424,152,13913,1,0,0:0:0:0:
336,200,14201,1,8,0:0:0:0:
160,280,14778,6,0,P|175:250|159:196,1,70,8|0,0:0|0:0,0:0:0:0:
79,236,15355,2,0,P|40:223|12:180,1,70,8|0,0:0|0:0,0:0:0:0:
101,146,15932,2,0,P|126:121|185:120,1,70,8|0,0:0|0:0,0:0:0:0:
208,104,16365,2,0,L|248:104,1,35
336,144,16798,1,0,0:0:0:0:
256,192,17086,12,8,18817,0:0:0:0:
320,304,19105,5,0,0:0:0:0:
344,208,19394,2,0,P|360:168|352:128,1,70,4|0,0:0|0:0,0:0:0:0:
288,72,19971,1,8,0:0:0:0:
256,168,20259,2,0,P|248:200|256:240,1,70,0|2,0:0|0:0,0:0:0:0:
320,304,20836,2,0,P|352:312|400:272,1,70,0|8,0:0|0:0,0:0:0:0:
440,216,21413,1,0,0:0:0:0:
440,216,21701,6,0,B|432:184|432:184|456:136,1,70,2|0,0:0|0:0,0:0:0:0:
472,56,22278,1,8,0:0:0:0:
376,88,22567,1,0,0:0:0:0:
296,144,22855,2,0,P|279:115|285:68,2,70,2|0|8,0:0|0:0|0:0,0:0:0:0:
352,224,23721,1,0,0:0:0:0:
264,272,24009,6,0,P|235:288|178:286,1,70,2|0,0:0|0:0,0:0:0:0:
208,192,24586,1,8,0:0:0:0:
120,224,24875,1,0,0:0:0:0:
80,130,25163,2,0,P|49:146|32:176,2,70,8|0|8,0:0|0:0|0:0,0:0:0:0:
264,72,26317,5,2,0:0:0:0:
352,112,26605,2,0,L|379:88,2,35,0|0|8,0:0|0:0|0:0,0:0:0:0:
416,24,27182,2,0,P|446:50|452:89,1,70,0|8,0:0|0:0,0:0:0:0:
416,168,27759,2,0,P|408:208|432:248,1,70,0|8,0:0|0:0,0:0:0:0:
504,288,28336,1,0,0:0:0:0:
504,288,28625,6,0,B|456:272|456:272|416:312|344:304,1,140,4|8,0:0|0:0,0:0:0:0:
280,328,29490,2,0,P|275:303|300:250,1,70,0|2,0:0|0:0,0:0:0:0:
376,208,30067,2,0,P|344:176|296:160,1,70,0|8,0:0|0:0,0:0:0:0:
128,160,30932,5,8,0:0:0:0:
64,88,31221,2,0,P|96:65|144:66,1,70,0|8,0:0|0:0,0:0:0:0:
224,64,31798,1,0,0:0:0:0:
272,80,31942,1,0,0:0:0:0:
320,72,32086,2,0,B|336:32|392:40,1,70,2|0,0:0|0:0,0:0:0:0:
408,128,32663,2,0,P|416:160|408:200,1,70,8|0,0:0|0:0,0:0:0:0:
368,288,33240,5,2,0:0:0:0:
272,312,33528,2,0,L|296:360,2,35,0|0|8,0:0|0:0|0:0,0:0:0:0:
200,248,34105,1,0,0:0:0:0:
240,160,34394,2,0,P|270:170|288:208,1,70,2|0,0:0|0:0,0:0:0:0:
200,248,34971,2,0,P|144:208|152:152,1,105,8|0,0:0|0:0,0:0:0:0:
128,128,35548,6,0,B|160:128|160:128|184:80|232:72,1,105,2|0,0:0|0:0,0:0:0:0:
256,56,36125,2,0,B|296:80|296:80|360:80,1,105
400,80,36701,2,0,P|408:120|384:160,1,70,2|0,0:0|0:0,0:0:0:0:
448,224,37278,1,8,0:0:0:0:
448,224,37567,1,0,0:0:0:0:
360,272,37855,6,0,L|296:328,1,70,4|0,0:0|0:0,0:0:0:0:
328,176,38432,2,0,L|264:232,1,70,8|0,0:0|0:0,0:0:0:0:
264,104,39009,1,2,0:0:0:0:
240,64,39153,1,0,0:0:0:0:
216,32,39298,2,0,L|152:88,1,70,0|8,0:0|0:0,0:0:0:0:
48,128,40163,5,8,0:0:0:0:
72,224,40451,2,0,P|120:192|136:152,1,70,0|8,0:0|0:0,0:0:0:0:
168,96,41028,2,0,L|168:56,2,35,0|0|2,0:0|0:0|0:0,0:0:0:0:
216,184,41605,2,0,P|238:210|270:225,1,70,0|8,0:0|0:0,0:0:0:0:
296,128,42182,1,0,0:0:0:0:
296,128,42471,6,0,P|344:136|360:192,1,105.000004005432,8|8,0:0|0:0,0:0:0:0:
344,304,43336,1,0,0:0:0:0:
448,240,43625,2,0,L|488:208,2,35,2|0|0,0:0|0:0|0:0,0:0:0:0:
344,304,44201,1,8,0:0:0:0:
225,303,44490,1,0,0:0:0:0:
173,294,44634,1,0,0:0:0:0:
137,271,44778,6,0,P|105:247|97:207,1,70,2|0,0:0|0:0,0:0:0:0:
32,144,45355,2,0,B|56:120|104:120,1,70,8|0,0:0|0:0,0:0:0:0:
192,88,45932,2,0,P|176:48|144:32,2,70,2|8|8,0:0|0:0|0:0,0:0:0:0:
216,168,46798,1,0,0:0:0:0:
272,256,47086,6,0,L|304:200,1,52.5000020027161,4|0,0:0|0:0,0:0:0:0:
328,136,47663,1,8,0:0:0:0:
268,77,47951,2,0,P|333:52|405:103,1,157.500006008148,0|8,0:0|0:0,0:0:0:0:
456,160,49105,1,0,0:0:0:0:
456,160,49394,5,2,0:0:0:0:
464,256,49682,2,0,P|416:248|384:216,1,70,0|8,0:0|0:0,0:0:0:0:
328,168,50259,1,0,0:0:0:0:
280,176,50403,1,0,0:0:0:0:
248,208,50548,1,2,0:0:0:0:
208,296,50836,2,0,P|240:328|272:336,2,70,0|8|0,0:0|0:0|0:0,0:0:0:0:
144,224,51701,6,0,B|118:193|118:193|167:155|155:103,1,140,2|8,0:0|0:0,0:0:0:0:
56,112,52567,2,0,L|68:57,1,35
104,48,52855,2,0,B|136:16|192:32,1,70,2|0,0:0|0:0,0:0:0:0:
216,40,53288,1,0,0:0:0:0:
216,40,53432,2,0,P|243:78|244:117,1,70,8|0,0:0|0:0,0:0:0:0:
256,200,54009,5,2,0:0:0:0:
368,296,54442,1,0,0:0:0:0:
392,264,54586,1,0,0:0:0:0:
456,128,55019,2,0,L|416:96,1,35,0|2,0:0|0:0,0:0:0:0:
360,32,55307,2,0,L|320:64,1,35
176,88,55740,2,0,L|128:40,2,52.5000020027161
248,160,56317,6,0,P|200:192|128:168,1,105,4|0,0:0|0:0,0:0:0:0:
88,192,56894,2,0,L|40:160,2,35,8|0|0,0:0|0:0|0:0,0:0:0:0:
112,256,57471,2,0,P|224:272|304:216,1,175,2|0,0:0|0:0,0:0:0:0:
336,328,58336,1,0,0:0:0:0:
416,264,58625,5,2,0:0:0:0:
440,216,58769,1,0,0:0:0:0:
432,168,58913,1,0,0:0:0:0:
408,120,59057,2,0,B|368:88,1,35,0|8,0:0|0:0,0:0:0:0:
296,48,59490,2,0,B|264:32|264:32|216:32,1,70,0|2,0:0|0:0,0:0:0:0:
136,32,60067,2,0,P|144:72|184:104,1,70
160,144,60500,5,0,0:0:0:0:
128,184,60644,1,0,0:0:0:0:
40,288,60932,2,0,P|88:320|144:320,1,105,2|0,0:0|0:0,0:0:0:0:
208,304,61509,2,0,L|203:361,2,35
216,208,62086,2,0,P|255:214|277:238,1,70,2|0,0:0|0:0,0:0:0:0:
304,328,62663,1,8,0:0:0:0:
416,336,63240,6,0,B|432:304|432:304|424:256,1,70,2|0,0:0|0:0,0:0:0:0:
440,248,63673,2,0,B|424:216|424:216|424:176,1,70
440,160,64105,1,0,0:0:0:0:
352,96,64394,2,0,L|376:48,2,35,2|0|0,0:0|0:0|0:0,0:0:0:0:
280,248,64971,2,0,L|264:279,2,35,8|0|0,0:0|0:0|0:0,0:0:0:0:
315,171,65548,6,0,P|267:122|278:49,1,140,4|0,0:0|0:0,0:0:0:0:
224,64,66269,1,0,0:0:0:0:
200,72,66413,2,0,L|104:96,1,70,0|2,0:0|0:0,0:0:0:0:
56,32,66990,2,0,P|40:56|46:110,1,70,0|8,0:0|0:0,0:0:0:0:
72,192,67567,1,0,0:0:0:0:
144,264,67855,6,0,L|160:224,1,35,2|0,0:0|0:0,0:0:0:0:
240,256,68144,2,0,L|224:296,2,35
256,160,68721,1,0,0:0:0:0:
184,88,69009,2,0,P|216:64|272:64,1,70,2|0,0:0|0:0,0:0:0:0:
344,56,69586,2,0,P|376:40|432:40,1,70,8|0,0:0|0:0,0:0:0:0:
480,104,70163,6,0,B|488:136|488:136|472:176,1,70,2|0,0:0|0:0,0:0:0:0:
384,200,70740,2,0,B|376:160|376:160|400:120,2,70,0|0|2,0:0|0:0|0:0,0:0:0:0:
400,296,71605,1,0,0:0:0:0:
344,320,71750,1,0,0:0:0:0:
288,328,71894,1,0,0:0:0:0:
232,320,72038,1,0,0:0:0:0:
184,304,72182,1,0,0:0:0:0:
136,272,72326,6,0,P|104:232|104:192,1,87.5
192,208,73336,2,0,L|224:232,2,35,0|2|0,0:0|0:0|0:0,0:0:0:0:
168,104,74201,1,0,0:0:0:0:
216,80,74346,1,0,0:0:0:0:
272,80,74490,1,0,0:0:0:0:
368,48,74778,6,0,P|381:114|324:170,1,140,2|0,0:0|0:0,0:0:0:0:
368,208,75500,1,0,0:0:0:0:
416,232,75644,1,0,0:0:0:0:
424,344,75932,2,0,P|384:344|352:320,1,70
256,288,76509,2,0,L|184:280,1,70
64,296,77086,6,0,B|56:248|96:216,1,70,2|0,0:0|0:0,0:0:0:0:
168,168,77663,2,0,P|208:192|248:192,2,70,0|0|2,0:0|0:0|0:0,0:0:0:0:
360,112,78817,5,0,0:0:0:0:
344,64,78961,1,0,0:0:0:0:
296,40,79105,1,0,0:0:0:0:
200,56,79394,5,2,0:0:0:0:
56,144,79971,1,0,0:0:0:0:
49,200,80115,1,0,0:0:0:0:
70,254,80259,1,0,0:0:0:0:
111,293,80403,2,0,B|144:320|200:312,1,87.5
304,256,81846,5,2,0:0:0:0:
376,160,82566,1,2,0:0:0:0:
256,96,83288,1,0,0:0:0:0:
