osu file format v14

[General]
AudioFilename: Golden Time Ending 1 (ED 1) (HD) - -Sweet Sweet CHERRY- by Yui Horie.mp3
AudioLeadIn: 2000
PreviewTime: 18818
Countdown: 0
SampleSet: Soft
StackLeniency: 0.7
Mode: 0
LetterboxInBreaks: 0
WidescreenStoryboard: 0

[Editor]
DistanceSpacing: 1.1
BeatDivisor: 4
GridSize: 8
TimelineZoom: 1.6

[Metadata]
Title:Sweet & Sweet CHERRY
TitleUnicode:Sweet & Sweet CHERRY
Artist:Horie Yui
ArtistUnicode:堀江由衣
Creator:ganad
Version:RE: Easy
Source:ゴールデンタイム
Tags:Golden Time TV size
BeatmapID:1007426
BeatmapSetID:281729

[Difficulty]
HPDrainRate:2.5
CircleSize:2
OverallDifficulty:2
ApproachRate:2
SliderMultiplier:0.9
SliderTickRate:1

[Events]
//Background and Video events
0,0,"Golden Time.jpg",0,0
Video,0,"Golden Time Ending 1 (ED 1) (HD) - -Sweet & Sweet CHERRY- by Yui Horie.avi"
//Break Periods
//Storyboard Layer 0 (Background)
//Storyboard Layer 1 (Fail)
//Storyboard Layer 2 (Pass)
//Storyboard Layer 3 (Foreground)
//Storyboard Sound Samples

[TimingPoints]
-1375,576.923076923077,4,2,1,55,1,0
56317,-100,4,2,1,70,0,1
65403,-100,4,2,1,70,0,0
65548,-100,4,2,1,70,0,1
74778,-100,4,2,1,55,0,0

[Colours]
Combo1 : 87,118,174
Combo2 : 255,4,249
Combo3 : 249,242,11
Combo4 : 242,34,65

[HitObjects]
344,136,932,5,2,0:0:0:0:
310,232,1509,2,0,L|363:268,2,45,0|0|2,0:0|0:0|0:0,0:0:0:0:
247,156,2663,2,0,P|251:91|308:45,2,135,0|0|2,0:0|0:0|0:0,0:0:0:0:
176,224,4971,6,0,L|120:216,2,45,0|0|8,0:0|0:0|0:0,0:0:0:0:
184,320,6125,2,0,L|128:312,2,45,0|0|8,0:0|0:0|0:0,0:0:0:0:
280,328,7278,1,0,0:0:0:0:
304,232,7855,6,0,P|344:248|368:312,2,90,2|0|8,0:0|0:0|0:0,0:0:0:0:
208,224,9586,1,0,0:0:0:0:
120,184,10163,6,0,P|88:160|56:112,1,90,4|8,0:0|0:0,0:0:0:0:
152,88,11317,2,0,P|192:64|240:48,1,90,2|8,0:0|0:0,0:0:0:0:
296,120,12471,6,8,P|328:64|320:8,2,112.5,2|0|10,0:0|0:0|0:0,0:0:0:0:
279,215,14778,6,0,P|323:212|364:191,1,90,0|8,0:0|0:0,0:0:0:0:
464,208,15932,2,0,P|449:250|415:279,1,90,0|8,0:0|0:0,0:0:0:0:
320,312,17086,6,0,B|280:288|232:304|232:304|200:264|200:264|128:240|136:160,1,270
232,168,19394,5,4,0:0:0:0:
280,80,19971,2,0,L|264:32,2,45,8|0|8,0:0|0:0|0:0,0:0:0:0:
376,96,21125,1,8,0:0:0:0:
432,168,21701,6,0,P|464:200|456:256,1,90,0|8,0:0|0:0,0:0:0:0:
400,320,22855,2,0,P|368:290|368:246,1,90,2|8,0:0|0:0,0:0:0:0:
312,160,24009,5,4,0:0:0:0:
232,216,24586,2,0,L|168:184,2,45,8|8|2,0:0|0:0|0:0,0:0:0:0:
256,312,25740,1,0,0:0:0:0:
160,336,26317,5,2,0:0:0:0:
96,264,26894,2,0,P|66:306|66:365,2,90,10|8|8,0:0|0:0|0:0,0:0:0:0:
184,224,28625,6,0,P|152:184|96:168,1,90,4|8,0:0|0:0,0:0:0:0:
16,160,29778,2,0,P|30:118|60:86,1,90,2|8,0:0|0:0,0:0:0:0:
160,80,30932,6,0,P|209:106|263:166,2,135,8|0|8,0:0|0:0|0:0,0:0:0:0:
117,169,33240,5,4,0:0:0:0:
184,240,33817,2,0,L|141:291,2,45,8|0|2,0:0|0:0|0:0,0:0:0:0:
280,248,34971,1,8,0:0:0:0:
368,208,35548,6,0,P|352:176|288:152,2,90,8|0|8,0:0|0:0|0:0,0:0:0:0:
400,304,37278,1,2,0:0:0:0:
312,344,37855,6,0,L|225:322,1,90,4|10,0:0|0:0,0:0:0:0:
128,352,39009,2,0,P|120:304|160:248,1,90,8|10,0:0|0:0,0:0:0:0:
224,224,40163,6,0,P|184:176|96:184,2,135,2|8|8,0:0|0:0|0:0,0:0:0:0:
320,256,42471,5,12,0:0:0:0:
392,184,43048,2,0,L|440:192,2,45,8|8|10,0:0|0:0|0:0,0:0:0:0:
440,96,44201,1,8,0:0:0:0:
344,96,44778,6,0,P|304:128|296:176,1,90,4|8,0:0|0:0,0:0:0:0:
240,248,45932,2,0,L|296:272,2,45,10|2|8,0:0|0:0|0:0,0:0:0:0:
184,328,47086,6,0,P|144:288|144:248,1,90,4|8,0:0|0:0,0:0:0:0:
136,160,48240,2,0,L|184:72,1,90,2|8,0:0|0:0,0:0:0:0:
272,48,49394,5,2,0:0:0:0:
360,88,49971,2,0,L|384:48,2,45,8|0|2,0:0|0:0|0:0,0:0:0:0:
376,184,51125,1,8,0:0:0:0:
280,184,51701,6,0,P|296:240|320:264,1,90,4|0,0:0|0:0,0:0:0:0:
408,304,52855,2,0,P|368:352|320:360,1,90,0|8,0:0|0:0,0:0:0:0:
248,352,54009,6,8,B|208:328|161:344|161:344|155:295|111:273|111:273|128:219|92:180,1,270
184,136,56317,6,0,P|232:120|280:144,1,90,4|2,0:0|0:0,0:0:0:0:
224,224,57471,2,0,P|264:232|328:208,1,90,2|8,0:0|0:0,0:0:0:0:
408,232,58625,6,0,L|408:280,2,45,2|0|8,0:0|0:0|0:0,0:0:0:0:
456,144,59778,2,0,P|408:136|360:144,1,90,2|8,0:0|0:0,0:0:0:0:
312,224,60932,6,0,P|264:232|216:216,1,90,4|8,0:0|0:0,0:0:0:0:
272,136,62086,2,0,P|228:125|184:134,1,90,2|8,0:0|0:0,0:0:0:0:
120,208,63240,5,8,0:0:0:0:
72,296,63817,2,0,L|72:352,2,45,8|0|8,0:0|0:0|0:0,0:0:0:0:
24,208,64971,1,8,0:0:0:0:
72,120,65548,5,4,0:0:0:0:
168,95,66125,2,0,P|153:54|114:27,2,90,0|2|0,0:0|0:0|0:0,0:0:0:0:
220,185,67855,6,0,P|252:153|265:113,1,90,2|0,0:0|0:0,0:0:0:0:
252,9,69009,2,0,P|296:15|335:37,1,90,2|8,0:0|0:0,0:0:0:0:
356,137,70163,6,0,P|398:124|423:88,2,90,2|8|2,0:0|0:0|0:0,0:0:0:0:
268,185,71894,2,0,P|300:225|348:233,1,90,8|8,0:0|0:0,0:0:0:0:
436,249,73048,5,0,0:0:0:0:
388,337,73625,2,0,L|420:369,2,45,2|0|8,0:0|0:0|0:0,0:0:0:0:
296,304,74778,5,2,0:0:0:0:
200,320,75355,2,0,L|192:376,2,45,0|0|2,0:0|0:0|0:0,0:0:0:0:
176,224,76509,2,0,P|128:248|104:336,2,135,0|2|2,0:0|0:0|0:0,0:0:0:0:
272,216,78817,6,0,L|264:168,2,45,0|0|2,0:0|0:0|0:0,0:0:0:0:
368,256,79971,2,0,L|384:336,2,45,0|0|2,0:0|0:0|0:0,0:0:0:0:
448,192,81125,1,0,0:0:0:0:
376,120,81701,6,0,P|376:40|328:0,1,135,2|0,0:0|0:0,0:0:0:0:
256,96,83288,1,0,0:0:0:0:
