osu file format v14

[General]
AudioFilename: audio.mp3
AudioLeadIn: 0
PreviewTime: 55495
Countdown: 0
SampleSet: Soft
StackLeniency: 0.7
Mode: 3
LetterboxInBreaks: 0
SpecialStyle: 0
WidescreenStoryboard: 1

[Editor]
DistanceSpacing: 1.8
BeatDivisor: 4
GridSize: 16
TimelineZoom: 1

[Metadata]
Title:Sweet & Sweet CHERRY (TV Size)
TitleUnicode:Sweet & Sweet CHERRY (TV Size)
Artist:Horie Yui
ArtistUnicode:堀江由衣
Creator:Syrion-
Version:HD
Source:ゴールデンタイム
Tags:Golden Time Kohei by SIMONSAYZ Segawa 瀬川 浩平 World End Garden ワールドエンドの庭 no Niwa jpop pop anime ending ed female vocals King Record 加賀 香子 Kouko Kaga japanese
BeatmapID:4379421
BeatmapSetID:2089653

[Difficulty]
HPDrainRate:8
CircleSize:4
OverallDifficulty:7.5
ApproachRate:5
SliderMultiplier:1.4
SliderTickRate:1

[Events]
//Background and Video events
0,0,"bg2.jpg",0,0
Video,0,"video.mp4"
//Break Periods
//Storyboard Layer 0 (Background)
//Storyboard Layer 1 (Fail)
//Storyboard Layer 2 (Pass)
//Storyboard Layer 3 (Foreground)
//Storyboard Layer 4 (Overlay)
//Storyboard Sound Samples

[TimingPoints]
111.333333333333,576.923076923077,4,2,1,40,1,0

[HitObjects]
64,192,111,128,0,255:0:0:0:0:
192,192,255,128,0,399:0:0:0:0:
320,192,399,128,0,688:0:0:0:0:
64,192,688,1,0,0:0:0:0:
448,192,688,128,0,1265:0:0:0:0:
320,192,1265,128,0,1409:0:0:0:0:
192,192,1409,128,0,1553:0:0:0:0:
64,192,1553,128,0,1842:0:0:0:0:
448,192,1842,1,0,0:0:0:0:
320,192,1842,128,0,2419:0:0:0:0:
192,192,2130,1,0,0:0:0:0:
448,192,2419,1,0,0:0:0:0:
64,192,2419,128,0,2707:0:0:0:0:
320,192,2707,1,0,0:0:0:0:
192,192,2707,128,0,2995:0:0:0:0:
448,192,2995,1,0,0:0:0:0:
64,192,3284,1,0,0:0:0:0:
192,192,3284,1,0,0:0:0:0:
192,192,3572,1,0,0:0:0:0:
320,192,3572,1,0,0:0:0:0:
320,192,3861,1,0,0:0:0:0:
448,192,3861,1,0,0:0:0:0:
448,192,4149,1,0,0:0:0:0:
64,192,4149,128,0,4726:0:0:0:0:
320,192,4438,1,0,0:0:0:0:
448,192,4726,1,0,0:0:0:0:
192,192,4726,128,0,4870:0:0:0:0:
320,192,4870,128,0,5015:0:0:0:0:
448,192,5015,128,0,5303:0:0:0:0:
192,192,5303,128,0,5880:0:0:0:0:
64,192,5303,1,0,0:0:0:0:
448,192,5592,1,0,0:0:0:0:
320,192,5736,1,0,0:0:0:0:
64,192,5880,128,0,6024:0:0:0:0:
320,192,6024,128,0,6169:0:0:0:0:
448,192,6169,128,0,6457:0:0:0:0:
64,192,6457,1,0,0:0:0:0:
192,192,6457,128,0,7034:0:0:0:0:
448,192,7034,128,0,7611:0:0:0:0:
320,192,7322,1,0,0:0:0:0:
192,192,7467,1,0,0:0:0:0:
320,192,7611,1,0,0:0:0:0:
64,192,7611,1,0,0:0:0:0:
64,192,7899,1,0,0:0:0:0:
192,192,7899,1,0,0:0:0:0:
320,192,8188,1,0,0:0:0:0:
448,192,8188,1,0,0:0:0:0:
192,192,8332,1,0,0:0:0:0:
64,192,8476,1,0,0:0:0:0:
448,192,8476,128,0,9053:0:0:0:0:
320,192,8765,128,0,9053:0:0:0:0:
192,192,8765,128,0,9053:0:0:0:0:
64,192,9342,128,0,9486:0:0:0:0:
192,192,9486,128,0,9630:0:0:0:0:
448,192,9630,128,0,9919:0:0:0:0:
320,192,9919,1,0,0:0:0:0:
64,192,9919,1,0,0:0:0:0:
192,192,10207,1,0,0:0:0:0:
320,192,10351,1,0,0:0:0:0:
448,192,10495,1,0,0:0:0:0:
64,192,10495,1,0,0:0:0:0:
192,192,10784,1,0,0:0:0:0:
320,192,10784,1,0,0:0:0:0:
64,192,11072,1,0,0:0:0:0:
192,192,11217,1,0,0:0:0:0:
448,192,11361,1,0,0:0:0:0:
320,192,11505,1,0,0:0:0:0:
192,192,11649,1,0,0:0:0:0:
64,192,11649,1,0,0:0:0:0:
320,192,11938,1,0,0:0:0:0:
192,192,12082,1,0,0:0:0:0:
64,192,12226,1,0,0:0:0:0:
448,192,12226,1,0,0:0:0:0:
192,192,12515,1,0,0:0:0:0:
320,192,12659,1,0,0:0:0:0:
448,192,12803,1,0,0:0:0:0:
64,192,12803,1,0,0:0:0:0:
192,192,13092,1,0,0:0:0:0:
320,192,13092,1,0,0:0:0:0:
64,192,13236,1,0,0:0:0:0:
448,192,13380,1,0,0:0:0:0:
320,192,13380,1,0,0:0:0:0:
192,192,13669,1,0,0:0:0:0:
320,192,13813,1,0,0:0:0:0:
448,192,13957,1,0,0:0:0:0:
64,192,13957,128,0,14101:0:0:0:0:
192,192,14101,128,0,14245:0:0:0:0:
320,192,14245,128,0,14534:0:0:0:0:
448,192,14534,128,0,15111:0:0:0:0:
64,192,14534,1,0,0:0:0:0:
192,192,14822,1,0,0:0:0:0:
320,192,14967,1,0,0:0:0:0:
192,192,15111,128,0,15688:0:0:0:0:
64,192,15111,1,0,0:0:0:0:
448,192,15399,1,0,0:0:0:0:
320,192,15399,1,0,0:0:0:0:
320,192,15688,128,0,15976:0:0:0:0:
64,192,15688,1,0,0:0:0:0:
192,192,15976,1,0,0:0:0:0:
320,192,16120,1,0,0:0:0:0:
448,192,16265,1,0,0:0:0:0:
64,192,16265,1,0,0:0:0:0:
192,192,16409,1,0,0:0:0:0:
320,192,16553,1,0,0:0:0:0:
448,192,16553,1,0,0:0:0:0:
64,192,16842,1,0,0:0:0:0:
192,192,16842,1,0,0:0:0:0:
320,192,17130,1,0,0:0:0:0:
448,192,17274,1,0,0:0:0:0:
192,192,17419,1,0,0:0:0:0:
320,192,17563,1,0,0:0:0:0:
64,192,17707,1,0,0:0:0:0:
192,192,17851,1,0,0:0:0:0:
320,192,17995,1,0,0:0:0:0:
448,192,18140,1,0,0:0:0:0:
64,192,18284,1,0,0:0:0:0:
192,192,18428,1,0,0:0:0:0:
448,192,18572,1,0,0:0:0:0:
320,192,18572,1,0,0:0:0:0:
64,192,18861,1,0,0:0:0:0:
192,192,19005,1,0,0:0:0:0:
448,192,19149,1,0,0:0:0:0:
320,192,19149,1,0,0:0:0:0:
192,192,19438,1,0,0:0:0:0:
64,192,19726,1,0,0:0:0:0:
448,192,19726,1,0,0:0:0:0:
320,192,20015,1,0,0:0:0:0:
192,192,20303,1,0,0:0:0:0:
64,192,20303,1,0,0:0:0:0:
320,192,20592,1,0,0:0:0:0:
192,192,20736,1,0,0:0:0:0:
64,192,20880,1,0,0:0:0:0:
448,192,20880,1,0,0:0:0:0:
320,192,21169,1,0,0:0:0:0:
192,192,21457,1,0,0:0:0:0:
448,192,21457,1,0,0:0:0:0:
64,192,21745,1,0,0:0:0:0:
320,192,22034,1,0,0:0:0:0:
192,192,22034,1,0,0:0:0:0:
64,192,22322,1,0,0:0:0:0:
192,192,22467,1,0,0:0:0:0:
320,192,22611,1,0,0:0:0:0:
448,192,22611,1,0,0:0:0:0:
192,192,22899,1,0,0:0:0:0:
64,192,23188,1,0,0:0:0:0:
448,192,23188,1,0,0:0:0:0:
320,192,23476,1,0,0:0:0:0:
448,192,23620,1,0,0:0:0:0:
192,192,23765,1,0,0:0:0:0:
64,192,23765,1,0,0:0:0:0:
320,192,24053,1,0,0:0:0:0:
448,192,24342,1,0,0:0:0:0:
192,192,24342,1,0,0:0:0:0:
64,192,24630,1,0,0:0:0:0:
320,192,24919,1,0,0:0:0:0:
448,192,24919,1,0,0:0:0:0:
192,192,25207,1,0,0:0:0:0:
320,192,25351,1,0,0:0:0:0:
64,192,25495,1,0,0:0:0:0:
448,192,25495,1,0,0:0:0:0:
192,192,25784,1,0,0:0:0:0:
320,192,26072,1,0,0:0:0:0:
64,192,26072,1,0,0:0:0:0:
448,192,26361,1,0,0:0:0:0:
320,192,26649,1,0,0:0:0:0:
192,192,26649,1,0,0:0:0:0:
64,192,26938,1,0,0:0:0:0:
448,192,26938,1,0,0:0:0:0:
320,192,27226,1,0,0:0:0:0:
192,192,27226,1,0,0:0:0:0:
192,192,27515,1,0,0:0:0:0:
320,192,27515,1,0,0:0:0:0:
64,192,27803,1,0,0:0:0:0:
448,192,27803,128,0,28380:0:0:0:0:
320,192,28380,1,0,0:0:0:0:
64,192,28380,1,0,0:0:0:0:
192,192,28669,1,0,0:0:0:0:
320,192,28957,1,0,0:0:0:0:
448,192,28957,1,0,0:0:0:0:
192,192,29245,1,0,0:0:0:0:
64,192,29534,1,0,0:0:0:0:
320,192,29534,1,0,0:0:0:0:
448,192,29822,1,0,0:0:0:0:
320,192,29967,1,0,0:0:0:0:
64,192,30111,1,0,0:0:0:0:
192,192,30111,1,0,0:0:0:0:
448,192,30399,1,0,0:0:0:0:
320,192,30688,1,0,0:0:0:0:
192,192,30688,1,0,0:0:0:0:
64,192,30976,1,0,0:0:0:0:
448,192,31265,1,0,0:0:0:0:
320,192,31265,1,0,0:0:0:0:
64,192,31553,1,0,0:0:0:0:
192,192,31697,1,0,0:0:0:0:
320,192,31842,1,0,0:0:0:0:
448,192,31842,1,0,0:0:0:0:
192,192,32130,1,0,0:0:0:0:
64,192,32419,1,0,0:0:0:0:
448,192,32419,1,0,0:0:0:0:
320,192,32707,1,0,0:0:0:0:
192,192,32851,1,0,0:0:0:0:
320,192,32995,1,0,0:0:0:0:
64,192,32995,1,0,0:0:0:0:
448,192,33284,1,0,0:0:0:0:
320,192,33572,1,0,0:0:0:0:
192,192,33572,1,0,0:0:0:0:
64,192,33861,1,0,0:0:0:0:
448,192,33861,1,0,0:0:0:0:
320,192,34149,1,0,0:0:0:0:
192,192,34149,1,0,0:0:0:0:
448,192,34438,1,0,0:0:0:0:
320,192,34582,1,0,0:0:0:0:
64,192,34726,1,0,0:0:0:0:
192,192,34726,1,0,0:0:0:0:
320,192,35015,1,0,0:0:0:0:
64,192,35303,1,0,0:0:0:0:
448,192,35303,1,0,0:0:0:0:
320,192,35447,1,0,0:0:0:0:
192,192,35592,1,0,0:0:0:0:
320,192,35880,1,0,0:0:0:0:
448,192,35880,1,0,0:0:0:0:
64,192,36169,1,0,0:0:0:0:
192,192,36169,1,0,0:0:0:0:
320,192,36457,1,0,0:0:0:0:
448,192,36457,1,0,0:0:0:0:
192,192,36601,1,0,0:0:0:0:
64,192,36745,1,0,0:0:0:0:
320,192,36890,1,0,0:0:0:0:
448,192,37034,1,0,0:0:0:0:
192,192,37034,1,0,0:0:0:0:
64,192,37322,1,0,0:0:0:0:
192,192,37467,1,0,0:0:0:0:
320,192,37611,1,0,0:0:0:0:
448,192,37611,1,0,0:0:0:0:
192,192,37899,1,0,0:0:0:0:
64,192,38188,1,0,0:0:0:0:
448,192,38188,1,0,0:0:0:0:
320,192,38476,1,0,0:0:0:0:
192,192,38765,1,0,0:0:0:0:
64,192,38765,1,0,0:0:0:0:
320,192,39053,1,0,0:0:0:0:
448,192,39197,1,0,0:0:0:0:
320,192,39342,1,0,0:0:0:0:
192,192,39342,1,0,0:0:0:0:
64,192,39630,1,0,0:0:0:0:
320,192,39919,1,0,0:0:0:0:
448,192,39919,1,0,0:0:0:0:
192,192,40207,1,0,0:0:0:0:
64,192,40495,1,0,0:0:0:0:
448,192,40495,1,0,0:0:0:0:
192,192,40784,1,0,0:0:0:0:
320,192,40928,1,0,0:0:0:0:
64,192,41072,1,0,0:0:0:0:
192,192,41072,1,0,0:0:0:0:
448,192,41361,1,0,0:0:0:0:
320,192,41649,1,0,0:0:0:0:
192,192,41649,1,0,0:0:0:0:
64,192,41938,1,0,0:0:0:0:
320,192,42226,1,0,0:0:0:0:
448,192,42226,1,0,0:0:0:0:
192,192,42515,1,0,0:0:0:0:
448,192,42803,1,0,0:0:0:0:
64,192,42803,1,0,0:0:0:0:
320,192,43092,1,0,0:0:0:0:
192,192,43380,1,0,0:0:0:0:
64,192,43380,1,0,0:0:0:0:
320,192,43669,1,0,0:0:0:0:
448,192,43957,1,0,0:0:0:0:
192,192,43957,1,0,0:0:0:0:
64,192,44245,1,0,0:0:0:0:
320,192,44534,1,0,0:0:0:0:
448,192,44534,1,0,0:0:0:0:
192,192,44822,1,0,0:0:0:0:
64,192,45111,1,0,0:0:0:0:
448,192,45111,1,0,0:0:0:0:
320,192,45399,1,0,0:0:0:0:
192,192,45399,1,0,0:0:0:0:
64,192,45688,1,0,0:0:0:0:
448,192,45688,1,0,0:0:0:0:
448,192,45976,1,0,0:0:0:0:
64,192,45976,1,0,0:0:0:0:
192,192,46265,1,0,0:0:0:0:
320,192,46265,1,0,0:0:0:0:
64,192,46553,1,0,0:0:0:0:
192,192,46697,1,0,0:0:0:0:
320,192,46842,1,0,0:0:0:0:
448,192,46842,1,0,0:0:0:0:
192,192,47130,1,0,0:0:0:0:
64,192,47419,1,0,0:0:0:0:
448,192,47419,1,0,0:0:0:0:
320,192,47707,1,0,0:0:0:0:
448,192,47707,1,0,0:0:0:0:
64,192,47995,1,0,0:0:0:0:
192,192,47995,1,0,0:0:0:0:
448,192,48284,1,0,0:0:0:0:
320,192,48428,1,0,0:0:0:0:
192,192,48572,1,0,0:0:0:0:
64,192,48572,1,0,0:0:0:0:
320,192,48861,1,0,0:0:0:0:
448,192,49149,1,0,0:0:0:0:
64,192,49149,1,0,0:0:0:0:
192,192,49438,1,0,0:0:0:0:
448,192,49726,1,0,0:0:0:0:
320,192,49726,1,0,0:0:0:0:
192,192,50015,1,0,0:0:0:0:
320,192,50159,1,0,0:0:0:0:
448,192,50303,1,0,0:0:0:0:
64,192,50303,1,0,0:0:0:0:
320,192,50592,1,0,0:0:0:0:
192,192,50880,1,0,0:0:0:0:
64,192,50880,1,0,0:0:0:0:
320,192,51169,1,0,0:0:0:0:
448,192,51457,1,0,0:0:0:0:
192,192,51457,1,0,0:0:0:0:
64,192,51745,1,0,0:0:0:0:
320,192,52034,1,0,0:0:0:0:
448,192,52034,1,0,0:0:0:0:
192,192,52322,1,0,0:0:0:0:
64,192,52322,1,0,0:0:0:0:
320,192,52611,1,0,0:0:0:0:
448,192,52611,1,0,0:0:0:0:
192,192,52899,1,0,0:0:0:0:
64,192,53044,1,0,0:0:0:0:
320,192,53188,1,0,0:0:0:0:
448,192,53188,1,0,0:0:0:0:
192,192,53476,1,0,0:0:0:0:
64,192,53765,1,0,0:0:0:0:
448,192,53765,1,0,0:0:0:0:
320,192,54053,1,0,0:0:0:0:
192,192,54197,1,0,0:0:0:0:
64,192,54342,1,0,0:0:0:0:
448,192,54342,1,0,0:0:0:0:
320,192,54630,1,0,0:0:0:0:
64,192,54774,1,0,0:0:0:0:
64,192,54919,1,0,0:0:0:0:
448,192,55063,1,0,0:0:0:0:
320,192,55207,1,0,0:0:0:0:
448,192,55207,1,0,0:0:0:0:
64,192,55495,1,0,0:0:0:0:
192,192,55495,1,0,0:0:0:0:
320,192,55640,1,0,0:0:0:0:
448,192,55784,1,0,0:0:0:0:
64,192,55784,1,0,0:0:0:0:
192,192,56072,1,0,0:0:0:0:
320,192,56072,1,0,0:0:0:0:
64,192,56649,1,0,0:0:0:0:
448,192,56649,1,0,0:0:0:0:
192,192,56794,1,0,0:0:0:0:
320,192,56938,1,0,0:0:0:0:
448,192,56938,1,0,0:0:0:0:
64,192,57226,1,0,0:0:0:0:
192,192,57226,1,0,0:0:0:0:
320,192,57515,1,0,0:0:0:0:
192,192,57659,1,0,0:0:0:0:
64,192,57803,1,0,0:0:0:0:
448,192,57803,1,0,0:0:0:0:
320,192,57947,1,0,0:0:0:0:
192,192,58092,1,0,0:0:0:0:
64,192,58380,1,0,0:0:0:0:
448,192,58380,1,0,0:0:0:0:
320,192,58524,1,0,0:0:0:0:
192,192,58669,1,0,0:0:0:0:
64,192,58813,1,0,0:0:0:0:
320,192,58957,1,0,0:0:0:0:
448,192,58957,1,0,0:0:0:0:
448,192,59245,1,0,0:0:0:0:
320,192,59245,1,0,0:0:0:0:
64,192,59534,1,0,0:0:0:0:
192,192,59534,1,0,0:0:0:0:
64,192,59822,1,0,0:0:0:0:
192,192,59822,1,0,0:0:0:0:
320,192,60111,1,0,0:0:0:0:
448,192,60111,1,0,0:0:0:0:
192,192,60255,1,0,0:0:0:0:
64,192,60399,1,0,0:0:0:0:
448,192,60399,1,0,0:0:0:0:
320,192,60688,1,0,0:0:0:0:
192,192,60688,1,0,0:0:0:0:
64,192,60976,1,0,0:0:0:0:
448,192,61265,1,0,0:0:0:0:
320,192,61265,1,0,0:0:0:0:
192,192,61409,1,0,0:0:0:0:
64,192,61553,1,0,0:0:0:0:
448,192,61553,1,0,0:0:0:0:
320,192,61842,1,0,0:0:0:0:
192,192,61842,1,0,0:0:0:0:
64,192,62130,1,0,0:0:0:0:
192,192,62274,1,0,0:0:0:0:
320,192,62419,1,0,0:0:0:0:
448,192,62419,1,0,0:0:0:0:
64,192,62563,1,0,0:0:0:0:
192,192,62707,1,0,0:0:0:0:
448,192,62995,1,0,0:0:0:0:
320,192,62995,1,0,0:0:0:0:
192,192,63140,1,0,0:0:0:0:
64,192,63284,1,0,0:0:0:0:
320,192,63428,1,0,0:0:0:0:
192,192,63572,1,0,0:0:0:0:
448,192,63717,1,0,0:0:0:0:
320,192,63861,1,0,0:0:0:0:
64,192,63861,1,0,0:0:0:0:
192,192,64149,1,0,0:0:0:0:
448,192,64149,1,0,0:0:0:0:
64,192,64438,1,0,0:0:0:0:
320,192,64438,1,0,0:0:0:0:
192,192,64726,1,0,0:0:0:0:
64,192,64726,1,0,0:0:0:0:
320,192,64870,1,0,0:0:0:0:
448,192,65015,1,0,0:0:0:0:
192,192,65015,1,0,0:0:0:0:
64,192,65303,1,0,0:0:0:0:
320,192,65303,1,0,0:0:0:0:
320,192,65880,1,0,0:0:0:0:
448,192,65880,1,0,0:0:0:0:
192,192,66024,1,0,0:0:0:0:
64,192,66169,1,0,0:0:0:0:
448,192,66169,1,0,0:0:0:0:
320,192,66457,1,0,0:0:0:0:
192,192,66457,1,0,0:0:0:0:
448,192,66745,1,0,0:0:0:0:
320,192,66890,1,0,0:0:0:0:
192,192,67034,1,0,0:0:0:0:
64,192,67034,1,0,0:0:0:0:
320,192,67178,1,0,0:0:0:0:
448,192,67322,1,0,0:0:0:0:
192,192,67611,1,0,0:0:0:0:
320,192,67611,1,0,0:0:0:0:
64,192,67899,1,0,0:0:0:0:
192,192,68044,1,0,0:0:0:0:
320,192,68188,1,0,0:0:0:0:
448,192,68188,1,0,0:0:0:0:
320,192,68476,1,0,0:0:0:0:
192,192,68476,1,0,0:0:0:0:
64,192,68765,1,0,0:0:0:0:
192,192,68765,1,0,0:0:0:0:
320,192,69053,1,0,0:0:0:0:
192,192,69197,1,0,0:0:0:0:
448,192,69342,1,0,0:0:0:0:
64,192,69342,1,0,0:0:0:0:
320,192,69486,1,0,0:0:0:0:
192,192,69630,1,0,0:0:0:0:
64,192,69919,1,0,0:0:0:0:
448,192,69919,1,0,0:0:0:0:
320,192,70207,1,0,0:0:0:0:
192,192,70351,1,0,0:0:0:0:
448,192,70495,1,0,0:0:0:0:
320,192,70495,1,0,0:0:0:0:
64,192,70784,1,0,0:0:0:0:
192,192,71072,1,0,0:0:0:0:
320,192,71072,1,0,0:0:0:0:
64,192,71361,1,0,0:0:0:0:
192,192,71505,1,0,0:0:0:0:
320,192,71649,1,0,0:0:0:0:
448,192,71794,1,0,0:0:0:0:
192,192,71938,1,0,0:0:0:0:
64,192,71938,1,0,0:0:0:0:
448,192,72226,1,0,0:0:0:0:
320,192,72226,1,0,0:0:0:0:
192,192,72515,1,0,0:0:0:0:
320,192,72659,1,0,0:0:0:0:
64,192,72803,1,0,0:0:0:0:
192,192,72947,1,0,0:0:0:0:
448,192,73092,1,0,0:0:0:0:
320,192,73236,1,0,0:0:0:0:
192,192,73380,1,0,0:0:0:0:
64,192,73524,1,0,0:0:0:0:
448,192,73669,1,0,0:0:0:0:
320,192,73813,1,0,0:0:0:0:
64,192,73957,1,0,0:0:0:0:
192,192,74101,1,0,0:0:0:0:
320,192,74245,128,0,74534:0:0:0:0:
192,192,74534,128,0,75111:0:0:0:0:
64,192,74534,1,0,0:0:0:0:
320,192,75111,1,0,0:0:0:0:
448,192,75255,1,0,0:0:0:0:
64,192,75399,128,0,75688:0:0:0:0:
320,192,75688,128,0,76265:0:0:0:0:
448,192,75688,1,0,0:0:0:0:
192,192,75976,1,0,0:0:0:0:
64,192,76265,128,0,76553:0:0:0:0:
192,192,76265,1,0,0:0:0:0:
448,192,76553,128,0,77130:0:0:0:0:
192,192,76842,1,0,0:0:0:0:
320,192,77130,128,0,77419:0:0:0:0:
64,192,77130,1,0,0:0:0:0:
192,192,77419,128,0,77707:0:0:0:0:
448,192,77419,1,0,0:0:0:0:
64,192,77707,128,0,77995:0:0:0:0:
320,192,77707,1,0,0:0:0:0:
448,192,77995,128,0,78572:0:0:0:0:
192,192,77995,1,0,0:0:0:0:
64,192,78284,1,0,0:0:0:0:
320,192,78572,128,0,78861:0:0:0:0:
64,192,78572,1,0,0:0:0:0:
192,192,78717,1,0,0:0:0:0:
64,192,78861,128,0,79149:0:0:0:0:
192,192,79149,128,0,79726:0:0:0:0:
448,192,79149,1,0,0:0:0:0:
320,192,79726,1,0,0:0:0:0:
448,192,79870,1,0,0:0:0:0:
64,192,80015,1,0,0:0:0:0:
320,192,80159,128,0,80880:0:0:0:0:
192,192,80159,1,0,0:0:0:0:
448,192,80303,1,0,0:0:0:0:
64,192,80592,1,0,0:0:0:0:
448,192,80880,128,0,81457:0:0:0:0:
192,192,80880,1,0,0:0:0:0:
320,192,81169,1,0,0:0:0:0:
192,192,81457,1,0,0:0:0:0:
64,192,81601,128,0,82322:0:0:0:0:
320,192,81601,1,0,0:0:0:0:
448,192,81818,1,0,0:0:0:0:
448,192,82178,1,0,0:0:0:0:
320,192,82322,128,0,83044:0:0:0:0:
192,192,82322,1,0,0:0:0:0:
448,192,82611,1,0,0:0:0:0:
64,192,83044,1,0,0:0:0:0:
448,192,83188,128,0,88380:0:0:0:0:
192,192,83188,128,0,88380:0:0:0:0:
