osu file format v14

[General]
AudioFilename: audio.mp3
AudioLeadIn: 0
PreviewTime: 57443
Countdown: 0
SampleSet: None
StackLeniency: 0.7
Mode: 3
LetterboxInBreaks: 0
SpecialStyle: 0
WidescreenStoryboard: 0

[Editor]
Bookmarks: 42554,57665,78554
DistanceSpacing: 1.1
BeatDivisor: 8
GridSize: 4
TimelineZoom: 1.800001

[Metadata]
Title:Silky Heart (TV Size)
TitleUnicode:Silky Heart (TV Size)
Artist:Horie Yui
ArtistUnicode:堀江由衣
Creator:Sun
Version:qwq!! pwp!!
Source:とらドラ!
Tags:Toradora! toradora anime japanese pop jpop j-pop op opening 2
BeatmapID:4534773
BeatmapSetID:2152274

[Difficulty]
HPDrainRate:7
CircleSize:7
OverallDifficulty:7
ApproachRate:5
SliderMultiplier:1.4
SliderTickRate:1

[Events]
//Background and Video events
Video,10,"toradora+op+2.avi"
0,0,"BG.jpg",0,0
//Break Periods
//Storyboard Layer 0 (Background)
//Storyboard Layer 1 (Fail)
//Storyboard Layer 2 (Pass)
//Storyboard Layer 3 (Foreground)
//Storyboard Layer 4 (Overlay)
//Storyboard Sound Samples

[TimingPoints]
777,444.444444444444,4,2,0,30,1,0

[HitObjects]
36,192,110,5,0,0:0:0:0:
109,192,332,1,0,0:0:0:0:
182,192,554,1,0,0:0:0:0:
36,192,777,5,0,0:0:0:0:
256,192,777,128,0,1221:0:0:0:0:
402,192,777,128,0,1221:0:0:0:0:
475,192,777,128,0,1221:0:0:0:0:
329,192,1888,128,0,2110:0:0:0:0:
329,192,2332,128,0,2554:0:0:0:0:
36,192,2554,128,0,2999:0:0:0:0:
475,192,2554,128,0,2999:0:0:0:0:
182,192,2554,128,0,2999:0:0:0:0:
329,192,2776,128,0,3221:0:0:0:0:
475,192,3221,128,0,3888:0:0:0:0:
36,192,3221,128,0,3888:0:0:0:0:
182,192,3221,128,0,3665:0:0:0:0:
329,192,3665,1,0,0:0:0:0:
256,192,3888,1,0,0:0:0:0:
109,192,4110,1,0,0:0:0:0:
36,192,4110,1,0,0:0:0:0:
182,192,4110,1,0,0:0:0:0:
109,192,4332,128,0,4776:0:0:0:0:
36,192,4332,128,0,4776:0:0:0:0:
182,192,4332,128,0,4776:0:0:0:0:
256,192,5443,128,0,5665:0:0:0:0:
256,192,5888,128,0,6110:0:0:0:0:
109,192,6110,128,0,6554:0:0:0:0:
36,192,6110,128,0,6554:0:0:0:0:
475,192,6110,128,0,6554:0:0:0:0:
256,192,6332,128,0,6776:0:0:0:0:
36,192,6776,128,0,7221:0:0:0:0:
402,192,6776,128,0,7221:0:0:0:0:
475,192,6776,128,0,7221:0:0:0:0:
256,192,7221,1,0,0:0:0:0:
182,192,7443,1,0,0:0:0:0:
36,192,7443,1,0,0:0:0:0:
109,192,7443,1,0,0:0:0:0:
329,192,7665,1,0,0:0:0:0:
36,192,7888,1,0,0:0:0:0:
402,192,7888,128,0,8110:0:0:0:0:
475,192,7888,128,0,8110:0:0:0:0:
256,192,7888,128,0,8332:0:0:0:0:
182,192,8110,128,0,8332:0:0:0:0:
36,192,8332,1,0,0:0:0:0:
475,192,8332,1,0,0:0:0:0:
109,192,8332,128,0,8554:0:0:0:0:
182,192,8554,128,0,8776:0:0:0:0:
475,192,8776,1,0,0:0:0:0:
36,192,8776,1,0,0:0:0:0:
256,192,8776,128,0,8999:0:0:0:0:
329,192,8999,128,0,9221:0:0:0:0:
109,192,8999,128,0,9054:0:0:0:0:
475,192,9221,1,0,0:0:0:0:
36,192,9221,1,0,0:0:0:0:
402,192,9221,128,0,9443:0:0:0:0:
109,192,9443,128,0,9499:0:0:0:0:
329,192,9443,128,0,9665:0:0:0:0:
36,192,9665,1,0,0:0:0:0:
256,192,9665,128,0,9888:0:0:0:0:
475,192,9665,128,0,10110:0:0:0:0:
182,192,9888,128,0,10332:0:0:0:0:
109,192,10110,1,0,0:0:0:0:
402,192,10110,1,0,0:0:0:0:
36,192,10332,128,0,10776:0:0:0:0:
256,192,10332,128,0,10776:0:0:0:0:
475,192,10554,1,0,0:0:0:0:
109,192,10776,1,0,0:0:0:0:
329,192,10999,1,0,0:0:0:0:
182,192,10999,1,0,0:0:0:0:
475,192,10999,1,0,0:0:0:0:
475,192,11221,1,0,0:0:0:0:
256,192,11221,1,0,0:0:0:0:
109,192,11221,1,0,0:0:0:0:
402,192,11332,1,0,0:0:0:0:
36,192,11443,1,0,0:0:0:0:
182,192,11443,1,0,0:0:0:0:
329,192,11443,128,0,11888:0:0:0:0:
402,192,11665,128,0,11888:0:0:0:0:
36,192,11888,1,0,0:0:0:0:
475,192,11888,1,0,0:0:0:0:
182,192,11888,128,0,12110:0:0:0:0:
329,192,12110,128,0,12332:0:0:0:0:
475,192,12332,1,0,0:0:0:0:
36,192,12332,1,0,0:0:0:0:
256,192,12332,128,0,12554:0:0:0:0:
182,192,12554,128,0,12776:0:0:0:0:
402,192,12554,128,0,12610:0:0:0:0:
36,192,12776,1,0,0:0:0:0:
475,192,12776,1,0,0:0:0:0:
109,192,12776,128,0,12999:0:0:0:0:
182,192,12999,128,0,13221:0:0:0:0:
402,192,12999,128,0,13054:0:0:0:0:
256,192,13110,1,0,0:0:0:0:
475,192,13221,1,0,0:0:0:0:
36,192,13221,128,0,13665:0:0:0:0:
329,192,13221,128,0,13665:0:0:0:0:
109,192,13221,128,0,13665:0:0:0:0:
402,192,13443,128,0,13888:0:0:0:0:
182,192,13888,128,0,14332:0:0:0:0:
36,192,13888,128,0,14332:0:0:0:0:
475,192,13888,128,0,14332:0:0:0:0:
329,192,14332,1,0,0:0:0:0:
182,192,14554,128,0,14665:0:0:0:0:
256,192,14554,128,0,14665:0:0:0:0:
109,192,14665,128,0,14776:0:0:0:0:
36,192,14665,128,0,14776:0:0:0:0:
475,192,14776,128,0,14999:0:0:0:0:
256,192,14888,128,0,14999:0:0:0:0:
182,192,14888,128,0,14999:0:0:0:0:
36,192,14999,1,0,0:0:0:0:
329,192,14999,128,0,15443:0:0:0:0:
402,192,14999,128,0,15443:0:0:0:0:
109,192,14999,1,0,0:0:0:0:
182,192,15221,128,0,15443:0:0:0:0:
256,192,15443,1,0,0:0:0:0:
475,192,15443,1,0,0:0:0:0:
109,192,15443,128,0,15665:0:0:0:0:
402,192,15665,1,0,0:0:0:0:
36,192,15665,128,0,15888:0:0:0:0:
329,192,15776,1,0,0:0:0:0:
256,192,15888,1,0,0:0:0:0:
475,192,15888,1,0,0:0:0:0:
402,192,16110,128,0,16332:0:0:0:0:
182,192,16110,1,0,0:0:0:0:
36,192,16332,1,0,0:0:0:0:
109,192,16332,1,0,0:0:0:0:
329,192,16332,128,0,16554:0:0:0:0:
182,192,16443,1,0,0:0:0:0:
256,192,16554,128,0,16776:0:0:0:0:
475,192,16554,1,0,0:0:0:0:
402,192,16665,1,0,0:0:0:0:
329,192,16776,1,0,0:0:0:0:
36,192,16776,128,0,17221:0:0:0:0:
182,192,16776,128,0,17221:0:0:0:0:
256,192,16999,128,0,17443:0:0:0:0:
402,192,17221,1,0,0:0:0:0:
182,192,17443,1,0,0:0:0:0:
475,192,17443,128,0,17888:0:0:0:0:
109,192,17554,1,0,0:0:0:0:
329,192,17665,1,0,0:0:0:0:
36,192,17665,1,0,0:0:0:0:
402,192,17888,128,0,18110:0:0:0:0:
109,192,18110,1,0,0:0:0:0:
36,192,18110,1,0,0:0:0:0:
329,192,18110,128,0,18332:0:0:0:0:
182,192,18221,1,0,0:0:0:0:
256,192,18332,128,0,18554:0:0:0:0:
475,192,18332,1,0,0:0:0:0:
402,192,18443,1,0,0:0:0:0:
329,192,18554,1,0,0:0:0:0:
36,192,18554,128,0,18999:0:0:0:0:
182,192,18554,128,0,18999:0:0:0:0:
475,192,18776,128,0,18999:0:0:0:0:
402,192,18999,128,0,19221:0:0:0:0:
256,192,18999,1,0,0:0:0:0:
109,192,18999,1,0,0:0:0:0:
329,192,19221,128,0,19443:0:0:0:0:
36,192,19221,1,0,0:0:0:0:
109,192,19332,1,0,0:0:0:0:
475,192,19443,1,0,0:0:0:0:
402,192,19443,1,0,0:0:0:0:
182,192,19443,1,0,0:0:0:0:
256,192,19665,128,0,19888:0:0:0:0:
36,192,19665,1,0,0:0:0:0:
182,192,19888,128,0,20110:0:0:0:0:
402,192,19888,1,0,0:0:0:0:
475,192,19888,1,0,0:0:0:0:
329,192,19999,1,0,0:0:0:0:
109,192,20110,128,0,20332:0:0:0:0:
475,192,20110,1,0,0:0:0:0:
402,192,20221,1,0,0:0:0:0:
256,192,20332,128,0,20776:0:0:0:0:
329,192,20332,128,0,20776:0:0:0:0:
36,192,20332,1,0,0:0:0:0:
109,192,20554,128,0,20776:0:0:0:0:
182,192,20776,128,0,20999:0:0:0:0:
402,192,20776,1,0,0:0:0:0:
475,192,20776,1,0,0:0:0:0:
256,192,20999,128,0,21665:0:0:0:0:
36,192,20999,1,0,0:0:0:0:
109,192,21110,1,0,0:0:0:0:
475,192,21221,1,0,0:0:0:0:
182,192,21221,1,0,0:0:0:0:
402,192,21332,1,0,0:0:0:0:
329,192,21443,1,0,0:0:0:0:
36,192,21665,128,0,22110:0:0:0:0:
109,192,21665,128,0,22110:0:0:0:0:
475,192,21665,1,0,0:0:0:0:
329,192,21888,1,0,0:0:0:0:
256,192,21999,1,0,0:0:0:0:
182,192,22110,1,0,0:0:0:0:
475,192,22110,128,0,22554:0:0:0:0:
402,192,22110,128,0,22554:0:0:0:0:
256,192,22332,128,0,22554:0:0:0:0:
329,192,22554,128,0,22776:0:0:0:0:
36,192,22554,1,0,0:0:0:0:
109,192,22554,1,0,0:0:0:0:
402,192,22776,128,0,22999:0:0:0:0:
182,192,22776,1,0,0:0:0:0:
109,192,22888,1,0,0:0:0:0:
36,192,22999,1,0,0:0:0:0:
256,192,22999,1,0,0:0:0:0:
475,192,22999,1,0,0:0:0:0:
182,192,23221,128,0,23443:0:0:0:0:
402,192,23221,1,0,0:0:0:0:
329,192,23443,128,0,23665:0:0:0:0:
475,192,23443,1,0,0:0:0:0:
36,192,23443,1,0,0:0:0:0:
109,192,23554,1,0,0:0:0:0:
182,192,23665,128,0,23888:0:0:0:0:
402,192,23665,1,0,0:0:0:0:
329,192,23776,1,0,0:0:0:0:
109,192,23888,128,0,24332:0:0:0:0:
36,192,23888,128,0,24332:0:0:0:0:
256,192,23888,1,0,0:0:0:0:
475,192,24110,128,0,24332:0:0:0:0:
402,192,24332,128,0,24554:0:0:0:0:
256,192,24332,1,0,0:0:0:0:
182,192,24332,1,0,0:0:0:0:
329,192,24554,128,0,24776:0:0:0:0:
36,192,24554,1,0,0:0:0:0:
109,192,24665,1,0,0:0:0:0:
475,192,24776,1,0,0:0:0:0:
256,192,24776,128,0,24999:0:0:0:0:
182,192,24776,1,0,0:0:0:0:
36,192,24999,128,0,25221:0:0:0:0:
402,192,24999,1,0,0:0:0:0:
109,192,25221,128,0,25443:0:0:0:0:
329,192,25221,1,0,0:0:0:0:
475,192,25332,1,0,0:0:0:0:
182,192,25443,128,0,25665:0:0:0:0:
402,192,25443,1,0,0:0:0:0:
329,192,25554,1,0,0:0:0:0:
256,192,25665,128,0,26110:0:0:0:0:
475,192,25665,1,0,0:0:0:0:
36,192,25665,128,0,26110:0:0:0:0:
402,192,25888,1,0,0:0:0:0:
109,192,26110,1,0,0:0:0:0:
329,192,26110,1,0,0:0:0:0:
329,192,26332,128,0,26776:0:0:0:0:
109,192,26332,128,0,26776:0:0:0:0:
182,192,26554,1,0,0:0:0:0:
402,192,26554,1,0,0:0:0:0:
256,192,26776,128,0,27221:0:0:0:0:
475,192,26776,128,0,27221:0:0:0:0:
329,192,26999,1,0,0:0:0:0:
109,192,26999,1,0,0:0:0:0:
36,192,27221,128,0,28110:0:0:0:0:
182,192,27221,128,0,28110:0:0:0:0:
475,192,27443,1,0,0:0:0:0:
256,192,27443,1,0,0:0:0:0:
329,192,27665,128,0,27888:0:0:0:0:
402,192,27776,128,0,28110:0:0:0:0:
475,192,27888,128,0,28110:0:0:0:0:
329,192,27999,128,0,28110:0:0:0:0:
36,192,28332,128,0,28665:0:0:0:0:
402,192,28332,1,0,0:0:0:0:
475,192,28332,1,0,0:0:0:0:
182,192,28443,128,0,28665:0:0:0:0:
329,192,28554,128,0,28665:0:0:0:0:
475,192,28776,128,0,29110:0:0:0:0:
109,192,28776,128,0,28999:0:0:0:0:
182,192,28776,128,0,28888:0:0:0:0:
36,192,28776,128,0,29110:0:0:0:0:
402,192,28888,128,0,29110:0:0:0:0:
329,192,28999,128,0,29110:0:0:0:0:
256,192,29110,1,0,0:0:0:0:
182,192,29221,1,0,0:0:0:0:
109,192,29221,1,0,0:0:0:0:
36,192,29221,1,0,0:0:0:0:
475,192,29443,128,0,29776:0:0:0:0:
256,192,29443,1,0,0:0:0:0:
329,192,29665,128,0,29776:0:0:0:0:
109,192,29665,1,0,0:0:0:0:
329,192,29888,128,0,29999:0:0:0:0:
182,192,29888,1,0,0:0:0:0:
36,192,29999,1,0,0:0:0:0:
109,192,30110,1,0,0:0:0:0:
402,192,30110,1,0,0:0:0:0:
475,192,30332,128,0,30443:0:0:0:0:
182,192,30332,1,0,0:0:0:0:
475,192,30554,128,0,30888:0:0:0:0:
256,192,30554,1,0,0:0:0:0:
36,192,30554,1,0,0:0:0:0:
109,192,30665,1,0,0:0:0:0:
402,192,30776,128,0,30888:0:0:0:0:
182,192,30776,1,0,0:0:0:0:
256,192,30888,1,0,0:0:0:0:
36,192,30999,1,0,0:0:0:0:
475,192,30999,1,0,0:0:0:0:
329,192,30999,1,0,0:0:0:0:
109,192,31221,128,0,31554:0:0:0:0:
182,192,31221,1,0,0:0:0:0:
329,192,31443,128,0,31554:0:0:0:0:
475,192,31443,1,0,0:0:0:0:
36,192,31665,128,0,31999:0:0:0:0:
256,192,31665,1,0,0:0:0:0:
329,192,31776,1,0,0:0:0:0:
402,192,31888,1,0,0:0:0:0:
182,192,31888,128,0,31999:0:0:0:0:
109,192,32110,128,0,32221:0:0:0:0:
256,192,32110,128,0,32221:0:0:0:0:
475,192,32221,1,0,0:0:0:0:
402,192,32276,1,0,0:0:0:0:
182,192,32332,128,0,32443:0:0:0:0:
329,192,32332,128,0,32443:0:0:0:0:
475,192,32443,128,0,32554:0:0:0:0:
36,192,32443,128,0,32776:0:0:0:0:
256,192,32554,128,0,32665:0:0:0:0:
402,192,32554,128,0,32665:0:0:0:0:
109,192,32665,128,0,32776:0:0:0:0:
329,192,32776,1,0,0:0:0:0:
475,192,32776,1,0,0:0:0:0:
182,192,32776,1,0,0:0:0:0:
109,192,32999,128,0,33332:0:0:0:0:
402,192,32999,1,0,0:0:0:0:
182,192,33221,128,0,33332:0:0:0:0:
475,192,33221,1,0,0:0:0:0:
182,192,33443,128,0,33554:0:0:0:0:
329,192,33443,1,0,0:0:0:0:
402,192,33554,1,0,0:0:0:0:
475,192,33665,1,0,0:0:0:0:
109,192,33665,1,0,0:0:0:0:
256,192,33665,1,0,0:0:0:0:
36,192,33888,128,0,33999:0:0:0:0:
329,192,33888,1,0,0:0:0:0:
36,192,34110,128,0,34443:0:0:0:0:
256,192,34110,1,0,0:0:0:0:
475,192,34110,1,0,0:0:0:0:
402,192,34221,1,0,0:0:0:0:
182,192,34332,128,0,34443:0:0:0:0:
329,192,34332,1,0,0:0:0:0:
256,192,34443,1,0,0:0:0:0:
182,192,34554,1,0,0:0:0:0:
475,192,34554,1,0,0:0:0:0:
109,192,34554,128,0,34776:0:0:0:0:
402,192,34776,128,0,34999:0:0:0:0:
36,192,34999,128,0,35221:0:0:0:0:
182,192,34999,1,0,0:0:0:0:
329,192,34999,1,0,0:0:0:0:
475,192,35221,128,0,36110:0:0:0:0:
256,192,35221,1,0,0:0:0:0:
182,192,35332,1,0,0:0:0:0:
109,192,35443,1,0,0:0:0:0:
402,192,35443,128,0,35665:0:0:0:0:
256,192,35665,128,0,35888:0:0:0:0:
402,192,35888,128,0,36110:0:0:0:0:
109,192,35888,1,0,0:0:0:0:
36,192,36110,1,0,0:0:0:0:
256,192,36110,1,0,0:0:0:0:
109,192,36221,1,0,0:0:0:0:
329,192,36221,1,0,0:0:0:0:
475,192,36332,1,0,0:0:0:0:
402,192,36332,1,0,0:0:0:0:
182,192,36332,1,0,0:0:0:0:
36,192,36554,128,0,36888:0:0:0:0:
329,192,36554,1,0,0:0:0:0:
109,192,36776,128,0,36888:0:0:0:0:
475,192,36776,1,0,0:0:0:0:
109,192,36999,128,0,37110:0:0:0:0:
402,192,36999,1,0,0:0:0:0:
256,192,37110,1,0,0:0:0:0:
36,192,37221,1,0,0:0:0:0:
182,192,37221,1,0,0:0:0:0:
475,192,37221,1,0,0:0:0:0:
402,192,37443,128,0,37554:0:0:0:0:
109,192,37443,1,0,0:0:0:0:
402,192,37665,128,0,37999:0:0:0:0:
256,192,37665,1,0,0:0:0:0:
36,192,37665,1,0,0:0:0:0:
109,192,37776,1,0,0:0:0:0:
329,192,37888,128,0,37999:0:0:0:0:
182,192,37888,1,0,0:0:0:0:
256,192,37999,1,0,0:0:0:0:
329,192,38110,1,0,0:0:0:0:
475,192,38110,1,0,0:0:0:0:
36,192,38110,1,0,0:0:0:0:
182,192,38332,1,0,0:0:0:0:
109,192,38332,128,0,38554:0:0:0:0:
329,192,38554,1,0,0:0:0:0:
36,192,38554,1,0,0:0:0:0:
475,192,38554,128,0,38776:0:0:0:0:
109,192,38776,128,0,38999:0:0:0:0:
182,192,38776,1,0,0:0:0:0:
256,192,38888,1,0,0:0:0:0:
36,192,38999,1,0,0:0:0:0:
329,192,38999,128,0,39221:0:0:0:0:
402,192,38999,1,0,0:0:0:0:
109,192,39221,1,0,0:0:0:0:
182,192,39332,1,0,0:0:0:0:
256,192,39388,1,0,0:0:0:0:
475,192,39443,1,0,0:0:0:0:
402,192,39443,1,0,0:0:0:0:
329,192,39443,128,0,39554:0:0:0:0:
182,192,39554,128,0,39665:0:0:0:0:
109,192,39554,128,0,39665:0:0:0:0:
475,192,39665,128,0,39776:0:0:0:0:
36,192,39665,128,0,39776:0:0:0:0:
329,192,39776,128,0,39888:0:0:0:0:
402,192,39776,128,0,39888:0:0:0:0:
109,192,39888,1,0,0:0:0:0:
36,192,39888,1,0,0:0:0:0:
182,192,39888,128,0,40332:0:0:0:0:
256,192,40110,1,0,0:0:0:0:
475,192,40332,1,0,0:0:0:0:
36,192,40332,1,0,0:0:0:0:
329,192,40332,128,0,40554:0:0:0:0:
109,192,40554,128,0,40999:0:0:0:0:
402,192,40554,1,0,0:0:0:0:
182,192,40665,1,0,0:0:0:0:
329,192,40776,1,0,0:0:0:0:
475,192,40776,1,0,0:0:0:0:
256,192,40999,128,0,41443:0:0:0:0:
36,192,40999,1,0,0:0:0:0:
329,192,41110,1,0,0:0:0:0:
475,192,41221,1,0,0:0:0:0:
182,192,41221,1,0,0:0:0:0:
36,192,41443,5,0,0:0:0:0:
402,192,41443,128,0,42332:0:0:0:0:
109,192,41443,1,0,0:0:0:0:
182,192,41665,1,0,0:0:0:0:
329,192,41665,1,0,0:0:0:0:
109,192,41888,1,0,0:0:0:0:
475,192,41888,1,0,0:0:0:0:
36,192,42110,1,0,0:0:0:0:
256,192,42110,1,0,0:0:0:0:
182,192,42332,1,0,0:0:0:0:
109,192,42443,1,0,0:0:0:0:
329,192,42554,5,0,0:0:0:0:
475,192,42554,1,0,0:0:0:0:
36,192,42554,1,0,0:0:0:0:
182,192,42665,1,0,0:0:0:0:
329,192,42776,128,0,42999:0:0:0:0:
475,192,42776,128,0,42888:0:0:0:0:
182,192,42888,128,0,43110:0:0:0:0:
36,192,42999,128,0,43110:0:0:0:0:
475,192,42999,1,0,0:0:0:0:
329,192,43110,1,0,0:0:0:0:
182,192,43221,1,0,0:0:0:0:
36,192,43221,1,0,0:0:0:0:
256,192,43332,1,0,0:0:0:0:
475,192,43443,1,0,0:0:0:0:
402,192,43443,1,0,0:0:0:0:
182,192,43443,1,0,0:0:0:0:
36,192,43443,128,0,43888:0:0:0:0:
256,192,43665,128,0,43888:0:0:0:0:
329,192,43888,1,0,0:0:0:0:
475,192,43888,1,0,0:0:0:0:
109,192,43888,128,0,44110:0:0:0:0:
402,192,44110,1,0,0:0:0:0:
182,192,44110,128,0,44332:0:0:0:0:
329,192,44221,1,0,0:0:0:0:
256,192,44332,1,0,0:0:0:0:
36,192,44332,1,0,0:0:0:0:
475,192,44332,1,0,0:0:0:0:
329,192,44554,128,0,44999:0:0:0:0:
109,192,44554,1,0,0:0:0:0:
475,192,44776,128,0,44999:0:0:0:0:
36,192,44776,1,0,0:0:0:0:
402,192,44999,128,0,45443:0:0:0:0:
109,192,44999,1,0,0:0:0:0:
182,192,45110,1,0,0:0:0:0:
36,192,45221,1,0,0:0:0:0:
256,192,45221,1,0,0:0:0:0:
329,192,45443,128,0,45665:0:0:0:0:
109,192,45443,1,0,0:0:0:0:
182,192,45665,128,0,45888:0:0:0:0:
475,192,45665,1,0,0:0:0:0:
36,192,45888,128,0,46110:0:0:0:0:
329,192,45888,1,0,0:0:0:0:
402,192,45999,1,0,0:0:0:0:
475,192,46110,1,0,0:0:0:0:
256,192,46110,1,0,0:0:0:0:
109,192,46332,128,0,46443:0:0:0:0:
329,192,46332,128,0,46443:0:0:0:0:
475,192,46443,128,0,46554:0:0:0:0:
182,192,46554,128,0,46665:0:0:0:0:
402,192,46554,128,0,46665:0:0:0:0:
36,192,46665,128,0,46776:0:0:0:0:
256,192,46776,128,0,46888:0:0:0:0:
109,192,46776,128,0,46888:0:0:0:0:
329,192,46888,128,0,46999:0:0:0:0:
36,192,46999,128,0,47443:0:0:0:0:
475,192,46999,1,0,0:0:0:0:
402,192,46999,128,0,47221:0:0:0:0:
256,192,47221,128,0,47443:0:0:0:0:
475,192,47443,128,0,47665:0:0:0:0:
109,192,47443,1,0,0:0:0:0:
329,192,47665,128,0,47888:0:0:0:0:
182,192,47665,1,0,0:0:0:0:
109,192,47776,1,0,0:0:0:0:
36,192,47888,1,0,0:0:0:0:
402,192,47888,1,0,0:0:0:0:
475,192,47888,1,0,0:0:0:0:
256,192,48110,128,0,48332:0:0:0:0:
109,192,48110,1,0,0:0:0:0:
329,192,48332,128,0,48554:0:0:0:0:
182,192,48332,1,0,0:0:0:0:
36,192,48443,1,0,0:0:0:0:
402,192,48554,128,0,48776:0:0:0:0:
109,192,48554,1,0,0:0:0:0:
182,192,48665,1,0,0:0:0:0:
475,192,48776,1,0,0:0:0:0:
36,192,48776,1,0,0:0:0:0:
256,192,48776,1,0,0:0:0:0:
182,192,48999,1,0,0:0:0:0:
329,192,48999,128,0,49221:0:0:0:0:
475,192,49221,128,0,49665:0:0:0:0:
36,192,49221,1,0,0:0:0:0:
109,192,49221,1,0,0:0:0:0:
329,192,49443,128,0,49665:0:0:0:0:
182,192,49443,1,0,0:0:0:0:
109,192,49554,1,0,0:0:0:0:
36,192,49665,1,0,0:0:0:0:
256,192,49665,1,0,0:0:0:0:
109,192,49888,128,0,50332:0:0:0:0:
329,192,49888,128,0,50110:0:0:0:0:
36,192,50110,128,0,50332:0:0:0:0:
475,192,50110,128,0,50332:0:0:0:0:
256,192,50332,128,0,50776:0:0:0:0:
182,192,50332,128,0,50776:0:0:0:0:
402,192,50554,128,0,50776:0:0:0:0:
475,192,50554,128,0,50776:0:0:0:0:
36,192,50776,128,0,50999:0:0:0:0:
329,192,50776,1,0,0:0:0:0:
109,192,50999,128,0,51221:0:0:0:0:
402,192,50999,1,0,0:0:0:0:
475,192,50999,1,0,0:0:0:0:
182,192,51221,128,0,51443:0:0:0:0:
329,192,51221,1,0,0:0:0:0:
402,192,51332,1,0,0:0:0:0:
475,192,51443,1,0,0:0:0:0:
36,192,51443,1,0,0:0:0:0:
256,192,51443,1,0,0:0:0:0:
182,192,51665,128,0,51888:0:0:0:0:
329,192,51665,1,0,0:0:0:0:
109,192,51888,128,0,52110:0:0:0:0:
402,192,51888,1,0,0:0:0:0:
256,192,51888,1,0,0:0:0:0:
475,192,51999,1,0,0:0:0:0:
36,192,52110,128,0,52332:0:0:0:0:
329,192,52110,1,0,0:0:0:0:
182,192,52221,1,0,0:0:0:0:
475,192,52332,1,0,0:0:0:0:
402,192,52332,1,0,0:0:0:0:
109,192,52332,1,0,0:0:0:0:
329,192,52554,128,0,52999:0:0:0:0:
182,192,52554,1,0,0:0:0:0:
475,192,52776,128,0,52999:0:0:0:0:
36,192,52776,1,0,0:0:0:0:
402,192,52999,128,0,53443:0:0:0:0:
109,192,52999,1,0,0:0:0:0:
182,192,53110,1,0,0:0:0:0:
256,192,53221,1,0,0:0:0:0:
36,192,53221,1,0,0:0:0:0:
109,192,53443,1,0,0:0:0:0:
329,192,53443,1,0,0:0:0:0:
182,192,53665,128,0,53888:0:0:0:0:
402,192,53665,1,0,0:0:0:0:
36,192,53665,1,0,0:0:0:0:
256,192,53888,128,0,54110:0:0:0:0:
475,192,53888,1,0,0:0:0:0:
109,192,54110,128,0,54221:0:0:0:0:
36,192,54110,128,0,54221:0:0:0:0:
329,192,54110,128,0,54221:0:0:0:0:
402,192,54110,128,0,54221:0:0:0:0:
402,192,54332,128,0,54554:0:0:0:0:
329,192,54332,128,0,54554:0:0:0:0:
109,192,54332,128,0,54554:0:0:0:0:
36,192,54332,128,0,54554:0:0:0:0:
475,192,54554,1,0,0:0:0:0:
182,192,54554,1,0,0:0:0:0:
402,192,54776,128,0,54999:0:0:0:0:
36,192,54776,128,0,55221:0:0:0:0:
256,192,54776,128,0,54999:0:0:0:0:
475,192,54999,128,0,55221:0:0:0:0:
182,192,55221,128,0,55443:0:0:0:0:
329,192,55221,128,0,55443:0:0:0:0:
256,192,55221,128,0,55443:0:0:0:0:
475,192,55443,128,0,55554:0:0:0:0:
402,192,55443,128,0,55554:0:0:0:0:
109,192,55443,128,0,55554:0:0:0:0:
36,192,55443,128,0,55554:0:0:0:0:
402,192,55665,128,0,56110:0:0:0:0:
36,192,55665,128,0,56332:0:0:0:0:
475,192,55665,128,0,56554:0:0:0:0:
109,192,55665,128,0,55888:0:0:0:0:
109,192,56110,1,0,0:0:0:0:
402,192,56332,1,0,0:0:0:0:
36,192,56554,128,0,56628:0:0:0:0:
109,192,56591,128,0,56665:0:0:0:0:
182,192,56628,128,0,56702:0:0:0:0:
256,192,56665,128,0,56739:0:0:0:0:
329,192,56702,128,0,56776:0:0:0:0:
402,192,56739,128,0,56814:0:0:0:0:
475,192,56776,128,0,56851:0:0:0:0:
109,192,56999,1,0,0:0:0:0:
329,192,56999,1,0,0:0:0:0:
182,192,56999,1,0,0:0:0:0:
402,192,56999,1,0,0:0:0:0:
182,192,57443,128,0,57554:0:0:0:0:
109,192,57554,128,0,57665:0:0:0:0:
36,192,57665,128,0,57888:0:0:0:0:
329,192,57665,1,0,0:0:0:0:
475,192,57665,1,0,0:0:0:0:
256,192,57665,128,0,57888:0:0:0:0:
402,192,57888,128,0,58110:0:0:0:0:
182,192,57888,128,0,58110:0:0:0:0:
256,192,58110,128,0,58554:0:0:0:0:
36,192,58110,1,0,0:0:0:0:
475,192,58110,128,0,58554:0:0:0:0:
109,192,58332,128,0,58554:0:0:0:0:
329,192,58332,128,0,58554:0:0:0:0:
36,192,58554,1,0,0:0:0:0:
182,192,58554,1,0,0:0:0:0:
402,192,58665,1,0,0:0:0:0:
329,192,58776,1,0,0:0:0:0:
182,192,58776,128,0,58999:0:0:0:0:
402,192,58888,1,0,0:0:0:0:
256,192,58999,1,0,0:0:0:0:
36,192,58999,128,0,59443:0:0:0:0:
475,192,58999,128,0,59221:0:0:0:0:
402,192,59110,1,0,0:0:0:0:
182,192,59221,128,0,59443:0:0:0:0:
329,192,59221,1,0,0:0:0:0:
402,192,59332,1,0,0:0:0:0:
256,192,59443,128,0,59665:0:0:0:0:
109,192,59443,128,0,59665:0:0:0:0:
475,192,59443,1,0,0:0:0:0:
182,192,59665,128,0,59888:0:0:0:0:
329,192,59665,128,0,59888:0:0:0:0:
256,192,59888,128,0,60110:0:0:0:0:
402,192,59888,128,0,60110:0:0:0:0:
36,192,59888,1,0,0:0:0:0:
329,192,60110,128,0,60776:0:0:0:0:
475,192,60110,128,0,60776:0:0:0:0:
109,192,60110,1,0,0:0:0:0:
182,192,60221,1,0,0:0:0:0:
256,192,60332,1,0,0:0:0:0:
36,192,60332,1,0,0:0:0:0:
402,192,60443,1,0,0:0:0:0:
182,192,60554,1,0,0:0:0:0:
109,192,60665,1,0,0:0:0:0:
182,192,60776,1,0,0:0:0:0:
36,192,60776,1,0,0:0:0:0:
402,192,60776,1,0,0:0:0:0:
329,192,60999,128,0,61110:0:0:0:0:
256,192,61110,128,0,61221:0:0:0:0:
182,192,61221,128,0,61443:0:0:0:0:
475,192,61221,1,0,0:0:0:0:
36,192,61221,128,0,61443:0:0:0:0:
256,192,61443,128,0,61665:0:0:0:0:
402,192,61443,128,0,61665:0:0:0:0:
475,192,61665,128,0,62110:0:0:0:0:
182,192,61665,128,0,61888:0:0:0:0:
36,192,61665,128,0,61888:0:0:0:0:
329,192,61888,128,0,62110:0:0:0:0:
109,192,61888,128,0,62110:0:0:0:0:
402,192,62110,1,0,0:0:0:0:
36,192,62110,1,0,0:0:0:0:
256,192,62110,1,0,0:0:0:0:
182,192,62221,1,0,0:0:0:0:
329,192,62332,128,0,62554:0:0:0:0:
109,192,62332,1,0,0:0:0:0:
256,192,62443,1,0,0:0:0:0:
475,192,62554,128,0,62999:0:0:0:0:
36,192,62554,1,0,0:0:0:0:
182,192,62554,1,0,0:0:0:0:
256,192,62665,1,0,0:0:0:0:
329,192,62776,128,0,62999:0:0:0:0:
109,192,62776,1,0,0:0:0:0:
182,192,62888,1,0,0:0:0:0:
402,192,62999,128,0,63221:0:0:0:0:
256,192,62999,128,0,63221:0:0:0:0:
36,192,62999,128,0,63443:0:0:0:0:
182,192,63221,128,0,63443:0:0:0:0:
329,192,63221,128,0,63443:0:0:0:0:
109,192,63443,128,0,63665:0:0:0:0:
256,192,63443,128,0,63665:0:0:0:0:
475,192,63443,128,0,63665:0:0:0:0:
182,192,63665,128,0,63888:0:0:0:0:
36,192,63665,128,0,64332:0:0:0:0:
402,192,63665,1,0,0:0:0:0:
329,192,63776,1,0,0:0:0:0:
475,192,63888,1,0,0:0:0:0:
256,192,63888,1,0,0:0:0:0:
329,192,63999,1,0,0:0:0:0:
256,192,64110,1,0,0:0:0:0:
182,192,64221,1,0,0:0:0:0:
109,192,64332,1,0,0:0:0:0:
475,192,64332,1,0,0:0:0:0:
402,192,64332,1,0,0:0:0:0:
329,192,64554,128,0,64665:0:0:0:0:
182,192,64554,128,0,64999:0:0:0:0:
402,192,64665,128,0,64776:0:0:0:0:
109,192,64665,128,0,64999:0:0:0:0:
475,192,64776,128,0,64999:0:0:0:0:
36,192,64776,128,0,64999:0:0:0:0:
256,192,64999,1,0,0:0:0:0:
329,192,65110,1,0,0:0:0:0:
182,192,65221,128,0,65443:0:0:0:0:
36,192,65221,128,0,65443:0:0:0:0:
402,192,65221,1,0,0:0:0:0:
256,192,65443,1,0,0:0:0:0:
475,192,65443,128,0,65888:0:0:0:0:
402,192,65554,128,0,65888:0:0:0:0:
329,192,65554,128,0,65888:0:0:0:0:
182,192,65665,1,0,0:0:0:0:
109,192,65665,1,0,0:0:0:0:
256,192,65888,128,0,66110:0:0:0:0:
36,192,65888,128,0,66776:0:0:0:0:
182,192,66110,128,0,66332:0:0:0:0:
475,192,66110,1,0,0:0:0:0:
109,192,66332,128,0,66776:0:0:0:0:
329,192,66332,1,0,0:0:0:0:
402,192,66443,1,0,0:0:0:0:
475,192,66554,1,0,0:0:0:0:
182,192,66554,128,0,66776:0:0:0:0:
256,192,66554,128,0,66776:0:0:0:0:
402,192,66776,1,0,0:0:0:0:
256,192,66999,1,0,0:0:0:0:
182,192,66999,1,0,0:0:0:0:
329,192,66999,1,0,0:0:0:0:
475,192,67221,128,0,67888:0:0:0:0:
36,192,67221,1,0,0:0:0:0:
256,192,67221,128,0,67443:0:0:0:0:
109,192,67332,1,0,0:0:0:0:
182,192,67443,1,0,0:0:0:0:
402,192,67443,1,0,0:0:0:0:
109,192,67665,128,0,67888:0:0:0:0:
329,192,67665,128,0,67888:0:0:0:0:
36,192,67888,128,0,68110:0:0:0:0:
256,192,67888,128,0,68110:0:0:0:0:
109,192,68110,128,0,68332:0:0:0:0:
402,192,68110,128,0,68332:0:0:0:0:
36,192,68332,128,0,69443:0:0:0:0:
475,192,68332,128,0,69665:0:0:0:0:
329,192,68332,128,0,68999:0:0:0:0:
182,192,68332,128,0,69221:0:0:0:0:
109,192,68554,1,0,0:0:0:0:
256,192,68665,1,0,0:0:0:0:
402,192,68776,1,0,0:0:0:0:
256,192,68999,1,0,0:0:0:0:
109,192,69110,1,0,0:0:0:0:
329,192,69221,1,0,0:0:0:0:
182,192,69443,1,0,0:0:0:0:
329,192,69554,1,0,0:0:0:0:
36,192,69665,1,0,0:0:0:0:
402,192,69665,1,0,0:0:0:0:
256,192,69665,1,0,0:0:0:0:
182,192,69888,128,0,70332:0:0:0:0:
109,192,69888,128,0,70332:0:0:0:0:
475,192,69888,128,0,70110:0:0:0:0:
329,192,69888,128,0,70332:0:0:0:0:
256,192,70110,1,0,0:0:0:0:
36,192,70332,1,0,0:0:0:0:
475,192,70332,1,0,0:0:0:0:
182,192,70554,1,0,0:0:0:0:
329,192,70554,1,0,0:0:0:0:
109,192,70554,128,0,70999:0:0:0:0:
402,192,70554,128,0,70999:0:0:0:0:
182,192,70776,128,0,70999:0:0:0:0:
329,192,70776,128,0,70999:0:0:0:0:
256,192,70888,1,0,0:0:0:0:
36,192,70999,1,0,0:0:0:0:
475,192,70999,1,0,0:0:0:0:
182,192,71221,1,0,0:0:0:0:
329,192,71221,1,0,0:0:0:0:
256,192,71221,1,0,0:0:0:0:
36,192,71443,1,0,0:0:0:0:
475,192,71443,1,0,0:0:0:0:
109,192,71443,1,0,0:0:0:0:
402,192,71443,1,0,0:0:0:0:
182,192,71665,1,0,0:0:0:0:
329,192,71665,1,0,0:0:0:0:
182,192,71776,1,0,0:0:0:0:
475,192,71888,128,0,72110:0:0:0:0:
402,192,71888,128,0,72110:0:0:0:0:
256,192,71888,128,0,72332:0:0:0:0:
36,192,71888,128,0,72110:0:0:0:0:
329,192,72110,128,0,72332:0:0:0:0:
109,192,72110,128,0,72332:0:0:0:0:
475,192,72332,128,0,72776:0:0:0:0:
182,192,72332,128,0,72776:0:0:0:0:
402,192,72332,128,0,72554:0:0:0:0:
109,192,72554,128,0,72776:0:0:0:0:
36,192,72554,128,0,72776:0:0:0:0:
329,192,72776,128,0,72888:0:0:0:0:
402,192,72888,128,0,72999:0:0:0:0:
475,192,72999,128,0,73110:0:0:0:0:
109,192,72999,128,0,73110:0:0:0:0:
36,192,72999,128,0,73110:0:0:0:0:
256,192,73110,128,0,73221:0:0:0:0:
109,192,73221,128,0,73332:0:0:0:0:
402,192,73221,128,0,73332:0:0:0:0:
182,192,73221,128,0,73332:0:0:0:0:
329,192,73332,128,0,73443:0:0:0:0:
475,192,73443,128,0,73554:0:0:0:0:
36,192,73443,128,0,73554:0:0:0:0:
256,192,73443,128,0,73554:0:0:0:0:
402,192,73554,128,0,73665:0:0:0:0:
329,192,73665,128,0,74110:0:0:0:0:
182,192,73665,128,0,73888:0:0:0:0:
109,192,73665,128,0,73888:0:0:0:0:
36,192,73888,128,0,74332:0:0:0:0:
256,192,73888,128,0,74110:0:0:0:0:
109,192,74110,128,0,74332:0:0:0:0:
402,192,74110,128,0,74332:0:0:0:0:
475,192,74110,128,0,74332:0:0:0:0:
182,192,74332,128,0,74443:0:0:0:0:
329,192,74332,128,0,74443:0:0:0:0:
256,192,74443,128,0,74554:0:0:0:0:
36,192,74554,128,0,74665:0:0:0:0:
475,192,74554,128,0,74665:0:0:0:0:
109,192,74554,128,0,74665:0:0:0:0:
182,192,74665,128,0,74776:0:0:0:0:
329,192,74665,128,0,74776:0:0:0:0:
402,192,74776,128,0,74888:0:0:0:0:
256,192,74888,128,0,74999:0:0:0:0:
475,192,74888,128,0,74999:0:0:0:0:
109,192,74999,1,0,0:0:0:0:
329,192,74999,1,0,0:0:0:0:
36,192,74999,1,0,0:0:0:0:
182,192,75221,128,0,75332:0:0:0:0:
109,192,75332,128,0,75443:0:0:0:0:
475,192,75443,128,0,75665:0:0:0:0:
329,192,75443,128,0,75665:0:0:0:0:
36,192,75443,128,0,75665:0:0:0:0:
182,192,75665,128,0,75888:0:0:0:0:
256,192,75665,128,0,76110:0:0:0:0:
402,192,75888,128,0,76110:0:0:0:0:
475,192,75888,128,0,76110:0:0:0:0:
36,192,75888,128,0,76110:0:0:0:0:
329,192,76110,128,0,76221:0:0:0:0:
109,192,76110,128,0,76221:0:0:0:0:
182,192,76221,128,0,76332:0:0:0:0:
402,192,76221,128,0,76332:0:0:0:0:
475,192,76332,128,0,76443:0:0:0:0:
36,192,76332,128,0,76443:0:0:0:0:
256,192,76443,128,0,76554:0:0:0:0:
109,192,76554,128,0,76665:0:0:0:0:
329,192,76554,128,0,76665:0:0:0:0:
402,192,76554,128,0,76665:0:0:0:0:
182,192,76665,128,0,76776:0:0:0:0:
36,192,76776,128,0,77221:0:0:0:0:
256,192,76776,128,0,76999:0:0:0:0:
475,192,76776,128,0,76999:0:0:0:0:
182,192,76999,128,0,77221:0:0:0:0:
402,192,76999,128,0,77110:0:0:0:0:
329,192,77110,128,0,77221:0:0:0:0:
475,192,77221,128,0,77665:0:0:0:0:
256,192,77221,128,0,77443:0:0:0:0:
109,192,77221,128,0,77443:0:0:0:0:
182,192,77443,128,0,77665:0:0:0:0:
329,192,77443,128,0,77665:0:0:0:0:
36,192,77665,128,0,77888:0:0:0:0:
256,192,77665,128,0,77888:0:0:0:0:
402,192,77665,128,0,77888:0:0:0:0:
329,192,77888,128,0,77999:0:0:0:0:
475,192,77888,128,0,77999:0:0:0:0:
256,192,77999,128,0,78110:0:0:0:0:
182,192,77999,128,0,78110:0:0:0:0:
109,192,78110,128,0,78221:0:0:0:0:
36,192,78110,128,0,78221:0:0:0:0:
402,192,78221,128,0,78332:0:0:0:0:
475,192,78221,128,0,78332:0:0:0:0:
329,192,78332,128,0,78443:0:0:0:0:
182,192,78332,128,0,78443:0:0:0:0:
36,192,78443,128,0,78554:0:0:0:0:
109,192,78443,128,0,78554:0:0:0:0:
475,192,78554,1,0,0:0:0:0:
402,192,78554,1,0,0:0:0:0:
256,192,78554,1,0,0:0:0:0:
182,192,78776,128,0,78888:0:0:0:0:
402,192,78888,128,0,78999:0:0:0:0:
475,192,78999,128,0,79221:0:0:0:0:
36,192,78999,128,0,79221:0:0:0:0:
182,192,78999,128,0,79443:0:0:0:0:
256,192,79221,128,0,79443:0:0:0:0:
329,192,79221,128,0,79665:0:0:0:0:
36,192,79443,128,0,79665:0:0:0:0:
402,192,79443,128,0,79665:0:0:0:0:
475,192,79443,128,0,79665:0:0:0:0:
182,192,79665,128,0,80110:0:0:0:0:
109,192,79776,128,0,80110:0:0:0:0:
36,192,79776,128,0,80110:0:0:0:0:
329,192,79888,1,0,0:0:0:0:
475,192,79888,1,0,0:0:0:0:
256,192,79999,128,0,80110:0:0:0:0:
402,192,80110,128,0,80332:0:0:0:0:
329,192,80332,128,0,80443:0:0:0:0:
36,192,80332,128,0,80776:0:0:0:0:
182,192,80332,128,0,80554:0:0:0:0:
402,192,80443,128,0,80554:0:0:0:0:
256,192,80554,128,0,80776:0:0:0:0:
475,192,80554,128,0,80776:0:0:0:0:
402,192,80776,128,0,81221:0:0:0:0:
329,192,80776,128,0,80999:0:0:0:0:
109,192,80776,128,0,80999:0:0:0:0:
182,192,80999,128,0,81221:0:0:0:0:
256,192,80999,128,0,81221:0:0:0:0:
109,192,81221,1,0,0:0:0:0:
36,192,81221,1,0,0:0:0:0:
475,192,81221,1,0,0:0:0:0:
182,192,81443,128,0,81554:0:0:0:0:
475,192,81443,128,0,81554:0:0:0:0:
256,192,81554,128,0,81665:0:0:0:0:
109,192,81554,128,0,81665:0:0:0:0:
329,192,81665,128,0,81776:0:0:0:0:
475,192,81665,128,0,81776:0:0:0:0:
402,192,81665,128,0,81776:0:0:0:0:
36,192,81776,128,0,81888:0:0:0:0:
256,192,81776,128,0,81888:0:0:0:0:
182,192,81888,128,0,81999:0:0:0:0:
329,192,81888,128,0,81999:0:0:0:0:
109,192,81999,128,0,82110:0:0:0:0:
402,192,81999,128,0,82110:0:0:0:0:
256,192,82110,1,0,0:0:0:0:
36,192,82110,1,0,0:0:0:0:
475,192,82110,1,0,0:0:0:0:
329,192,82332,128,0,82443:0:0:0:0:
182,192,82443,128,0,82554:0:0:0:0:
475,192,82554,128,0,82999:0:0:0:0:
402,192,82554,128,0,82999:0:0:0:0:
109,192,82554,128,0,82776:0:0:0:0:
329,192,82776,128,0,82999:0:0:0:0:
256,192,82776,128,0,82999:0:0:0:0:
36,192,82776,128,0,82999:0:0:0:0:
182,192,82999,128,0,83221:0:0:0:0:
109,192,82999,128,0,83221:0:0:0:0:
475,192,83221,128,0,83665:0:0:0:0:
36,192,83221,128,0,83665:0:0:0:0:
402,192,83332,128,0,83665:0:0:0:0:
329,192,83332,128,0,83665:0:0:0:0:
182,192,83443,1,0,0:0:0:0:
109,192,83665,128,0,83888:0:0:0:0:
256,192,83665,128,0,83888:0:0:0:0:
36,192,83888,128,0,84332:0:0:0:0:
475,192,83888,128,0,84110:0:0:0:0:
402,192,83888,128,0,84332:0:0:0:0:
182,192,84110,128,0,84332:0:0:0:0:
109,192,84110,128,0,84332:0:0:0:0:
329,192,84332,128,0,84443:0:0:0:0:
256,192,84332,128,0,84443:0:0:0:0:
475,192,84443,128,0,84554:0:0:0:0:
402,192,84443,128,0,84554:0:0:0:0:
36,192,84554,128,0,84665:0:0:0:0:
256,192,84554,128,0,84665:0:0:0:0:
109,192,84665,128,0,84776:0:0:0:0:
329,192,84665,128,0,84776:0:0:0:0:
475,192,84776,128,0,84999:0:0:0:0:
402,192,84776,128,0,84999:0:0:0:0:
182,192,84776,128,0,84999:0:0:0:0:
256,192,84999,1,0,0:0:0:0:
36,192,85110,1,0,0:0:0:0:
475,192,85221,128,0,86999:0:0:0:0:
402,192,85221,128,0,86999:0:0:0:0:
182,192,85221,128,0,85332:0:0:0:0:
109,192,85332,128,0,85443:0:0:0:0:
329,192,85443,128,0,85554:0:0:0:0:
36,192,85443,128,0,85665:0:0:0:0:
256,192,85554,128,0,85665:0:0:0:0:
182,192,85665,128,0,85776:0:0:0:0:
109,192,85665,128,0,85776:0:0:0:0:
329,192,85776,128,0,85888:0:0:0:0:
109,192,85888,128,0,85999:0:0:0:0:
36,192,85888,128,0,85999:0:0:0:0:
256,192,85999,128,0,86110:0:0:0:0:
36,192,86110,1,0,0:0:0:0:
109,192,86110,1,0,0:0:0:0:
182,192,86110,128,0,88554:0:0:0:0:
329,192,87221,128,0,87443:0:0:0:0:
329,192,87665,128,0,88332:0:0:0:0:
402,192,87888,128,0,88332:0:0:0:0:
329,192,88554,128,0,88776:0:0:0:0:
402,192,88554,128,0,88776:0:0:0:0:
109,192,88554,128,0,89665:0:0:0:0:
