osu file format v14

[General]
AudioFilename: audio.mp3
AudioLeadIn: 0
PreviewTime: 57443
Countdown: 0
SampleSet: Soft
StackLeniency: 0.7
Mode: 3
LetterboxInBreaks: 0
SpecialStyle: 0
WidescreenStoryboard: 1

[Editor]
Bookmarks: 42554,57665,78554
DistanceSpacing: 1.1
BeatDivisor: 8
GridSize: 4
TimelineZoom: 3.3

[Metadata]
Title:Silky Heart (TV Size)
TitleUnicode:Silky Heart (TV Size)
Artist:Horie Yui
ArtistUnicode:堀江由衣
Creator:Sun
Version:pwp!! qwq!!
Source:とらドラ!
Tags:Toradora! toradora anime japanese pop jpop j-pop op opening 2
BeatmapID:4534772
BeatmapSetID:2152274

[Difficulty]
HPDrainRate:7
CircleSize:7
OverallDifficulty:0
ApproachRate:5
SliderMultiplier:1.4
SliderTickRate:1

[Events]
//Background and Video events
Video,10,"toradora+op+2.avi"
0,0,"BG.jpg",0,0
//Break Periods
//Storyboard Layer 0 (Background)
//Storyboard Layer 1 (Fail)
//Storyboard Layer 2 (Pass)
//Storyboard Layer 3 (Foreground)
//Storyboard Layer 4 (Overlay)
//Storyboard Sound Samples

[TimingPoints]
777,444.444444444444,4,2,0,30,1,0

[HitObjects]
36,192,110,5,0,0:0:0:0:
109,192,332,1,0,0:0:0:0:
182,192,554,1,0,0:0:0:0:
36,192,777,5,0,0:0:0:0:
256,192,777,128,0,1221:0:0:0:0:
402,192,777,128,0,1221:0:0:0:0:
475,192,777,128,0,1221:0:0:0:0:
329,192,1888,128,0,2110:0:0:0:0:
329,192,2332,128,0,2554:0:0:0:0:
36,192,2554,128,0,2999:0:0:0:0:
475,192,2554,128,0,2999:0:0:0:0:
182,192,2554,128,0,2999:0:0:0:0:
329,192,2776,128,0,3221:0:0:0:0:
475,192,3221,128,0,3888:0:0:0:0:
36,192,3221,128,0,3888:0:0:0:0:
182,192,3221,128,0,3665:0:0:0:0:
329,192,3665,1,0,0:0:0:0:
256,192,3888,1,0,0:0:0:0:
109,192,4110,1,0,0:0:0:0:
36,192,4110,1,0,0:0:0:0:
182,192,4110,1,0,0:0:0:0:
109,192,4332,128,0,4776:0:0:0:0:
36,192,4332,128,0,4776:0:0:0:0:
182,192,4332,128,0,4776:0:0:0:0:
256,192,5443,128,0,5665:0:0:0:0:
256,192,5888,128,0,6110:0:0:0:0:
109,192,6110,128,0,6554:0:0:0:0:
36,192,6110,128,0,6554:0:0:0:0:
475,192,6110,128,0,6554:0:0:0:0:
256,192,6332,128,0,6776:0:0:0:0:
36,192,6776,128,0,7221:0:0:0:0:
402,192,6776,128,0,7221:0:0:0:0:
475,192,6776,128,0,7221:0:0:0:0:
256,192,7221,1,0,0:0:0:0:
182,192,7443,1,0,0:0:0:0:
36,192,7443,1,0,0:0:0:0:
109,192,7443,1,0,0:0:0:0:
329,192,7665,1,0,0:0:0:0:
402,192,7888,128,0,8110:0:0:0:0:
475,192,7888,128,0,8110:0:0:0:0:
256,192,7888,128,0,8332:0:0:0:0:
36,192,7888,128,0,8332:0:0:0:0:
329,192,8110,1,0,0:0:0:0:
109,192,8332,128,0,8554:0:0:0:0:
329,192,8332,128,0,8554:0:0:0:0:
182,192,8554,128,0,8776:0:0:0:0:
402,192,8554,128,0,8776:0:0:0:0:
36,192,8776,1,0,0:0:0:0:
256,192,8776,128,0,9221:0:0:0:0:
475,192,8776,128,0,9221:0:0:0:0:
36,192,8999,128,0,9221:0:0:0:0:
109,192,9221,1,0,0:0:0:0:
402,192,9221,128,0,9665:0:0:0:0:
329,192,9221,128,0,9665:0:0:0:0:
109,192,9443,128,0,9665:0:0:0:0:
182,192,9665,128,0,10110:0:0:0:0:
475,192,9665,128,0,10332:0:0:0:0:
36,192,9665,128,0,10110:0:0:0:0:
402,192,9888,128,0,10332:0:0:0:0:
329,192,10110,1,0,0:0:0:0:
256,192,10110,1,0,0:0:0:0:
109,192,10332,128,0,10776:0:0:0:0:
256,192,10332,128,0,10776:0:0:0:0:
475,192,10554,1,0,0:0:0:0:
402,192,10554,1,0,0:0:0:0:
182,192,10776,128,0,10888:0:0:0:0:
329,192,10776,128,0,10888:0:0:0:0:
36,192,10999,1,0,0:0:0:0:
182,192,10999,128,0,11110:0:0:0:0:
329,192,10999,128,0,11110:0:0:0:0:
109,192,11221,1,0,0:0:0:0:
256,192,11221,128,0,11332:0:0:0:0:
402,192,11221,128,0,11332:0:0:0:0:
109,192,11332,1,0,0:0:0:0:
182,192,11443,1,0,0:0:0:0:
475,192,11443,128,0,11888:0:0:0:0:
329,192,11443,128,0,11554:0:0:0:0:
329,192,11665,128,0,11888:0:0:0:0:
402,192,11776,128,0,11888:0:0:0:0:
256,192,11888,1,0,0:0:0:0:
36,192,11888,128,0,12110:0:0:0:0:
109,192,11888,128,0,12110:0:0:0:0:
182,192,12110,128,0,12332:0:0:0:0:
256,192,12110,128,0,12332:0:0:0:0:
329,192,12332,128,0,12776:0:0:0:0:
475,192,12332,1,0,0:0:0:0:
36,192,12332,128,0,12776:0:0:0:0:
475,192,12554,128,0,12776:0:0:0:0:
402,192,12776,128,0,13110:0:0:0:0:
182,192,12776,128,0,12888:0:0:0:0:
109,192,12776,1,0,0:0:0:0:
256,192,12999,128,0,13110:0:0:0:0:
182,192,12999,1,0,0:0:0:0:
109,192,13110,1,0,0:0:0:0:
329,192,13110,1,0,0:0:0:0:
36,192,13221,128,0,13665:0:0:0:0:
256,192,13221,128,0,13665:0:0:0:0:
475,192,13221,128,0,13665:0:0:0:0:
329,192,13443,128,0,14110:0:0:0:0:
402,192,13554,128,0,13665:0:0:0:0:
182,192,13888,128,0,14332:0:0:0:0:
36,192,13888,128,0,14332:0:0:0:0:
475,192,13888,128,0,14332:0:0:0:0:
329,192,14332,1,0,0:0:0:0:
182,192,14554,128,0,14665:0:0:0:0:
256,192,14554,128,0,14665:0:0:0:0:
109,192,14554,1,0,0:0:0:0:
36,192,14554,1,0,0:0:0:0:
109,192,14665,128,0,14776:0:0:0:0:
36,192,14665,128,0,14776:0:0:0:0:
475,192,14776,128,0,14999:0:0:0:0:
256,192,14888,128,0,14999:0:0:0:0:
182,192,14888,128,0,14999:0:0:0:0:
36,192,14999,1,0,0:0:0:0:
329,192,14999,128,0,15221:0:0:0:0:
402,192,14999,128,0,15888:0:0:0:0:
109,192,14999,1,0,0:0:0:0:
182,192,15221,128,0,15332:0:0:0:0:
256,192,15332,1,0,0:0:0:0:
182,192,15443,1,0,0:0:0:0:
109,192,15443,128,0,15554:0:0:0:0:
329,192,15443,1,0,0:0:0:0:
109,192,15665,1,0,0:0:0:0:
36,192,15665,128,0,15776:0:0:0:0:
329,192,15776,1,0,0:0:0:0:
475,192,15888,1,0,0:0:0:0:
182,192,15888,1,0,0:0:0:0:
256,192,15888,1,0,0:0:0:0:
329,192,16110,128,0,16221:0:0:0:0:
109,192,16110,128,0,16665:0:0:0:0:
36,192,16332,1,0,0:0:0:0:
402,192,16332,128,0,16443:0:0:0:0:
329,192,16332,1,0,0:0:0:0:
182,192,16443,1,0,0:0:0:0:
475,192,16554,128,0,16665:0:0:0:0:
256,192,16554,1,0,0:0:0:0:
402,192,16665,1,0,0:0:0:0:
36,192,16776,128,0,17443:0:0:0:0:
182,192,16776,128,0,17443:0:0:0:0:
475,192,16776,1,0,0:0:0:0:
256,192,16999,128,0,17110:0:0:0:0:
402,192,16999,1,0,0:0:0:0:
329,192,17110,1,0,0:0:0:0:
256,192,17221,1,0,0:0:0:0:
475,192,17443,128,0,18554:0:0:0:0:
402,192,17443,128,0,17888:0:0:0:0:
329,192,17443,128,0,17554:0:0:0:0:
182,192,17554,1,0,0:0:0:0:
329,192,17665,1,0,0:0:0:0:
36,192,17665,1,0,0:0:0:0:
109,192,17888,1,0,0:0:0:0:
182,192,17888,128,0,17999:0:0:0:0:
182,192,18110,1,0,0:0:0:0:
256,192,18110,128,0,18221:0:0:0:0:
402,192,18221,1,0,0:0:0:0:
256,192,18332,1,0,0:0:0:0:
329,192,18332,128,0,18443:0:0:0:0:
182,192,18443,1,0,0:0:0:0:
329,192,18554,1,0,0:0:0:0:
36,192,18554,128,0,19443:0:0:0:0:
109,192,18554,128,0,18999:0:0:0:0:
475,192,18776,128,0,18888:0:0:0:0:
256,192,18776,1,0,0:0:0:0:
329,192,18888,1,0,0:0:0:0:
475,192,18999,1,0,0:0:0:0:
182,192,18999,1,0,0:0:0:0:
402,192,18999,128,0,19110:0:0:0:0:
402,192,19221,1,0,0:0:0:0:
329,192,19221,128,0,19332:0:0:0:0:
182,192,19332,1,0,0:0:0:0:
329,192,19443,1,0,0:0:0:0:
109,192,19443,1,0,0:0:0:0:
256,192,19665,128,0,19776:0:0:0:0:
402,192,19665,128,0,20221:0:0:0:0:
36,192,19888,1,0,0:0:0:0:
182,192,19888,128,0,19999:0:0:0:0:
256,192,19888,1,0,0:0:0:0:
475,192,19999,1,0,0:0:0:0:
109,192,20110,128,0,20221:0:0:0:0:
182,192,20110,1,0,0:0:0:0:
329,192,20221,1,0,0:0:0:0:
256,192,20332,128,0,21610:0:0:0:0:
475,192,20332,128,0,20999:0:0:0:0:
109,192,20332,1,0,0:0:0:0:
36,192,20554,128,0,20665:0:0:0:0:
182,192,20554,128,0,20665:0:0:0:0:
36,192,20776,1,0,0:0:0:0:
182,192,20776,1,0,0:0:0:0:
402,192,20776,128,0,20999:0:0:0:0:
36,192,20999,128,0,21110:0:0:0:0:
329,192,20999,1,0,0:0:0:0:
109,192,21054,128,0,21165:0:0:0:0:
182,192,21110,128,0,21221:0:0:0:0:
475,192,21165,128,0,21276:0:0:0:0:
402,192,21221,128,0,21332:0:0:0:0:
329,192,21276,128,0,21388:0:0:0:0:
36,192,21332,128,0,21443:0:0:0:0:
109,192,21388,128,0,21499:0:0:0:0:
182,192,21443,128,0,21554:0:0:0:0:
329,192,21499,128,0,21665:0:0:0:0:
402,192,21554,128,0,21721:0:0:0:0:
475,192,21610,128,0,21776:0:0:0:0:
36,192,21665,128,0,21776:0:0:0:0:
109,192,21665,128,0,21776:0:0:0:0:
182,192,21721,128,0,21832:0:0:0:0:
256,192,21776,128,0,21888:0:0:0:0:
329,192,21832,128,0,21943:0:0:0:0:
402,192,21888,128,0,21999:0:0:0:0:
475,192,21888,128,0,21999:0:0:0:0:
36,192,21943,128,0,22054:0:0:0:0:
109,192,21943,128,0,22054:0:0:0:0:
182,192,21999,128,0,22110:0:0:0:0:
256,192,22054,128,0,22165:0:0:0:0:
475,192,22110,128,0,22999:0:0:0:0:
402,192,22110,128,0,22665:0:0:0:0:
329,192,22110,128,0,22221:0:0:0:0:
182,192,22332,128,0,22443:0:0:0:0:
256,192,22443,1,0,0:0:0:0:
329,192,22554,128,0,22665:0:0:0:0:
36,192,22554,1,0,0:0:0:0:
109,192,22554,1,0,0:0:0:0:
256,192,22776,128,0,22888:0:0:0:0:
182,192,22776,1,0,0:0:0:0:
329,192,22888,1,0,0:0:0:0:
36,192,22999,1,0,0:0:0:0:
256,192,22999,1,0,0:0:0:0:
109,192,22999,1,0,0:0:0:0:
182,192,23221,128,0,23888:0:0:0:0:
329,192,23221,128,0,23332:0:0:0:0:
256,192,23443,128,0,23554:0:0:0:0:
475,192,23443,1,0,0:0:0:0:
36,192,23443,1,0,0:0:0:0:
109,192,23554,1,0,0:0:0:0:
402,192,23665,128,0,23776:0:0:0:0:
256,192,23776,1,0,0:0:0:0:
109,192,23888,128,0,24332:0:0:0:0:
36,192,23888,128,0,24776:0:0:0:0:
329,192,23888,1,0,0:0:0:0:
475,192,24110,128,0,24332:0:0:0:0:
256,192,24110,1,0,0:0:0:0:
329,192,24221,1,0,0:0:0:0:
402,192,24332,128,0,24554:0:0:0:0:
182,192,24332,1,0,0:0:0:0:
329,192,24554,128,0,24776:0:0:0:0:
109,192,24554,1,0,0:0:0:0:
182,192,24665,1,0,0:0:0:0:
256,192,24776,128,0,24999:0:0:0:0:
402,192,24776,1,0,0:0:0:0:
475,192,24776,128,0,25665:0:0:0:0:
36,192,24999,128,0,25221:0:0:0:0:
182,192,24999,1,0,0:0:0:0:
329,192,25110,1,0,0:0:0:0:
109,192,25221,128,0,25443:0:0:0:0:
402,192,25221,1,0,0:0:0:0:
256,192,25332,1,0,0:0:0:0:
182,192,25443,128,0,25665:0:0:0:0:
329,192,25443,1,0,0:0:0:0:
402,192,25554,1,0,0:0:0:0:
256,192,25665,128,0,25888:0:0:0:0:
36,192,25665,128,0,26332:0:0:0:0:
109,192,25665,128,0,25888:0:0:0:0:
402,192,25888,1,0,0:0:0:0:
402,192,25999,1,0,0:0:0:0:
109,192,26110,1,0,0:0:0:0:
256,192,26110,1,0,0:0:0:0:
329,192,26110,128,0,26332:0:0:0:0:
475,192,26332,128,0,26999:0:0:0:0:
182,192,26332,1,0,0:0:0:0:
109,192,26443,1,0,0:0:0:0:
329,192,26554,1,0,0:0:0:0:
36,192,26554,1,0,0:0:0:0:
402,192,26554,1,0,0:0:0:0:
256,192,26776,128,0,27221:0:0:0:0:
182,192,26776,128,0,27221:0:0:0:0:
36,192,26999,1,0,0:0:0:0:
109,192,26999,1,0,0:0:0:0:
402,192,26999,1,0,0:0:0:0:
36,192,27221,128,0,28110:0:0:0:0:
109,192,27221,128,0,28110:0:0:0:0:
329,192,27221,1,0,0:0:0:0:
402,192,27332,1,0,0:0:0:0:
475,192,27443,1,0,0:0:0:0:
182,192,27443,1,0,0:0:0:0:
256,192,27443,1,0,0:0:0:0:
329,192,27665,128,0,27888:0:0:0:0:
402,192,27776,128,0,28110:0:0:0:0:
475,192,27888,128,0,28110:0:0:0:0:
329,192,27999,128,0,28110:0:0:0:0:
36,192,28332,128,0,28665:0:0:0:0:
402,192,28332,128,0,28665:0:0:0:0:
475,192,28332,128,0,28665:0:0:0:0:
182,192,28443,128,0,28665:0:0:0:0:
329,192,28554,128,0,28665:0:0:0:0:
475,192,28776,128,0,29110:0:0:0:0:
109,192,28776,128,0,28999:0:0:0:0:
182,192,28776,128,0,28888:0:0:0:0:
36,192,28776,128,0,29110:0:0:0:0:
402,192,28888,128,0,29110:0:0:0:0:
329,192,28999,128,0,29110:0:0:0:0:
256,192,29110,1,0,0:0:0:0:
182,192,29221,1,0,0:0:0:0:
109,192,29221,1,0,0:0:0:0:
36,192,29221,1,0,0:0:0:0:
329,192,29221,1,0,0:0:0:0:
402,192,29221,1,0,0:0:0:0:
475,192,29221,1,0,0:0:0:0:
475,192,29443,128,0,29999:0:0:0:0:
256,192,29443,128,0,29554:0:0:0:0:
402,192,29665,128,0,29999:0:0:0:0:
182,192,29665,128,0,29776:0:0:0:0:
109,192,29888,128,0,29999:0:0:0:0:
329,192,29888,128,0,29999:0:0:0:0:
36,192,29999,1,0,0:0:0:0:
182,192,30110,1,0,0:0:0:0:
475,192,30110,1,0,0:0:0:0:
402,192,30110,1,0,0:0:0:0:
329,192,30332,128,0,30554:0:0:0:0:
109,192,30332,128,0,30888:0:0:0:0:
475,192,30554,128,0,30888:0:0:0:0:
256,192,30554,128,0,30665:0:0:0:0:
402,192,30776,128,0,30888:0:0:0:0:
182,192,30776,1,0,0:0:0:0:
256,192,30888,1,0,0:0:0:0:
475,192,30999,1,0,0:0:0:0:
329,192,30999,1,0,0:0:0:0:
109,192,30999,1,0,0:0:0:0:
36,192,31221,128,0,31888:0:0:0:0:
182,192,31221,1,0,0:0:0:0:
475,192,31443,1,0,0:0:0:0:
109,192,31443,128,0,31888:0:0:0:0:
402,192,31443,1,0,0:0:0:0:
256,192,31443,1,0,0:0:0:0:
329,192,31665,1,0,0:0:0:0:
182,192,31665,128,0,32110:0:0:0:0:
329,192,31776,1,0,0:0:0:0:
402,192,31888,1,0,0:0:0:0:
256,192,31888,128,0,32110:0:0:0:0:
475,192,31888,1,0,0:0:0:0:
475,192,32110,1,0,0:0:0:0:
36,192,32110,1,0,0:0:0:0:
109,192,32165,1,0,0:0:0:0:
402,192,32165,1,0,0:0:0:0:
182,192,32221,1,0,0:0:0:0:
329,192,32221,1,0,0:0:0:0:
256,192,32276,1,0,0:0:0:0:
475,192,32332,1,0,0:0:0:0:
36,192,32332,128,0,32554:0:0:0:0:
109,192,32332,128,0,32554:0:0:0:0:
402,192,32332,1,0,0:0:0:0:
182,192,32443,128,0,32665:0:0:0:0:
256,192,32443,128,0,32665:0:0:0:0:
329,192,32554,128,0,32776:0:0:0:0:
402,192,32554,128,0,32776:0:0:0:0:
36,192,32665,1,0,0:0:0:0:
109,192,32665,1,0,0:0:0:0:
256,192,32776,1,0,0:0:0:0:
182,192,32776,1,0,0:0:0:0:
475,192,32776,1,0,0:0:0:0:
36,192,32999,128,0,33554:0:0:0:0:
329,192,32999,128,0,33110:0:0:0:0:
475,192,33110,1,0,0:0:0:0:
109,192,33221,128,0,33554:0:0:0:0:
256,192,33221,128,0,33332:0:0:0:0:
182,192,33443,128,0,33554:0:0:0:0:
329,192,33443,1,0,0:0:0:0:
402,192,33554,1,0,0:0:0:0:
475,192,33665,1,0,0:0:0:0:
109,192,33665,1,0,0:0:0:0:
256,192,33665,1,0,0:0:0:0:
182,192,33888,128,0,34443:0:0:0:0:
329,192,33888,128,0,33999:0:0:0:0:
36,192,34110,128,0,34221:0:0:0:0:
402,192,34110,128,0,34443:0:0:0:0:
475,192,34332,128,0,34443:0:0:0:0:
256,192,34332,1,0,0:0:0:0:
329,192,34443,1,0,0:0:0:0:
182,192,34554,1,0,0:0:0:0:
475,192,34554,1,0,0:0:0:0:
36,192,34554,128,0,34888:0:0:0:0:
256,192,34776,1,0,0:0:0:0:
402,192,34776,128,0,34888:0:0:0:0:
329,192,34888,1,0,0:0:0:0:
182,192,34999,1,0,0:0:0:0:
475,192,34999,1,0,0:0:0:0:
36,192,34999,128,0,35332:0:0:0:0:
402,192,35221,128,0,35443:0:0:0:0:
329,192,35221,128,0,35888:0:0:0:0:
256,192,35332,1,0,0:0:0:0:
182,192,35443,1,0,0:0:0:0:
36,192,35443,1,0,0:0:0:0:
109,192,35443,128,0,35665:0:0:0:0:
402,192,35665,1,0,0:0:0:0:
256,192,35665,128,0,36110:0:0:0:0:
475,192,35888,1,0,0:0:0:0:
109,192,35888,1,0,0:0:0:0:
182,192,35888,128,0,36332:0:0:0:0:
36,192,36110,1,0,0:0:0:0:
329,192,36110,1,0,0:0:0:0:
109,192,36221,1,0,0:0:0:0:
329,192,36221,1,0,0:0:0:0:
475,192,36332,1,0,0:0:0:0:
402,192,36332,1,0,0:0:0:0:
256,192,36332,1,0,0:0:0:0:
36,192,36554,128,0,37110:0:0:0:0:
109,192,36554,128,0,36665:0:0:0:0:
329,192,36665,1,0,0:0:0:0:
182,192,36776,128,0,37110:0:0:0:0:
256,192,36776,128,0,36888:0:0:0:0:
329,192,36999,128,0,37110:0:0:0:0:
475,192,36999,1,0,0:0:0:0:
402,192,37110,1,0,0:0:0:0:
36,192,37221,1,0,0:0:0:0:
182,192,37221,1,0,0:0:0:0:
329,192,37221,1,0,0:0:0:0:
402,192,37443,128,0,37999:0:0:0:0:
109,192,37443,128,0,37554:0:0:0:0:
36,192,37665,1,0,0:0:0:0:
256,192,37665,128,0,37999:0:0:0:0:
182,192,37776,1,0,0:0:0:0:
329,192,37888,128,0,37999:0:0:0:0:
109,192,37888,1,0,0:0:0:0:
475,192,37999,1,0,0:0:0:0:
256,192,38110,1,0,0:0:0:0:
402,192,38110,1,0,0:0:0:0:
36,192,38110,1,0,0:0:0:0:
109,192,38332,128,0,38776:0:0:0:0:
182,192,38332,128,0,38554:0:0:0:0:
329,192,38554,1,0,0:0:0:0:
36,192,38554,1,0,0:0:0:0:
475,192,38554,128,0,38999:0:0:0:0:
182,192,38776,128,0,38888:0:0:0:0:
402,192,38888,1,0,0:0:0:0:
329,192,38888,1,0,0:0:0:0:
329,192,38999,128,0,39110:0:0:0:0:
36,192,38999,1,0,0:0:0:0:
182,192,38999,1,0,0:0:0:0:
109,192,39221,128,0,39332:0:0:0:0:
256,192,39221,128,0,39332:0:0:0:0:
36,192,39221,128,0,39665:0:0:0:0:
475,192,39276,1,0,0:0:0:0:
402,192,39332,1,0,0:0:0:0:
329,192,39388,1,0,0:0:0:0:
109,192,39443,1,0,0:0:0:0:
182,192,39443,1,0,0:0:0:0:
256,192,39443,1,0,0:0:0:0:
182,192,39554,128,0,39665:0:0:0:0:
329,192,39665,128,0,39776:0:0:0:0:
475,192,39665,128,0,39776:0:0:0:0:
182,192,39888,128,0,40888:0:0:0:0:
109,192,39888,128,0,40110:0:0:0:0:
36,192,39888,128,0,40110:0:0:0:0:
256,192,39888,128,0,40332:0:0:0:0:
475,192,39888,1,0,0:0:0:0:
329,192,40110,1,0,0:0:0:0:
402,192,40221,1,0,0:0:0:0:
475,192,40332,1,0,0:0:0:0:
36,192,40332,1,0,0:0:0:0:
109,192,40332,1,0,0:0:0:0:
109,192,40554,1,0,0:0:0:0:
36,192,40554,1,0,0:0:0:0:
402,192,40554,128,0,40665:0:0:0:0:
329,192,40554,128,0,41443:0:0:0:0:
475,192,40665,1,0,0:0:0:0:
402,192,40776,1,0,0:0:0:0:
256,192,40776,1,0,0:0:0:0:
256,192,40999,128,0,41443:0:0:0:0:
36,192,40999,1,0,0:0:0:0:
182,192,40999,1,0,0:0:0:0:
475,192,41221,1,0,0:0:0:0:
402,192,41221,1,0,0:0:0:0:
109,192,41221,1,0,0:0:0:0:
36,192,41443,5,0,0:0:0:0:
402,192,41443,128,0,41888:0:0:0:0:
475,192,41443,128,0,42332:0:0:0:0:
182,192,41443,128,0,41888:0:0:0:0:
329,192,41665,1,0,0:0:0:0:
256,192,41665,1,0,0:0:0:0:
109,192,41888,1,0,0:0:0:0:
36,192,41888,1,0,0:0:0:0:
402,192,42110,1,0,0:0:0:0:
182,192,42110,1,0,0:0:0:0:
182,192,42332,1,0,0:0:0:0:
329,192,42443,1,0,0:0:0:0:
109,192,42443,1,0,0:0:0:0:
475,192,42554,1,0,0:0:0:0:
36,192,42554,1,0,0:0:0:0:
256,192,42554,1,0,0:0:0:0:
182,192,42665,1,0,0:0:0:0:
329,192,42776,128,0,42999:0:0:0:0:
475,192,42776,128,0,42888:0:0:0:0:
182,192,42888,128,0,43110:0:0:0:0:
36,192,42999,128,0,43110:0:0:0:0:
475,192,42999,1,0,0:0:0:0:
402,192,42999,128,0,43110:0:0:0:0:
329,192,43110,1,0,0:0:0:0:
256,192,43110,128,0,43221:0:0:0:0:
182,192,43221,1,0,0:0:0:0:
109,192,43221,128,0,43332:0:0:0:0:
36,192,43221,1,0,0:0:0:0:
329,192,43332,1,0,0:0:0:0:
256,192,43332,128,0,43443:0:0:0:0:
36,192,43443,128,0,44221:0:0:0:0:
475,192,43443,1,0,0:0:0:0:
402,192,43443,128,0,43888:0:0:0:0:
109,192,43443,1,0,0:0:0:0:
256,192,43665,128,0,43888:0:0:0:0:
329,192,43665,1,0,0:0:0:0:
109,192,43888,128,0,44221:0:0:0:0:
329,192,43888,128,0,44110:0:0:0:0:
182,192,44110,128,0,44221:0:0:0:0:
475,192,44110,128,0,44332:0:0:0:0:
402,192,44221,1,0,0:0:0:0:
329,192,44221,1,0,0:0:0:0:
182,192,44332,1,0,0:0:0:0:
36,192,44332,1,0,0:0:0:0:
109,192,44332,1,0,0:0:0:0:
256,192,44332,1,0,0:0:0:0:
329,192,44554,128,0,45110:0:0:0:0:
256,192,44554,128,0,44665:0:0:0:0:
36,192,44776,1,0,0:0:0:0:
475,192,44776,1,0,0:0:0:0:
402,192,44776,128,0,44888:0:0:0:0:
256,192,44999,1,0,0:0:0:0:
182,192,44999,128,0,45554:0:0:0:0:
109,192,44999,128,0,45110:0:0:0:0:
475,192,44999,128,0,45443:0:0:0:0:
36,192,45221,1,0,0:0:0:0:
329,192,45221,1,0,0:0:0:0:
256,192,45443,128,0,45554:0:0:0:0:
109,192,45443,1,0,0:0:0:0:
256,192,45665,1,0,0:0:0:0:
182,192,45665,1,0,0:0:0:0:
475,192,45665,128,0,45776:0:0:0:0:
402,192,45665,128,0,45999:0:0:0:0:
329,192,45888,128,0,46221:0:0:0:0:
109,192,45888,128,0,46110:0:0:0:0:
182,192,45999,1,0,0:0:0:0:
36,192,46110,1,0,0:0:0:0:
256,192,46110,1,0,0:0:0:0:
402,192,46110,1,0,0:0:0:0:
109,192,46332,1,0,0:0:0:0:
109,192,46443,128,0,46665:0:0:0:0:
329,192,46443,1,0,0:0:0:0:
329,192,46554,128,0,46776:0:0:0:0:
182,192,46665,1,0,0:0:0:0:
182,192,46776,128,0,46999:0:0:0:0:
329,192,46888,128,0,46999:0:0:0:0:
475,192,46999,1,0,0:0:0:0:
256,192,46999,1,0,0:0:0:0:
402,192,46999,128,0,47332:0:0:0:0:
36,192,46999,128,0,47776:0:0:0:0:
256,192,47221,128,0,47554:0:0:0:0:
475,192,47443,128,0,47776:0:0:0:0:
109,192,47443,1,0,0:0:0:0:
402,192,47443,1,0,0:0:0:0:
256,192,47665,1,0,0:0:0:0:
182,192,47665,128,0,47776:0:0:0:0:
329,192,47776,1,0,0:0:0:0:
36,192,47888,1,0,0:0:0:0:
402,192,47888,1,0,0:0:0:0:
475,192,47888,1,0,0:0:0:0:
182,192,47888,1,0,0:0:0:0:
256,192,48110,128,0,48443:0:0:0:0:
109,192,48110,1,0,0:0:0:0:
329,192,48332,128,0,48665:0:0:0:0:
182,192,48332,1,0,0:0:0:0:
36,192,48443,1,0,0:0:0:0:
256,192,48554,1,0,0:0:0:0:
402,192,48554,128,0,48888:0:0:0:0:
109,192,48665,1,0,0:0:0:0:
36,192,48776,1,0,0:0:0:0:
329,192,48776,1,0,0:0:0:0:
475,192,48776,1,0,0:0:0:0:
402,192,48999,1,0,0:0:0:0:
182,192,48999,128,0,49332:0:0:0:0:
109,192,49221,128,0,49554:0:0:0:0:
256,192,49221,1,0,0:0:0:0:
475,192,49221,1,0,0:0:0:0:
182,192,49443,1,0,0:0:0:0:
36,192,49443,128,0,49776:0:0:0:0:
402,192,49443,1,0,0:0:0:0:
329,192,49554,1,0,0:0:0:0:
256,192,49665,1,0,0:0:0:0:
475,192,49665,1,0,0:0:0:0:
109,192,49888,128,0,50332:0:0:0:0:
36,192,49888,128,0,50332:0:0:0:0:
329,192,49888,128,0,50110:0:0:0:0:
402,192,49888,128,0,50110:0:0:0:0:
256,192,50110,128,0,50554:0:0:0:0:
182,192,50110,1,0,0:0:0:0:
329,192,50332,1,0,0:0:0:0:
402,192,50332,1,0,0:0:0:0:
329,192,50443,128,0,50554:0:0:0:0:
475,192,50554,128,0,51332:0:0:0:0:
36,192,50554,1,0,0:0:0:0:
109,192,50554,128,0,50665:0:0:0:0:
109,192,50776,1,0,0:0:0:0:
182,192,50776,128,0,50888:0:0:0:0:
36,192,50888,1,0,0:0:0:0:
402,192,50999,1,0,0:0:0:0:
256,192,50999,128,0,51110:0:0:0:0:
182,192,50999,1,0,0:0:0:0:
256,192,51221,1,0,0:0:0:0:
329,192,51221,128,0,51332:0:0:0:0:
109,192,51221,1,0,0:0:0:0:
182,192,51332,1,0,0:0:0:0:
402,192,51443,1,0,0:0:0:0:
36,192,51443,1,0,0:0:0:0:
256,192,51443,1,0,0:0:0:0:
475,192,51443,1,0,0:0:0:0:
329,192,51665,128,0,51776:0:0:0:0:
182,192,51665,128,0,51999:0:0:0:0:
109,192,51888,128,0,52221:0:0:0:0:
329,192,51888,1,0,0:0:0:0:
475,192,51888,1,0,0:0:0:0:
256,192,51999,1,0,0:0:0:0:
36,192,52110,128,0,53443:0:0:0:0:
182,192,52110,1,0,0:0:0:0:
475,192,52221,1,0,0:0:0:0:
109,192,52332,1,0,0:0:0:0:
256,192,52332,1,0,0:0:0:0:
402,192,52332,1,0,0:0:0:0:
329,192,52554,128,0,52665:0:0:0:0:
182,192,52554,1,0,0:0:0:0:
109,192,52665,1,0,0:0:0:0:
402,192,52776,128,0,52888:0:0:0:0:
256,192,52776,1,0,0:0:0:0:
109,192,52999,1,0,0:0:0:0:
475,192,52999,128,0,53665:0:0:0:0:
329,192,52999,1,0,0:0:0:0:
329,192,53110,1,0,0:0:0:0:
182,192,53221,1,0,0:0:0:0:
402,192,53221,1,0,0:0:0:0:
256,192,53332,1,0,0:0:0:0:
109,192,53443,128,0,53554:0:0:0:0:
329,192,53443,128,0,53665:0:0:0:0:
402,192,53665,128,0,53888:0:0:0:0:
182,192,53665,128,0,53776:0:0:0:0:
256,192,53888,128,0,53999:0:0:0:0:
256,192,54110,128,0,56554:0:0:0:0:
182,192,54110,128,0,54443:0:0:0:0:
329,192,54110,128,0,54665:0:0:0:0:
402,192,54332,128,0,55332:0:0:0:0:
475,192,54332,128,0,55110:0:0:0:0:
109,192,54332,128,0,55332:0:0:0:0:
36,192,54332,128,0,54888:0:0:0:0:
182,192,54554,1,0,0:0:0:0:
329,192,54776,1,0,0:0:0:0:
36,192,54999,1,0,0:0:0:0:
475,192,55221,1,0,0:0:0:0:
182,192,55221,1,0,0:0:0:0:
109,192,55443,1,0,0:0:0:0:
402,192,55443,1,0,0:0:0:0:
182,192,55665,128,0,56110:0:0:0:0:
36,192,55665,128,0,56332:0:0:0:0:
329,192,55665,128,0,56110:0:0:0:0:
475,192,55665,128,0,56332:0:0:0:0:
109,192,56110,1,0,0:0:0:0:
402,192,56110,1,0,0:0:0:0:
182,192,56332,1,0,0:0:0:0:
329,192,56332,1,0,0:0:0:0:
36,192,56554,128,0,56628:0:0:0:0:
109,192,56591,128,0,56665:0:0:0:0:
182,192,56628,128,0,56702:0:0:0:0:
256,192,56665,128,0,56739:0:0:0:0:
329,192,56702,128,0,56776:0:0:0:0:
402,192,56739,128,0,56814:0:0:0:0:
475,192,56776,128,0,56851:0:0:0:0:
109,192,56999,1,0,0:0:0:0:
329,192,56999,1,0,0:0:0:0:
182,192,56999,1,0,0:0:0:0:
402,192,56999,1,0,0:0:0:0:
109,192,57443,1,0,0:0:0:0:
329,192,57443,1,0,0:0:0:0:
402,192,57443,1,0,0:0:0:0:
109,192,57554,1,0,0:0:0:0:
256,192,57665,128,0,57776:0:0:0:0:
182,192,57665,128,0,57776:0:0:0:0:
402,192,57665,128,0,57999:0:0:0:0:
475,192,57665,128,0,57999:0:0:0:0:
36,192,57665,1,0,0:0:0:0:
329,192,57888,128,0,58221:0:0:0:0:
182,192,57888,128,0,57999:0:0:0:0:
36,192,57999,128,0,58221:0:0:0:0:
109,192,57999,128,0,58110:0:0:0:0:
256,192,58110,128,0,58443:0:0:0:0:
402,192,58110,1,0,0:0:0:0:
475,192,58110,1,0,0:0:0:0:
182,192,58221,128,0,58443:0:0:0:0:
109,192,58332,128,0,58443:0:0:0:0:
36,192,58332,128,0,58665:0:0:0:0:
475,192,58332,128,0,58443:0:0:0:0:
402,192,58443,128,0,58554:0:0:0:0:
329,192,58443,128,0,58554:0:0:0:0:
256,192,58554,128,0,58776:0:0:0:0:
475,192,58554,1,0,0:0:0:0:
182,192,58665,128,0,58888:0:0:0:0:
402,192,58665,1,0,0:0:0:0:
109,192,58776,128,0,59110:0:0:0:0:
36,192,58776,128,0,58888:0:0:0:0:
329,192,58776,128,0,58999:0:0:0:0:
182,192,58999,128,0,59221:0:0:0:0:
402,192,58999,128,0,59110:0:0:0:0:
475,192,58999,1,0,0:0:0:0:
256,192,59110,128,0,59332:0:0:0:0:
329,192,59221,128,0,59443:0:0:0:0:
36,192,59221,128,0,59332:0:0:0:0:
402,192,59332,128,0,59443:0:0:0:0:
475,192,59332,128,0,59443:0:0:0:0:
182,192,59443,128,0,59554:0:0:0:0:
109,192,59443,128,0,59776:0:0:0:0:
36,192,59443,1,0,0:0:0:0:
256,192,59554,128,0,59665:0:0:0:0:
475,192,59665,128,0,59776:0:0:0:0:
402,192,59665,128,0,59776:0:0:0:0:
329,192,59721,128,0,59832:0:0:0:0:
256,192,59776,128,0,59888:0:0:0:0:
182,192,59832,128,0,59943:0:0:0:0:
109,192,59888,128,0,59999:0:0:0:0:
36,192,59888,128,0,60221:0:0:0:0:
329,192,59943,128,0,60054:0:0:0:0:
402,192,59999,128,0,60110:0:0:0:0:
475,192,60054,128,0,60165:0:0:0:0:
109,192,60110,128,0,60221:0:0:0:0:
182,192,60110,128,0,60221:0:0:0:0:
256,192,60165,128,0,60276:0:0:0:0:
329,192,60221,128,0,60332:0:0:0:0:
402,192,60276,128,0,60388:0:0:0:0:
475,192,60276,128,0,60388:0:0:0:0:
182,192,60332,128,0,60443:0:0:0:0:
109,192,60388,128,0,60499:0:0:0:0:
256,192,60388,128,0,60499:0:0:0:0:
36,192,60443,128,0,60554:0:0:0:0:
329,192,60499,128,0,60610:0:0:0:0:
475,192,60554,128,0,60665:0:0:0:0:
402,192,60554,128,0,60665:0:0:0:0:
182,192,60554,128,0,60665:0:0:0:0:
109,192,60610,128,0,60721:0:0:0:0:
36,192,60665,128,0,60776:0:0:0:0:
329,192,60721,128,0,60832:0:0:0:0:
256,192,60721,128,0,60832:0:0:0:0:
182,192,60776,128,0,60888:0:0:0:0:
475,192,60832,128,0,60943:0:0:0:0:
109,192,60832,128,0,60943:0:0:0:0:
402,192,60888,128,0,60999:0:0:0:0:
329,192,60943,128,0,61054:0:0:0:0:
36,192,60943,128,0,61054:0:0:0:0:
109,192,60999,128,0,61110:0:0:0:0:
182,192,61054,128,0,61165:0:0:0:0:
256,192,61110,128,0,61221:0:0:0:0:
329,192,61165,128,0,61276:0:0:0:0:
475,192,61221,128,0,61554:0:0:0:0:
109,192,61221,128,0,61332:0:0:0:0:
36,192,61221,128,0,61332:0:0:0:0:
402,192,61221,128,0,61332:0:0:0:0:
182,192,61443,128,0,61776:0:0:0:0:
109,192,61443,128,0,61554:0:0:0:0:
329,192,61443,128,0,61554:0:0:0:0:
402,192,61554,128,0,61665:0:0:0:0:
256,192,61665,128,0,61888:0:0:0:0:
475,192,61665,1,0,0:0:0:0:
36,192,61665,128,0,61776:0:0:0:0:
329,192,61776,128,0,62110:0:0:0:0:
402,192,61888,128,0,62332:0:0:0:0:
475,192,61888,128,0,61999:0:0:0:0:
109,192,61888,128,0,61999:0:0:0:0:
182,192,61999,128,0,62110:0:0:0:0:
256,192,62110,1,0,0:0:0:0:
36,192,62110,128,0,62221:0:0:0:0:
109,192,62221,128,0,62332:0:0:0:0:
475,192,62221,128,0,62332:0:0:0:0:
329,192,62332,128,0,62443:0:0:0:0:
256,192,62332,128,0,62443:0:0:0:0:
182,192,62332,128,0,62665:0:0:0:0:
109,192,62554,128,0,62888:0:0:0:0:
402,192,62554,128,0,62665:0:0:0:0:
475,192,62554,128,0,62665:0:0:0:0:
36,192,62554,1,0,0:0:0:0:
329,192,62665,128,0,62776:0:0:0:0:
36,192,62776,128,0,63110:0:0:0:0:
182,192,62776,1,0,0:0:0:0:
256,192,62888,1,0,0:0:0:0:
402,192,62999,128,0,63110:0:0:0:0:
329,192,62999,128,0,63110:0:0:0:0:
475,192,62999,128,0,63332:0:0:0:0:
109,192,62999,1,0,0:0:0:0:
182,192,63221,128,0,63443:0:0:0:0:
36,192,63221,128,0,63332:0:0:0:0:
109,192,63221,128,0,63332:0:0:0:0:
256,192,63332,128,0,63554:0:0:0:0:
329,192,63443,128,0,63888:0:0:0:0:
402,192,63443,128,0,63554:0:0:0:0:
475,192,63443,128,0,63554:0:0:0:0:
182,192,63554,128,0,63665:0:0:0:0:
109,192,63610,128,0,63721:0:0:0:0:
36,192,63665,128,0,63776:0:0:0:0:
256,192,63721,128,0,63832:0:0:0:0:
402,192,63776,128,0,63943:0:0:0:0:
475,192,63832,128,0,63999:0:0:0:0:
182,192,63832,128,0,63943:0:0:0:0:
109,192,63888,128,0,63999:0:0:0:0:
36,192,63943,128,0,64054:0:0:0:0:
329,192,63999,128,0,64110:0:0:0:0:
256,192,64054,128,0,64165:0:0:0:0:
402,192,64110,128,0,64221:0:0:0:0:
475,192,64110,128,0,64221:0:0:0:0:
36,192,64110,128,0,64221:0:0:0:0:
109,192,64165,128,0,64276:0:0:0:0:
182,192,64221,128,0,64332:0:0:0:0:
256,192,64276,128,0,64388:0:0:0:0:
402,192,64332,128,0,64665:0:0:0:0:
475,192,64332,128,0,64776:0:0:0:0:
329,192,64332,128,0,64554:0:0:0:0:
36,192,64443,1,0,0:0:0:0:
109,192,64554,1,0,0:0:0:0:
109,192,64665,128,0,64776:0:0:0:0:
402,192,64776,1,0,0:0:0:0:
256,192,64776,128,0,64999:0:0:0:0:
36,192,64776,128,0,65221:0:0:0:0:
182,192,64999,128,0,65110:0:0:0:0:
109,192,64999,128,0,65110:0:0:0:0:
329,192,65110,128,0,65332:0:0:0:0:
402,192,65110,128,0,65221:0:0:0:0:
475,192,65110,128,0,65221:0:0:0:0:
256,192,65221,128,0,65443:0:0:0:0:
109,192,65221,1,0,0:0:0:0:
182,192,65332,128,0,65554:0:0:0:0:
109,192,65443,128,0,65554:0:0:0:0:
402,192,65443,128,0,65665:0:0:0:0:
36,192,65443,128,0,65554:0:0:0:0:
475,192,65554,128,0,65776:0:0:0:0:
256,192,65665,128,0,65776:0:0:0:0:
329,192,65665,128,0,65776:0:0:0:0:
182,192,65665,128,0,65999:0:0:0:0:
36,192,65776,128,0,65888:0:0:0:0:
109,192,65888,128,0,65999:0:0:0:0:
402,192,65888,128,0,65999:0:0:0:0:
475,192,65888,128,0,66221:0:0:0:0:
329,192,65999,128,0,66110:0:0:0:0:
182,192,66110,128,0,66332:0:0:0:0:
256,192,66110,128,0,66443:0:0:0:0:
36,192,66110,128,0,66221:0:0:0:0:
109,192,66110,128,0,66221:0:0:0:0:
109,192,66332,128,0,66443:0:0:0:0:
402,192,66332,128,0,66443:0:0:0:0:
329,192,66332,128,0,66443:0:0:0:0:
475,192,66443,128,0,66665:0:0:0:0:
36,192,66554,128,0,66665:0:0:0:0:
402,192,66554,128,0,66665:0:0:0:0:
109,192,66554,128,0,66665:0:0:0:0:
182,192,66610,128,0,66721:0:0:0:0:
256,192,66665,128,0,66776:0:0:0:0:
329,192,66721,128,0,66832:0:0:0:0:
475,192,66776,128,0,66888:0:0:0:0:
402,192,66776,128,0,66999:0:0:0:0:
109,192,66888,128,0,66999:0:0:0:0:
182,192,66999,128,0,67221:0:0:0:0:
36,192,66999,128,0,67110:0:0:0:0:
329,192,66999,1,0,0:0:0:0:
256,192,66999,128,0,67221:0:0:0:0:
402,192,67221,128,0,67443:0:0:0:0:
109,192,67221,128,0,67443:0:0:0:0:
36,192,67332,128,0,67776:0:0:0:0:
182,192,67332,128,0,67443:0:0:0:0:
475,192,67332,1,0,0:0:0:0:
256,192,67443,128,0,67554:0:0:0:0:
329,192,67443,128,0,67776:0:0:0:0:
402,192,67554,128,0,67665:0:0:0:0:
109,192,67554,1,0,0:0:0:0:
182,192,67665,128,0,67888:0:0:0:0:
475,192,67665,128,0,67776:0:0:0:0:
256,192,67776,1,0,0:0:0:0:
475,192,67888,128,0,68110:0:0:0:0:
109,192,67888,128,0,68221:0:0:0:0:
329,192,67888,128,0,67999:0:0:0:0:
36,192,67888,128,0,68110:0:0:0:0:
402,192,68110,128,0,68221:0:0:0:0:
256,192,68110,128,0,68332:0:0:0:0:
182,192,68221,128,0,68332:0:0:0:0:
109,192,68332,128,0,68443:0:0:0:0:
329,192,68332,128,0,68443:0:0:0:0:
36,192,68332,128,0,68443:0:0:0:0:
402,192,68388,128,0,68499:0:0:0:0:
475,192,68443,128,0,68554:0:0:0:0:
182,192,68443,128,0,68554:0:0:0:0:
256,192,68499,128,0,68610:0:0:0:0:
329,192,68554,128,0,68665:0:0:0:0:
109,192,68554,128,0,68665:0:0:0:0:
36,192,68554,128,0,68665:0:0:0:0:
475,192,68610,128,0,68721:0:0:0:0:
402,192,68665,128,0,68776:0:0:0:0:
256,192,68721,128,0,68832:0:0:0:0:
182,192,68721,128,0,68832:0:0:0:0:
109,192,68776,128,0,68888:0:0:0:0:
36,192,68832,128,0,68943:0:0:0:0:
329,192,68832,128,0,68943:0:0:0:0:
402,192,68888,128,0,68999:0:0:0:0:
475,192,68943,128,0,69054:0:0:0:0:
182,192,68943,128,0,69054:0:0:0:0:
256,192,68999,128,0,69110:0:0:0:0:
109,192,69054,128,0,69165:0:0:0:0:
329,192,69054,128,0,69165:0:0:0:0:
36,192,69110,128,0,69221:0:0:0:0:
402,192,69110,128,0,69221:0:0:0:0:
475,192,69165,128,0,69276:0:0:0:0:
182,192,69221,128,0,69332:0:0:0:0:
256,192,69276,128,0,69388:0:0:0:0:
329,192,69332,128,0,69443:0:0:0:0:
402,192,69332,128,0,69443:0:0:0:0:
36,192,69388,128,0,69499:0:0:0:0:
475,192,69388,128,0,69499:0:0:0:0:
109,192,69443,128,0,69554:0:0:0:0:
182,192,69443,128,0,69554:0:0:0:0:
256,192,69499,128,0,69610:0:0:0:0:
329,192,69554,128,0,69665:0:0:0:0:
402,192,69610,128,0,69721:0:0:0:0:
475,192,69610,128,0,69721:0:0:0:0:
36,192,69665,128,0,69999:0:0:0:0:
109,192,69665,128,0,69999:0:0:0:0:
182,192,69888,128,0,69999:0:0:0:0:
256,192,69888,128,0,69999:0:0:0:0:
402,192,69888,128,0,69999:0:0:0:0:
329,192,69888,128,0,70443:0:0:0:0:
475,192,69888,128,0,69999:0:0:0:0:
36,192,70110,1,0,0:0:0:0:
109,192,70110,1,0,0:0:0:0:
182,192,70110,1,0,0:0:0:0:
182,192,70221,1,0,0:0:0:0:
36,192,70332,1,0,0:0:0:0:
109,192,70332,1,0,0:0:0:0:
475,192,70332,1,0,0:0:0:0:
256,192,70332,128,0,71443:0:0:0:0:
402,192,70443,1,0,0:0:0:0:
475,192,70554,1,0,0:0:0:0:
36,192,70554,1,0,0:0:0:0:
329,192,70554,1,0,0:0:0:0:
182,192,70554,128,0,70999:0:0:0:0:
402,192,70776,128,0,71221:0:0:0:0:
109,192,70776,128,0,71221:0:0:0:0:
329,192,70999,1,0,0:0:0:0:
36,192,70999,1,0,0:0:0:0:
182,192,71221,1,0,0:0:0:0:
475,192,71221,1,0,0:0:0:0:
36,192,71443,1,0,0:0:0:0:
109,192,71443,1,0,0:0:0:0:
402,192,71443,1,0,0:0:0:0:
329,192,71443,1,0,0:0:0:0:
182,192,71665,1,0,0:0:0:0:
475,192,71665,1,0,0:0:0:0:
329,192,71665,128,0,71888:0:0:0:0:
182,192,71776,1,0,0:0:0:0:
475,192,71776,1,0,0:0:0:0:
36,192,71888,1,0,0:0:0:0:
109,192,71888,1,0,0:0:0:0:
256,192,71888,128,0,71999:0:0:0:0:
402,192,71888,128,0,71999:0:0:0:0:
329,192,71999,128,0,72110:0:0:0:0:
182,192,71999,128,0,72221:0:0:0:0:
475,192,72110,128,0,72332:0:0:0:0:
109,192,72110,128,0,72332:0:0:0:0:
256,192,72221,128,0,72443:0:0:0:0:
402,192,72221,128,0,72332:0:0:0:0:
36,192,72332,128,0,72443:0:0:0:0:
329,192,72332,128,0,72665:0:0:0:0:
182,192,72332,1,0,0:0:0:0:
256,192,72554,128,0,72776:0:0:0:0:
402,192,72554,128,0,72665:0:0:0:0:
475,192,72554,128,0,72665:0:0:0:0:
109,192,72554,1,0,0:0:0:0:
182,192,72665,128,0,72999:0:0:0:0:
475,192,72776,1,0,0:0:0:0:
109,192,72776,1,0,0:0:0:0:
36,192,72776,1,0,0:0:0:0:
329,192,72776,128,0,72888:0:0:0:0:
402,192,72888,128,0,73110:0:0:0:0:
36,192,72999,128,0,73332:0:0:0:0:
256,192,72999,128,0,73110:0:0:0:0:
475,192,72999,128,0,73110:0:0:0:0:
109,192,72999,1,0,0:0:0:0:
329,192,73110,128,0,73221:0:0:0:0:
402,192,73221,128,0,73443:0:0:0:0:
475,192,73221,128,0,73332:0:0:0:0:
256,192,73221,1,0,0:0:0:0:
182,192,73221,128,0,73332:0:0:0:0:
109,192,73221,1,0,0:0:0:0:
329,192,73332,128,0,73554:0:0:0:0:
182,192,73443,128,0,73665:0:0:0:0:
36,192,73443,1,0,0:0:0:0:
256,192,73443,1,0,0:0:0:0:
475,192,73443,1,0,0:0:0:0:
109,192,73554,128,0,73665:0:0:0:0:
256,192,73665,128,0,73999:0:0:0:0:
36,192,73665,128,0,73888:0:0:0:0:
329,192,73665,128,0,73776:0:0:0:0:
475,192,73665,1,0,0:0:0:0:
402,192,73665,128,0,73888:0:0:0:0:
109,192,73888,128,0,73999:0:0:0:0:
475,192,73888,128,0,74221:0:0:0:0:
182,192,73888,128,0,74110:0:0:0:0:
329,192,73999,128,0,74110:0:0:0:0:
402,192,74110,128,0,74221:0:0:0:0:
256,192,74110,128,0,74499:0:0:0:0:
36,192,74110,1,0,0:0:0:0:
109,192,74110,128,0,74332:0:0:0:0:
36,192,74332,128,0,74665:0:0:0:0:
402,192,74332,128,0,74443:0:0:0:0:
475,192,74332,128,0,74443:0:0:0:0:
329,192,74388,128,0,74499:0:0:0:0:
182,192,74443,128,0,74554:0:0:0:0:
109,192,74499,128,0,74610:0:0:0:0:
475,192,74499,128,0,74610:0:0:0:0:
329,192,74554,128,0,74665:0:0:0:0:
402,192,74554,128,0,74665:0:0:0:0:
256,192,74610,128,0,74721:0:0:0:0:
182,192,74665,128,0,74776:0:0:0:0:
109,192,74721,128,0,74832:0:0:0:0:
402,192,74776,128,0,74888:0:0:0:0:
36,192,74776,128,0,74943:0:0:0:0:
475,192,74776,128,0,74888:0:0:0:0:
329,192,74832,128,0,74943:0:0:0:0:
256,192,74832,128,0,74943:0:0:0:0:
109,192,74888,128,0,74999:0:0:0:0:
182,192,74943,128,0,75054:0:0:0:0:
402,192,74999,128,0,75110:0:0:0:0:
329,192,74999,128,0,75110:0:0:0:0:
182,192,75110,128,0,75221:0:0:0:0:
256,192,75110,128,0,75221:0:0:0:0:
475,192,75110,128,0,75221:0:0:0:0:
109,192,75221,128,0,75332:0:0:0:0:
36,192,75221,128,0,75332:0:0:0:0:
402,192,75221,128,0,75443:0:0:0:0:
329,192,75221,128,0,75443:0:0:0:0:
256,192,75332,128,0,75554:0:0:0:0:
182,192,75332,128,0,75554:0:0:0:0:
109,192,75443,128,0,75665:0:0:0:0:
36,192,75443,128,0,75999:0:0:0:0:
475,192,75443,1,0,0:0:0:0:
402,192,75554,128,0,75665:0:0:0:0:
329,192,75665,128,0,75999:0:0:0:0:
256,192,75665,128,0,75776:0:0:0:0:
475,192,75665,128,0,75776:0:0:0:0:
182,192,75776,128,0,75888:0:0:0:0:
109,192,75888,128,0,76221:0:0:0:0:
402,192,75888,128,0,75999:0:0:0:0:
256,192,75888,1,0,0:0:0:0:
475,192,75888,1,0,0:0:0:0:
256,192,76110,128,0,76665:0:0:0:0:
36,192,76110,1,0,0:0:0:0:
182,192,76110,1,0,0:0:0:0:
329,192,76110,128,0,76221:0:0:0:0:
402,192,76165,128,0,76276:0:0:0:0:
475,192,76221,128,0,76332:0:0:0:0:
36,192,76276,128,0,76388:0:0:0:0:
109,192,76332,128,0,76443:0:0:0:0:
329,192,76388,128,0,76499:0:0:0:0:
182,192,76388,128,0,76499:0:0:0:0:
402,192,76443,128,0,76554:0:0:0:0:
475,192,76499,128,0,76610:0:0:0:0:
109,192,76554,128,0,76665:0:0:0:0:
36,192,76554,128,0,76776:0:0:0:0:
329,192,76665,128,0,76888:0:0:0:0:
182,192,76665,1,0,0:0:0:0:
475,192,76776,128,0,76999:0:0:0:0:
402,192,76776,128,0,76888:0:0:0:0:
109,192,76776,128,0,77110:0:0:0:0:
256,192,76776,1,0,0:0:0:0:
329,192,76999,128,0,77221:0:0:0:0:
182,192,76999,1,0,0:0:0:0:
36,192,76999,128,0,77110:0:0:0:0:
256,192,77110,128,0,77221:0:0:0:0:
475,192,77110,128,0,77221:0:0:0:0:
402,192,77221,128,0,77443:0:0:0:0:
182,192,77221,128,0,77554:0:0:0:0:
36,192,77221,1,0,0:0:0:0:
109,192,77221,1,0,0:0:0:0:
256,192,77443,128,0,77776:0:0:0:0:
109,192,77443,128,0,77554:0:0:0:0:
329,192,77443,128,0,77554:0:0:0:0:
475,192,77554,128,0,77888:0:0:0:0:
329,192,77665,1,0,0:0:0:0:
182,192,77665,1,0,0:0:0:0:
36,192,77665,128,0,77888:0:0:0:0:
109,192,77665,128,0,77776:0:0:0:0:
402,192,77665,128,0,77888:0:0:0:0:
182,192,77888,128,0,77999:0:0:0:0:
329,192,77888,128,0,77999:0:0:0:0:
109,192,77943,128,0,78054:0:0:0:0:
402,192,77943,128,0,78054:0:0:0:0:
36,192,77999,128,0,78110:0:0:0:0:
475,192,77999,128,0,78110:0:0:0:0:
256,192,78054,128,0,78165:0:0:0:0:
182,192,78110,128,0,78221:0:0:0:0:
329,192,78110,128,0,78221:0:0:0:0:
402,192,78165,128,0,78276:0:0:0:0:
109,192,78165,128,0,78276:0:0:0:0:
475,192,78221,128,0,78332:0:0:0:0:
36,192,78221,128,0,78332:0:0:0:0:
256,192,78276,128,0,78388:0:0:0:0:
182,192,78332,128,0,78443:0:0:0:0:
329,192,78332,128,0,78443:0:0:0:0:
109,192,78388,128,0,78499:0:0:0:0:
402,192,78388,128,0,78499:0:0:0:0:
36,192,78443,128,0,78776:0:0:0:0:
475,192,78443,128,0,78665:0:0:0:0:
256,192,78499,128,0,78610:0:0:0:0:
182,192,78554,128,0,78665:0:0:0:0:
109,192,78610,128,0,78721:0:0:0:0:
402,192,78610,128,0,78721:0:0:0:0:
329,192,78665,128,0,78776:0:0:0:0:
256,192,78721,128,0,78832:0:0:0:0:
182,192,78776,128,0,78999:0:0:0:0:
475,192,78776,128,0,78888:0:0:0:0:
402,192,78888,128,0,78999:0:0:0:0:
36,192,78888,128,0,78999:0:0:0:0:
329,192,78999,128,0,79332:0:0:0:0:
109,192,78999,128,0,79110:0:0:0:0:
256,192,78999,1,0,0:0:0:0:
475,192,78999,1,0,0:0:0:0:
109,192,79221,1,0,0:0:0:0:
402,192,79221,128,0,79443:0:0:0:0:
182,192,79221,1,0,0:0:0:0:
36,192,79332,128,0,79443:0:0:0:0:
475,192,79443,1,0,0:0:0:0:
256,192,79443,128,0,79776:0:0:0:0:
329,192,79443,1,0,0:0:0:0:
182,192,79443,128,0,79554:0:0:0:0:
109,192,79665,128,0,79776:0:0:0:0:
182,192,79665,128,0,79999:0:0:0:0:
329,192,79665,1,0,0:0:0:0:
36,192,79665,1,0,0:0:0:0:
475,192,79776,128,0,79888:0:0:0:0:
402,192,79776,128,0,80221:0:0:0:0:
256,192,79888,128,0,79999:0:0:0:0:
329,192,79888,128,0,80110:0:0:0:0:
109,192,79888,1,0,0:0:0:0:
36,192,79999,128,0,80110:0:0:0:0:
475,192,80110,128,0,80443:0:0:0:0:
182,192,80110,128,0,80221:0:0:0:0:
109,192,80110,128,0,80554:0:0:0:0:
182,192,80332,1,0,0:0:0:0:
256,192,80332,1,0,0:0:0:0:
402,192,80332,1,0,0:0:0:0:
36,192,80332,128,0,80554:0:0:0:0:
329,192,80443,128,0,80665:0:0:0:0:
402,192,80554,128,0,80776:0:0:0:0:
475,192,80554,1,0,0:0:0:0:
182,192,80554,128,0,80665:0:0:0:0:
256,192,80554,1,0,0:0:0:0:
182,192,80776,128,0,81110:0:0:0:0:
36,192,80776,1,0,0:0:0:0:
329,192,80776,1,0,0:0:0:0:
475,192,80776,1,0,0:0:0:0:
256,192,80888,128,0,80999:0:0:0:0:
402,192,80888,128,0,81110:0:0:0:0:
109,192,80999,128,0,81443:0:0:0:0:
475,192,80999,1,0,0:0:0:0:
329,192,81110,128,0,81332:0:0:0:0:
36,192,81110,1,0,0:0:0:0:
182,192,81221,1,0,0:0:0:0:
256,192,81221,1,0,0:0:0:0:
402,192,81221,1,0,0:0:0:0:
475,192,81221,1,0,0:0:0:0:
36,192,81332,1,0,0:0:0:0:
475,192,81443,128,0,82054:0:0:0:0:
402,192,81443,128,0,81554:0:0:0:0:
329,192,81443,128,0,81554:0:0:0:0:
256,192,81499,128,0,81610:0:0:0:0:
182,192,81499,128,0,81610:0:0:0:0:
109,192,81554,128,0,81665:0:0:0:0:
36,192,81554,128,0,81665:0:0:0:0:
329,192,81610,128,0,81776:0:0:0:0:
402,192,81610,128,0,81776:0:0:0:0:
256,192,81665,128,0,81832:0:0:0:0:
182,192,81665,128,0,81832:0:0:0:0:
109,192,81721,128,0,81888:0:0:0:0:
36,192,81721,128,0,81888:0:0:0:0:
402,192,81832,128,0,81943:0:0:0:0:
329,192,81832,128,0,81943:0:0:0:0:
256,192,81888,128,0,81999:0:0:0:0:
182,192,81888,128,0,81999:0:0:0:0:
109,192,81943,128,0,82054:0:0:0:0:
36,192,81943,128,0,82054:0:0:0:0:
402,192,81999,128,0,82110:0:0:0:0:
329,192,82054,128,0,82332:0:0:0:0:
36,192,82110,1,0,0:0:0:0:
109,192,82110,1,0,0:0:0:0:
256,192,82110,1,0,0:0:0:0:
182,192,82221,1,0,0:0:0:0:
475,192,82332,1,0,0:0:0:0:
402,192,82332,128,0,82443:0:0:0:0:
109,192,82332,128,0,82665:0:0:0:0:
256,192,82443,128,0,82665:0:0:0:0:
36,192,82443,128,0,82554:0:0:0:0:
329,192,82554,1,0,0:0:0:0:
475,192,82554,1,0,0:0:0:0:
402,192,82554,1,0,0:0:0:0:
182,192,82554,128,0,82888:0:0:0:0:
36,192,82776,1,0,0:0:0:0:
256,192,82776,1,0,0:0:0:0:
475,192,82776,128,0,82888:0:0:0:0:
402,192,82776,128,0,83110:0:0:0:0:
329,192,82888,1,0,0:0:0:0:
109,192,82999,1,0,0:0:0:0:
36,192,82999,1,0,0:0:0:0:
256,192,82999,128,0,83443:0:0:0:0:
182,192,83110,128,0,83221:0:0:0:0:
329,192,83110,128,0,83332:0:0:0:0:
475,192,83110,1,0,0:0:0:0:
402,192,83221,1,0,0:0:0:0:
36,192,83221,128,0,83554:0:0:0:0:
182,192,83332,1,0,0:0:0:0:
109,192,83332,128,0,83443:0:0:0:0:
475,192,83332,128,0,83776:0:0:0:0:
329,192,83443,1,0,0:0:0:0:
402,192,83443,128,0,83554:0:0:0:0:
182,192,83554,1,0,0:0:0:0:
256,192,83554,128,0,83776:0:0:0:0:
36,192,83665,1,0,0:0:0:0:
109,192,83665,128,0,84110:0:0:0:0:
329,192,83665,1,0,0:0:0:0:
475,192,83888,1,0,0:0:0:0:
402,192,83888,128,0,84332:0:0:0:0:
256,192,83888,1,0,0:0:0:0:
182,192,83888,128,0,83999:0:0:0:0:
329,192,83999,128,0,84221:0:0:0:0:
36,192,83999,1,0,0:0:0:0:
475,192,84110,128,0,84221:0:0:0:0:
182,192,84110,128,0,84443:0:0:0:0:
256,192,84221,1,0,0:0:0:0:
109,192,84221,1,0,0:0:0:0:
475,192,84332,1,0,0:0:0:0:
329,192,84332,128,0,84999:0:0:0:0:
36,192,84332,128,0,84443:0:0:0:0:
256,192,84443,128,0,84776:0:0:0:0:
109,192,84554,1,0,0:0:0:0:
402,192,84554,128,0,84665:0:0:0:0:
182,192,84665,1,0,0:0:0:0:
36,192,84776,1,0,0:0:0:0:
402,192,84776,1,0,0:0:0:0:
109,192,84776,128,0,85110:0:0:0:0:
475,192,84776,128,0,84888:0:0:0:0:
256,192,84888,128,0,85110:0:0:0:0:
402,192,84999,1,0,0:0:0:0:
182,192,84999,128,0,85110:0:0:0:0:
329,192,85110,1,0,0:0:0:0:
475,192,85221,128,0,86999:0:0:0:0:
402,192,85221,128,0,86999:0:0:0:0:
36,192,85221,1,0,0:0:0:0:
109,192,85221,1,0,0:0:0:0:
256,192,85221,128,0,85443:0:0:0:0:
109,192,85332,128,0,85443:0:0:0:0:
36,192,85332,128,0,85443:0:0:0:0:
182,192,85443,128,0,85554:0:0:0:0:
329,192,85554,128,0,85776:0:0:0:0:
256,192,85554,128,0,85665:0:0:0:0:
36,192,85665,128,0,85721:0:0:0:0:
109,192,85665,128,0,85776:0:0:0:0:
182,192,85721,128,0,85832:0:0:0:0:
256,192,85776,128,0,85888:0:0:0:0:
329,192,85832,128,0,85943:0:0:0:0:
109,192,85888,128,0,85999:0:0:0:0:
182,192,85999,128,0,86110:0:0:0:0:
36,192,85999,128,0,89665:0:0:0:0:
256,192,86110,128,0,87443:0:0:0:0:
109,192,86110,1,0,0:0:0:0:
329,192,86110,1,0,0:0:0:0:
329,192,87221,128,0,87443:0:0:0:0:
182,192,87221,128,0,87443:0:0:0:0:
329,192,87665,128,0,88332:0:0:0:0:
182,192,87665,128,0,88554:0:0:0:0:
402,192,87888,128,0,88332:0:0:0:0:
256,192,87888,1,0,0:0:0:0:
329,192,88554,128,0,89665:0:0:0:0:
475,192,88554,128,0,89665:0:0:0:0:
109,192,88554,128,0,89665:0:0:0:0:
256,192,88665,128,0,88776:0:0:0:0:
182,192,88776,128,0,88888:0:0:0:0:
256,192,88888,128,0,88999:0:0:0:0:
182,192,88999,128,0,89665:0:0:0:0:
256,192,89110,128,0,89221:0:0:0:0:
402,192,89221,128,0,89332:0:0:0:0:
256,192,89332,128,0,89443:0:0:0:0:
402,192,89443,128,0,89554:0:0:0:0:
256,192,89554,128,0,89665:0:0:0:0:
402,192,89665,1,0,0:0:0:0:
