osu file format v14

[General]
AudioFilename: audio.mp3
AudioLeadIn: 0
PreviewTime: 75520
Countdown: 0
SampleSet: Soft
StackLeniency: 0.7
Mode: 3
LetterboxInBreaks: 0
SpecialStyle: 0
WidescreenStoryboard: 0

[Editor]
Bookmarks: 31014
DistanceSpacing: 1
BeatDivisor: 4
GridSize: 32
TimelineZoom: 2.1

[Metadata]
Title:PRESENTER
TitleUnicode:PRESENTER
Artist:Horie Yui
ArtistUnicode:堀江由衣
Creator:Syrion-
Version:Melody
Source:DOG DAYS
Tags:ドッグデイズ Millhiore "Millhi" Firianno Biscotti ミルヒオーレ・フィリアンノ・ビスコッティBEST ALBUM jpop pop j-pop Japanese anime ending ed theme female vocals Elements Garden 中村彼方 Kanata Nakamura KING RECORDS KICM-1337
BeatmapID:4379428
BeatmapSetID:2089658

[Difficulty]
HPDrainRate:8
CircleSize:7
OverallDifficulty:8
ApproachRate:5
SliderMultiplier:1.4
SliderTickRate:1

[Events]
//Background and Video events
0,0,"BG.jpg",0,0
//Break Periods
//Storyboard Layer 0 (Background)
//Storyboard Layer 1 (Fail)
//Storyboard Layer 2 (Pass)
//Storyboard Layer 3 (Foreground)
//Storyboard Layer 4 (Overlay)
//Storyboard Sound Samples

[TimingPoints]
1812,397.350993377483,4,2,1,45,1,0
76513,-100,4,2,1,45,0,1
100355,-100,4,2,1,45,0,0
148037,-100,4,2,1,45,0,1
172275,-100,4,2,1,45,0,0
215189,-100,4,2,1,45,0,1
225917,-100,4,2,1,45,0,0
227507,-100,4,2,1,45,0,1
251348,-100,4,2,1,45,0,0

[HitObjects]
256,192,1414,128,0,1811:0:0:0:0:
36,192,1811,128,0,3600:0:0:0:0:
329,192,1811,1,0,0:0:0:0:
475,192,1811,1,0,0:0:0:0:
402,192,1812,1,0,0:0:0:0:
182,192,2010,128,0,2110:0:0:0:0:
109,192,2010,128,0,2110:0:0:0:0:
402,192,2110,1,0,0:0:0:0:
256,192,2209,128,0,2308:0:0:0:0:
329,192,2209,128,0,2308:0:0:0:0:
109,192,2408,128,0,2507:0:0:0:0:
182,192,2408,128,0,2507:0:0:0:0:
402,192,2606,128,0,2706:0:0:0:0:
475,192,2606,128,0,2706:0:0:0:0:
182,192,2805,1,0,0:0:0:0:
329,192,2904,128,0,3004:0:0:0:0:
402,192,2904,128,0,3004:0:0:0:0:
109,192,3004,1,0,0:0:0:0:
256,192,3202,128,0,3302:0:0:0:0:
329,192,3202,128,0,3302:0:0:0:0:
402,192,3302,1,0,0:0:0:0:
109,192,3401,128,0,3500:0:0:0:0:
182,192,3401,128,0,3500:0:0:0:0:
402,192,3600,1,0,0:0:0:0:
475,192,3600,1,0,0:0:0:0:
256,192,3699,128,0,3798:0:0:0:0:
329,192,3798,128,0,3898:0:0:0:0:
182,192,3798,128,0,3898:0:0:0:0:
109,192,3997,128,0,4096:0:0:0:0:
402,192,3997,128,0,4096:0:0:0:0:
182,192,4196,128,0,4394:0:0:0:0:
36,192,4196,128,0,4394:0:0:0:0:
329,192,4196,128,0,4394:0:0:0:0:
475,192,4196,128,0,4394:0:0:0:0:
475,192,4494,128,0,4692:0:0:0:0:
329,192,4494,128,0,4692:0:0:0:0:
182,192,4494,128,0,4692:0:0:0:0:
36,192,4494,128,0,4692:0:0:0:0:
36,192,4792,128,0,4891:0:0:0:0:
182,192,4792,128,0,4891:0:0:0:0:
329,192,4792,128,0,4891:0:0:0:0:
475,192,4792,128,0,4891:0:0:0:0:
475,192,4990,1,0,0:0:0:0:
256,192,4990,128,0,6381:0:0:0:0:
402,192,4990,1,0,0:0:0:0:
109,192,4990,1,0,0:0:0:0:
402,192,5189,1,0,0:0:0:0:
109,192,5288,128,0,5388:0:0:0:0:
329,192,5388,128,0,5487:0:0:0:0:
475,192,5388,128,0,5487:0:0:0:0:
36,192,5586,128,0,5686:0:0:0:0:
109,192,5586,128,0,5686:0:0:0:0:
402,192,5686,1,0,0:0:0:0:
109,192,5785,128,0,5884:0:0:0:0:
182,192,5785,128,0,5884:0:0:0:0:
475,192,5984,1,0,0:0:0:0:
329,192,6083,128,0,6182:0:0:0:0:
402,192,6083,128,0,6182:0:0:0:0:
36,192,6182,1,0,0:0:0:0:
182,192,6381,128,0,6480:0:0:0:0:
109,192,6480,128,0,6580:0:0:0:0:
36,192,6580,128,0,7573:0:0:0:0:
329,192,6778,1,0,0:0:0:0:
256,192,6878,1,0,0:0:0:0:
402,192,6977,1,0,0:0:0:0:
475,192,6977,1,0,0:0:0:0:
182,192,7176,1,0,0:0:0:0:
182,192,7275,1,0,0:0:0:0:
256,192,7374,1,0,0:0:0:0:
329,192,7374,1,0,0:0:0:0:
329,192,7573,1,0,0:0:0:0:
402,192,7573,1,0,0:0:0:0:
402,192,7772,1,0,0:0:0:0:
475,192,7772,1,0,0:0:0:0:
182,192,7970,128,0,8070:0:0:0:0:
36,192,7970,1,0,0:0:0:0:
109,192,7970,1,0,0:0:0:0:
256,192,8070,128,0,8169:0:0:0:0:
329,192,8169,128,0,9560:0:0:0:0:
402,192,8169,1,0,0:0:0:0:
475,192,8169,1,0,0:0:0:0:
109,192,8169,1,0,0:0:0:0:
182,192,8368,128,0,8467:0:0:0:0:
256,192,8368,128,0,8467:0:0:0:0:
36,192,8566,128,0,8666:0:0:0:0:
109,192,8566,128,0,8666:0:0:0:0:
182,192,8765,128,0,8864:0:0:0:0:
256,192,8765,128,0,8864:0:0:0:0:
402,192,8964,128,0,9063:0:0:0:0:
475,192,8964,128,0,9063:0:0:0:0:
256,192,9162,1,0,0:0:0:0:
36,192,9262,128,0,9361:0:0:0:0:
109,192,9262,128,0,9361:0:0:0:0:
182,192,9361,128,0,9461:0:0:0:0:
36,192,9560,128,0,9659:0:0:0:0:
475,192,9560,1,0,0:0:0:0:
402,192,9560,1,0,0:0:0:0:
109,192,9659,128,0,9759:0:0:0:0:
329,192,9659,1,0,0:0:0:0:
182,192,9759,128,0,10355:0:0:0:0:
475,192,9759,1,0,0:0:0:0:
256,192,9759,1,0,0:0:0:0:
475,192,9957,128,0,10057:0:0:0:0:
402,192,10057,128,0,10156:0:0:0:0:
329,192,10057,128,0,10156:0:0:0:0:
256,192,10156,1,0,0:0:0:0:
36,192,10355,128,0,10454:0:0:0:0:
109,192,10355,128,0,10454:0:0:0:0:
329,192,10355,128,0,10454:0:0:0:0:
256,192,10553,128,0,10951:0:0:0:0:
475,192,10553,1,0,0:0:0:0:
329,192,10752,128,0,10851:0:0:0:0:
402,192,10752,128,0,10851:0:0:0:0:
109,192,10851,1,0,0:0:0:0:
36,192,10951,128,0,11050:0:0:0:0:
182,192,10951,128,0,11050:0:0:0:0:
475,192,10951,128,0,11050:0:0:0:0:
256,192,11149,128,0,14328:0:0:0:0:
329,192,11149,1,0,0:0:0:0:
475,192,11149,1,0,0:0:0:0:
109,192,11149,1,0,0:0:0:0:
182,192,11249,1,0,0:0:0:0:
402,192,11348,1,0,0:0:0:0:
329,192,11447,1,0,0:0:0:0:
182,192,11547,128,0,11646:0:0:0:0:
475,192,11547,128,0,11646:0:0:0:0:
109,192,11646,1,0,0:0:0:0:
36,192,11745,128,0,11845:0:0:0:0:
402,192,11745,128,0,11845:0:0:0:0:
182,192,11845,1,0,0:0:0:0:
109,192,11944,128,0,12043:0:0:0:0:
402,192,11944,128,0,12043:0:0:0:0:
475,192,11944,128,0,12043:0:0:0:0:
329,192,12043,1,0,0:0:0:0:
182,192,12143,1,0,0:0:0:0:
402,192,12242,1,0,0:0:0:0:
36,192,12341,128,0,12441:0:0:0:0:
329,192,12341,128,0,12441:0:0:0:0:
475,192,12441,1,0,0:0:0:0:
109,192,12540,128,0,12639:0:0:0:0:
402,192,12540,128,0,12639:0:0:0:0:
329,192,12639,1,0,0:0:0:0:
36,192,12739,128,0,12838:0:0:0:0:
182,192,12739,128,0,12838:0:0:0:0:
475,192,12739,128,0,12838:0:0:0:0:
402,192,12838,1,0,0:0:0:0:
109,192,12937,1,0,0:0:0:0:
182,192,13037,1,0,0:0:0:0:
36,192,13136,128,0,13235:0:0:0:0:
475,192,13136,128,0,13235:0:0:0:0:
109,192,13235,1,0,0:0:0:0:
182,192,13335,128,0,13434:0:0:0:0:
402,192,13335,128,0,13434:0:0:0:0:
329,192,13434,1,0,0:0:0:0:
36,192,13533,128,0,13633:0:0:0:0:
109,192,13533,128,0,13633:0:0:0:0:
475,192,13533,128,0,13633:0:0:0:0:
402,192,13633,1,0,0:0:0:0:
109,192,13732,1,0,0:0:0:0:
182,192,13831,1,0,0:0:0:0:
329,192,13931,128,0,14030:0:0:0:0:
475,192,13931,128,0,14030:0:0:0:0:
109,192,14030,1,0,0:0:0:0:
36,192,14129,128,0,14229:0:0:0:0:
182,192,14129,128,0,14229:0:0:0:0:
329,192,14229,1,0,0:0:0:0:
109,192,14328,1,0,0:0:0:0:
402,192,14328,1,0,0:0:0:0:
182,192,14328,1,0,0:0:0:0:
36,192,14427,1,0,0:0:0:0:
475,192,14427,1,0,0:0:0:0:
256,192,14527,1,0,0:0:0:0:
329,192,14527,1,0,0:0:0:0:
402,192,14626,1,0,0:0:0:0:
475,192,14626,1,0,0:0:0:0:
256,192,14725,1,0,0:0:0:0:
182,192,14725,1,0,0:0:0:0:
329,192,14825,1,0,0:0:0:0:
402,192,14825,1,0,0:0:0:0:
182,192,14924,1,0,0:0:0:0:
109,192,14924,1,0,0:0:0:0:
329,192,15023,1,0,0:0:0:0:
256,192,15023,1,0,0:0:0:0:
36,192,15123,1,0,0:0:0:0:
109,192,15123,1,0,0:0:0:0:
256,192,15222,1,0,0:0:0:0:
182,192,15222,1,0,0:0:0:0:
402,192,15321,1,0,0:0:0:0:
475,192,15321,1,0,0:0:0:0:
329,192,15321,1,0,0:0:0:0:
256,192,15371,1,0,0:0:0:0:
109,192,15421,1,0,0:0:0:0:
182,192,15421,1,0,0:0:0:0:
329,192,15520,1,0,0:0:0:0:
402,192,15520,1,0,0:0:0:0:
36,192,15619,1,0,0:0:0:0:
109,192,15619,1,0,0:0:0:0:
402,192,15719,1,0,0:0:0:0:
475,192,15719,1,0,0:0:0:0:
329,192,15719,1,0,0:0:0:0:
256,192,15768,1,0,0:0:0:0:
182,192,15818,1,0,0:0:0:0:
109,192,15917,1,0,0:0:0:0:
256,192,15917,1,0,0:0:0:0:
36,192,16017,1,0,0:0:0:0:
182,192,16017,1,0,0:0:0:0:
329,192,16116,1,0,0:0:0:0:
475,192,16116,1,0,0:0:0:0:
402,192,16116,1,0,0:0:0:0:
256,192,16182,1,0,0:0:0:0:
182,192,16249,1,0,0:0:0:0:
109,192,16315,1,0,0:0:0:0:
36,192,16315,1,0,0:0:0:0:
402,192,16315,1,0,0:0:0:0:
329,192,16381,1,0,0:0:0:0:
256,192,16447,1,0,0:0:0:0:
182,192,16513,1,0,0:0:0:0:
36,192,16513,1,0,0:0:0:0:
475,192,16513,1,0,0:0:0:0:
402,192,16580,1,0,0:0:0:0:
329,192,16646,1,0,0:0:0:0:
256,192,16712,1,0,0:0:0:0:
109,192,16712,1,0,0:0:0:0:
182,192,16712,1,0,0:0:0:0:
475,192,16778,1,0,0:0:0:0:
402,192,16845,1,0,0:0:0:0:
329,192,16911,1,0,0:0:0:0:
36,192,16911,1,0,0:0:0:0:
109,192,16911,1,0,0:0:0:0:
182,192,16961,1,0,0:0:0:0:
256,192,17010,1,0,0:0:0:0:
329,192,17060,1,0,0:0:0:0:
402,192,17110,1,0,0:0:0:0:
475,192,17110,1,0,0:0:0:0:
36,192,17159,1,0,0:0:0:0:
109,192,17209,1,0,0:0:0:0:
182,192,17259,1,0,0:0:0:0:
256,192,17308,1,0,0:0:0:0:
475,192,17308,1,0,0:0:0:0:
402,192,17358,1,0,0:0:0:0:
329,192,17408,1,0,0:0:0:0:
256,192,17457,1,0,0:0:0:0:
109,192,17507,1,0,0:0:0:0:
182,192,17507,1,0,0:0:0:0:
475,192,17557,1,0,0:0:0:0:
402,192,17606,1,0,0:0:0:0:
329,192,17656,1,0,0:0:0:0:
36,192,17706,1,0,0:0:0:0:
182,192,17706,1,0,0:0:0:0:
109,192,17706,128,0,17904:0:0:0:0:
256,192,17706,1,0,0:0:0:0:
256,192,17904,128,0,18103:0:0:0:0:
36,192,18004,1,0,0:0:0:0:
402,192,18103,128,0,18302:0:0:0:0:
329,192,18103,1,0,0:0:0:0:
109,192,18103,1,0,0:0:0:0:
182,192,18202,1,0,0:0:0:0:
36,192,18302,128,0,18699:0:0:0:0:
256,192,18302,1,0,0:0:0:0:
329,192,18401,1,0,0:0:0:0:
182,192,18500,1,0,0:0:0:0:
475,192,18500,1,0,0:0:0:0:
402,192,18500,1,0,0:0:0:0:
109,192,18600,1,0,0:0:0:0:
475,192,18699,128,0,19096:0:0:0:0:
256,192,18699,1,0,0:0:0:0:
329,192,18798,1,0,0:0:0:0:
182,192,18898,1,0,0:0:0:0:
109,192,18898,1,0,0:0:0:0:
402,192,18898,1,0,0:0:0:0:
256,192,18997,1,0,0:0:0:0:
109,192,19096,128,0,19494:0:0:0:0:
36,192,19096,1,0,0:0:0:0:
329,192,19096,1,0,0:0:0:0:
182,192,19196,1,0,0:0:0:0:
256,192,19295,1,0,0:0:0:0:
475,192,19295,1,0,0:0:0:0:
402,192,19295,1,0,0:0:0:0:
329,192,19394,1,0,0:0:0:0:
402,192,19494,128,0,19692:0:0:0:0:
182,192,19494,1,0,0:0:0:0:
36,192,19593,1,0,0:0:0:0:
329,192,19692,128,0,19891:0:0:0:0:
109,192,19692,1,0,0:0:0:0:
475,192,19692,1,0,0:0:0:0:
182,192,19792,1,0,0:0:0:0:
256,192,19891,128,0,20884:0:0:0:0:
402,192,19891,1,0,0:0:0:0:
36,192,19990,1,0,0:0:0:0:
182,192,20090,1,0,0:0:0:0:
475,192,20090,1,0,0:0:0:0:
329,192,20090,1,0,0:0:0:0:
402,192,20189,1,0,0:0:0:0:
109,192,20288,128,0,20388:0:0:0:0:
36,192,20388,128,0,20487:0:0:0:0:
182,192,20487,128,0,20586:0:0:0:0:
402,192,20487,128,0,20586:0:0:0:0:
475,192,20487,128,0,20586:0:0:0:0:
109,192,20586,128,0,20686:0:0:0:0:
36,192,20686,128,0,20785:0:0:0:0:
475,192,20686,128,0,20785:0:0:0:0:
402,192,20686,128,0,20785:0:0:0:0:
329,192,20785,128,0,20884:0:0:0:0:
109,192,20884,1,0,0:0:0:0:
36,192,20884,1,0,0:0:0:0:
182,192,20884,128,0,21083:0:0:0:0:
475,192,20884,1,0,0:0:0:0:
402,192,20984,1,0,0:0:0:0:
329,192,21083,128,0,21282:0:0:0:0:
256,192,21083,1,0,0:0:0:0:
182,192,21182,1,0,0:0:0:0:
109,192,21282,128,0,21480:0:0:0:0:
36,192,21282,1,0,0:0:0:0:
475,192,21282,1,0,0:0:0:0:
329,192,21381,1,0,0:0:0:0:
402,192,21480,128,0,21679:0:0:0:0:
256,192,21480,1,0,0:0:0:0:
182,192,21580,1,0,0:0:0:0:
109,192,21679,1,0,0:0:0:0:
36,192,21679,1,0,0:0:0:0:
475,192,21679,1,0,0:0:0:0:
329,192,21778,1,0,0:0:0:0:
256,192,21878,128,0,22076:0:0:0:0:
109,192,21878,1,0,0:0:0:0:
402,192,21977,1,0,0:0:0:0:
182,192,22076,128,0,22275:0:0:0:0:
36,192,22076,1,0,0:0:0:0:
475,192,22076,1,0,0:0:0:0:
329,192,22176,1,0,0:0:0:0:
109,192,22275,128,0,22474:0:0:0:0:
402,192,22275,1,0,0:0:0:0:
256,192,22374,1,0,0:0:0:0:
36,192,22474,128,0,23070:0:0:0:0:
329,192,22474,1,0,0:0:0:0:
475,192,22474,1,0,0:0:0:0:
402,192,22474,1,0,0:0:0:0:
182,192,22573,1,0,0:0:0:0:
256,192,22672,1,0,0:0:0:0:
329,192,22772,1,0,0:0:0:0:
402,192,22871,1,0,0:0:0:0:
475,192,22871,1,0,0:0:0:0:
182,192,22871,1,0,0:0:0:0:
256,192,22970,1,0,0:0:0:0:
109,192,23070,128,0,23169:0:0:0:0:
329,192,23070,128,0,23169:0:0:0:0:
182,192,23169,128,0,23268:0:0:0:0:
402,192,23169,128,0,23268:0:0:0:0:
36,192,23268,128,0,23566:0:0:0:0:
256,192,23268,128,0,23566:0:0:0:0:
475,192,23268,128,0,23566:0:0:0:0:
329,192,23268,128,0,23566:0:0:0:0:
256,192,23666,128,0,23864:0:0:0:0:
36,192,23666,128,0,23864:0:0:0:0:
475,192,23666,128,0,23864:0:0:0:0:
329,192,23666,128,0,23864:0:0:0:0:
182,192,23864,1,0,0:0:0:0:
402,192,23864,1,0,0:0:0:0:
109,192,23964,1,0,0:0:0:0:
402,192,24063,128,0,24262:0:0:0:0:
36,192,24063,1,0,0:0:0:0:
256,192,24063,1,0,0:0:0:0:
475,192,24063,1,0,0:0:0:0:
182,192,24162,1,0,0:0:0:0:
329,192,24262,128,0,24461:0:0:0:0:
36,192,24262,1,0,0:0:0:0:
109,192,24361,1,0,0:0:0:0:
256,192,24461,128,0,24659:0:0:0:0:
182,192,24461,1,0,0:0:0:0:
475,192,24461,1,0,0:0:0:0:
402,192,24560,1,0,0:0:0:0:
182,192,24659,128,0,25057:0:0:0:0:
36,192,24659,1,0,0:0:0:0:
329,192,24759,1,0,0:0:0:0:
475,192,24858,1,0,0:0:0:0:
402,192,24858,1,0,0:0:0:0:
329,192,24957,1,0,0:0:0:0:
36,192,25057,128,0,25454:0:0:0:0:
109,192,25057,1,0,0:0:0:0:
256,192,25156,1,0,0:0:0:0:
329,192,25255,1,0,0:0:0:0:
402,192,25255,1,0,0:0:0:0:
475,192,25255,1,0,0:0:0:0:
182,192,25355,1,0,0:0:0:0:
475,192,25454,128,0,25851:0:0:0:0:
256,192,25454,1,0,0:0:0:0:
329,192,25553,1,0,0:0:0:0:
402,192,25653,1,0,0:0:0:0:
36,192,25653,1,0,0:0:0:0:
182,192,25653,1,0,0:0:0:0:
256,192,25752,1,0,0:0:0:0:
109,192,25851,128,0,26050:0:0:0:0:
329,192,25851,1,0,0:0:0:0:
402,192,25951,1,0,0:0:0:0:
182,192,26050,128,0,26249:0:0:0:0:
36,192,26050,1,0,0:0:0:0:
256,192,26050,1,0,0:0:0:0:
475,192,26149,1,0,0:0:0:0:
329,192,26249,128,0,27242:0:0:0:0:
402,192,26249,1,0,0:0:0:0:
36,192,26348,1,0,0:0:0:0:
256,192,26447,1,0,0:0:0:0:
182,192,26447,1,0,0:0:0:0:
109,192,26547,1,0,0:0:0:0:
256,192,26646,128,0,26745:0:0:0:0:
182,192,26745,128,0,26845:0:0:0:0:
109,192,26845,128,0,26944:0:0:0:0:
36,192,26845,128,0,26944:0:0:0:0:
475,192,26845,128,0,26944:0:0:0:0:
256,192,26944,128,0,27043:0:0:0:0:
182,192,27043,128,0,27143:0:0:0:0:
109,192,27143,128,0,27242:0:0:0:0:
36,192,27242,128,0,27441:0:0:0:0:
475,192,27242,128,0,27441:0:0:0:0:
256,192,27242,128,0,27739:0:0:0:0:
402,192,27242,1,0,0:0:0:0:
182,192,27540,128,0,27739:0:0:0:0:
329,192,27540,128,0,27739:0:0:0:0:
256,192,27838,128,0,28037:0:0:0:0:
36,192,27838,128,0,28235:0:0:0:0:
475,192,27838,128,0,28235:0:0:0:0:
109,192,27838,1,0,0:0:0:0:
182,192,28037,128,0,28235:0:0:0:0:
329,192,28037,128,0,28235:0:0:0:0:
402,192,28434,128,0,28831:0:0:0:0:
109,192,28434,128,0,28831:0:0:0:0:
36,192,28434,1,0,0:0:0:0:
475,192,28434,1,0,0:0:0:0:
256,192,28633,128,0,32110:0:0:0:0:
182,192,28633,128,0,29229:0:0:0:0:
329,192,28633,128,0,29229:0:0:0:0:
36,192,29427,128,0,29527:0:0:0:0:
109,192,29626,128,0,29725:0:0:0:0:
329,192,29825,128,0,29924:0:0:0:0:
402,192,30023,128,0,30123:0:0:0:0:
475,192,30222,128,0,30321:0:0:0:0:
109,192,30421,128,0,30520:0:0:0:0:
402,192,30619,128,0,30719:0:0:0:0:
329,192,30818,128,0,30917:0:0:0:0:
182,192,31017,128,0,31116:0:0:0:0:
109,192,31215,128,0,31315:0:0:0:0:
36,192,31414,128,0,31513:0:0:0:0:
402,192,31613,128,0,31712:0:0:0:0:
475,192,31811,128,0,31911:0:0:0:0:
36,192,32010,128,0,32110:0:0:0:0:
329,192,32209,128,0,32308:0:0:0:0:
256,192,32408,128,0,32507:0:0:0:0:
182,192,32606,128,0,32706:0:0:0:0:
109,192,32805,128,0,32904:0:0:0:0:
36,192,33004,128,0,33103:0:0:0:0:
402,192,33202,128,0,33302:0:0:0:0:
109,192,33401,128,0,33500:0:0:0:0:
329,192,33600,128,0,33699:0:0:0:0:
182,192,33798,128,0,33898:0:0:0:0:
109,192,33997,128,0,34096:0:0:0:0:
36,192,34196,128,0,34295:0:0:0:0:
329,192,34394,128,0,34494:0:0:0:0:
402,192,34593,128,0,34692:0:0:0:0:
475,192,34792,128,0,34891:0:0:0:0:
109,192,34990,128,0,35090:0:0:0:0:
36,192,35189,128,0,35288:0:0:0:0:
256,192,35189,128,0,35288:0:0:0:0:
402,192,35189,128,0,35288:0:0:0:0:
329,192,35388,128,0,35586:0:0:0:0:
329,192,35785,128,0,36182:0:0:0:0:
182,192,35785,128,0,35884:0:0:0:0:
109,192,35785,128,0,35884:0:0:0:0:
475,192,35785,128,0,35884:0:0:0:0:
256,192,35984,128,0,36182:0:0:0:0:
36,192,36182,128,0,36778:0:0:0:0:
475,192,36182,128,0,36282:0:0:0:0:
109,192,36381,128,0,36778:0:0:0:0:
402,192,36381,128,0,36480:0:0:0:0:
182,192,36580,128,0,36778:0:0:0:0:
329,192,36580,128,0,36679:0:0:0:0:
256,192,36778,128,0,36878:0:0:0:0:
475,192,36778,128,0,36878:0:0:0:0:
402,192,36977,128,0,37474:0:0:0:0:
109,192,36977,128,0,37076:0:0:0:0:
475,192,37176,128,0,37374:0:0:0:0:
182,192,37176,128,0,37275:0:0:0:0:
329,192,37374,128,0,37573:0:0:0:0:
36,192,37374,128,0,37474:0:0:0:0:
109,192,37374,128,0,37474:0:0:0:0:
256,192,37474,128,0,37772:0:0:0:0:
329,192,37772,128,0,37871:0:0:0:0:
36,192,37772,128,0,38666:0:0:0:0:
402,192,37970,128,0,38070:0:0:0:0:
109,192,37970,128,0,38566:0:0:0:0:
182,192,38169,128,0,38467:0:0:0:0:
475,192,38169,128,0,38268:0:0:0:0:
256,192,38368,128,0,38467:0:0:0:0:
329,192,38368,128,0,38467:0:0:0:0:
402,192,38566,128,0,38666:0:0:0:0:
329,192,38566,128,0,38666:0:0:0:0:
402,192,38765,128,0,39162:0:0:0:0:
329,192,38765,128,0,38864:0:0:0:0:
256,192,38964,128,0,39162:0:0:0:0:
109,192,38964,128,0,39063:0:0:0:0:
36,192,38964,128,0,39063:0:0:0:0:
329,192,39361,128,0,39759:0:0:0:0:
36,192,39361,128,0,39461:0:0:0:0:
402,192,39560,128,0,39957:0:0:0:0:
109,192,39560,128,0,39659:0:0:0:0:
475,192,39759,128,0,40355:0:0:0:0:
182,192,39759,128,0,39858:0:0:0:0:
36,192,39957,128,0,40057:0:0:0:0:
329,192,39957,128,0,40057:0:0:0:0:
256,192,40156,128,0,40255:0:0:0:0:
182,192,40355,128,0,40454:0:0:0:0:
36,192,40553,128,0,40653:0:0:0:0:
475,192,40553,128,0,40653:0:0:0:0:
109,192,40653,128,0,40752:0:0:0:0:
402,192,40653,128,0,40752:0:0:0:0:
329,192,40752,128,0,41348:0:0:0:0:
182,192,40752,128,0,40851:0:0:0:0:
256,192,40752,128,0,40851:0:0:0:0:
36,192,40951,128,0,41050:0:0:0:0:
109,192,41149,128,0,41249:0:0:0:0:
182,192,41348,128,0,41447:0:0:0:0:
475,192,41547,128,0,41646:0:0:0:0:
256,192,41547,128,0,41646:0:0:0:0:
36,192,41547,128,0,41646:0:0:0:0:
329,192,41547,128,0,41646:0:0:0:0:
402,192,41745,128,0,41944:0:0:0:0:
182,192,41745,128,0,41845:0:0:0:0:
329,192,41944,128,0,42242:0:0:0:0:
109,192,41944,128,0,42043:0:0:0:0:
256,192,42143,128,0,42341:0:0:0:0:
36,192,42143,128,0,42242:0:0:0:0:
182,192,42242,128,0,42441:0:0:0:0:
182,192,42540,128,0,42639:0:0:0:0:
36,192,42540,128,0,42639:0:0:0:0:
256,192,42739,128,0,42838:0:0:0:0:
109,192,42739,128,0,42838:0:0:0:0:
182,192,42937,128,0,43037:0:0:0:0:
329,192,42937,128,0,43235:0:0:0:0:
402,192,43136,128,0,43235:0:0:0:0:
36,192,43136,128,0,43235:0:0:0:0:
256,192,43136,128,0,43235:0:0:0:0:
475,192,43335,128,0,43434:0:0:0:0:
109,192,43335,128,0,43434:0:0:0:0:
475,192,43533,128,0,43732:0:0:0:0:
182,192,43533,128,0,43633:0:0:0:0:
329,192,43732,128,0,44129:0:0:0:0:
402,192,43732,128,0,43831:0:0:0:0:
256,192,43732,128,0,43831:0:0:0:0:
36,192,43732,128,0,43831:0:0:0:0:
109,192,43831,128,0,43931:0:0:0:0:
182,192,44030,128,0,44129:0:0:0:0:
36,192,44129,128,0,44527:0:0:0:0:
109,192,44328,128,0,44725:0:0:0:0:
475,192,44328,128,0,44427:0:0:0:0:
182,192,44527,128,0,44924:0:0:0:0:
402,192,44527,128,0,44626:0:0:0:0:
329,192,44725,128,0,44825:0:0:0:0:
256,192,44725,128,0,44825:0:0:0:0:
475,192,44924,128,0,45520:0:0:0:0:
36,192,44924,128,0,45023:0:0:0:0:
402,192,45123,128,0,45222:0:0:0:0:
109,192,45123,128,0,45222:0:0:0:0:
402,192,45321,128,0,45719:0:0:0:0:
182,192,45321,128,0,45421:0:0:0:0:
256,192,45321,128,0,45421:0:0:0:0:
329,192,45719,128,0,45818:0:0:0:0:
109,192,45719,128,0,46116:0:0:0:0:
402,192,45917,128,0,46017:0:0:0:0:
182,192,45917,128,0,46315:0:0:0:0:
256,192,46116,128,0,47110:0:0:0:0:
475,192,46116,128,0,46215:0:0:0:0:
36,192,46315,128,0,46414:0:0:0:0:
109,192,46315,128,0,46414:0:0:0:0:
402,192,46315,128,0,46414:0:0:0:0:
329,192,46513,128,0,46613:0:0:0:0:
182,192,46712,128,0,46811:0:0:0:0:
109,192,46911,128,0,47010:0:0:0:0:
36,192,47110,128,0,47209:0:0:0:0:
475,192,47209,128,0,47308:0:0:0:0:
109,192,47308,128,0,47408:0:0:0:0:
402,192,47408,128,0,47507:0:0:0:0:
182,192,47507,128,0,47606:0:0:0:0:
329,192,47606,128,0,47706:0:0:0:0:
256,192,47706,128,0,47805:0:0:0:0:
182,192,47805,128,0,47904:0:0:0:0:
36,192,47904,1,0,0:0:0:0:
109,192,47904,1,0,0:0:0:0:
475,192,47904,1,0,0:0:0:0:
402,192,47904,128,0,48103:0:0:0:0:
256,192,48103,128,0,48202:0:0:0:0:
256,192,48302,128,0,48500:0:0:0:0:
329,192,48302,1,0,0:0:0:0:
475,192,48302,1,0,0:0:0:0:
109,192,48500,128,0,49494:0:0:0:0:
402,192,48500,1,0,0:0:0:0:
36,192,48500,1,0,0:0:0:0:
256,192,48699,1,0,0:0:0:0:
329,192,48898,128,0,48997:0:0:0:0:
475,192,48898,1,0,0:0:0:0:
329,192,49096,128,0,49196:0:0:0:0:
402,192,49096,1,0,0:0:0:0:
329,192,49295,128,0,49494:0:0:0:0:
182,192,49295,1,0,0:0:0:0:
475,192,49394,1,0,0:0:0:0:
256,192,49494,1,0,0:0:0:0:
36,192,49494,1,0,0:0:0:0:
402,192,49494,1,0,0:0:0:0:
475,192,49692,128,0,49891:0:0:0:0:
182,192,49692,1,0,0:0:0:0:
402,192,49891,128,0,50090:0:0:0:0:
109,192,49891,1,0,0:0:0:0:
36,192,49891,1,0,0:0:0:0:
329,192,50090,128,0,50487:0:0:0:0:
36,192,50090,1,0,0:0:0:0:
182,192,50090,1,0,0:0:0:0:
109,192,50189,1,0,0:0:0:0:
256,192,50288,128,0,50487:0:0:0:0:
475,192,50288,1,0,0:0:0:0:
36,192,50487,128,0,50686:0:0:0:0:
402,192,50487,1,0,0:0:0:0:
109,192,50686,128,0,50884:0:0:0:0:
256,192,50686,1,0,0:0:0:0:
329,192,50785,1,0,0:0:0:0:
182,192,50884,128,0,51282:0:0:0:0:
402,192,50884,1,0,0:0:0:0:
475,192,50884,1,0,0:0:0:0:
256,192,51083,1,0,0:0:0:0:
475,192,51083,1,0,0:0:0:0:
329,192,51083,1,0,0:0:0:0:
329,192,51282,128,0,51480:0:0:0:0:
36,192,51282,1,0,0:0:0:0:
256,192,51480,128,0,51679:0:0:0:0:
109,192,51480,1,0,0:0:0:0:
475,192,51480,1,0,0:0:0:0:
402,192,51679,128,0,52672:0:0:0:0:
182,192,51679,1,0,0:0:0:0:
329,192,51679,1,0,0:0:0:0:
109,192,51778,1,0,0:0:0:0:
36,192,51878,1,0,0:0:0:0:
182,192,52076,128,0,52176:0:0:0:0:
329,192,52076,1,0,0:0:0:0:
182,192,52275,128,0,52374:0:0:0:0:
256,192,52275,1,0,0:0:0:0:
36,192,52275,1,0,0:0:0:0:
182,192,52474,128,0,53268:0:0:0:0:
109,192,52474,1,0,0:0:0:0:
329,192,52573,1,0,0:0:0:0:
475,192,52672,1,0,0:0:0:0:
36,192,52672,1,0,0:0:0:0:
256,192,52672,1,0,0:0:0:0:
329,192,52871,1,0,0:0:0:0:
402,192,52970,1,0,0:0:0:0:
475,192,53070,1,0,0:0:0:0:
256,192,53070,1,0,0:0:0:0:
36,192,53070,1,0,0:0:0:0:
329,192,53268,128,0,53368:0:0:0:0:
109,192,53268,1,0,0:0:0:0:
36,192,53268,1,0,0:0:0:0:
402,192,53368,128,0,53467:0:0:0:0:
182,192,53368,1,0,0:0:0:0:
475,192,53467,128,0,54262:0:0:0:0:
256,192,53467,1,0,0:0:0:0:
329,192,53467,1,0,0:0:0:0:
109,192,53666,1,0,0:0:0:0:
36,192,53864,1,0,0:0:0:0:
109,192,53864,1,0,0:0:0:0:
256,192,53864,1,0,0:0:0:0:
182,192,54063,1,0,0:0:0:0:
329,192,54262,1,0,0:0:0:0:
36,192,54262,1,0,0:0:0:0:
402,192,54262,1,0,0:0:0:0:
182,192,54262,1,0,0:0:0:0:
109,192,54461,128,0,54560:0:0:0:0:
256,192,54461,1,0,0:0:0:0:
109,192,54659,128,0,54957:0:0:0:0:
256,192,54659,1,0,0:0:0:0:
475,192,54659,1,0,0:0:0:0:
329,192,54858,128,0,54957:0:0:0:0:
182,192,54858,1,0,0:0:0:0:
475,192,54858,1,0,0:0:0:0:
402,192,54957,128,0,55255:0:0:0:0:
256,192,55057,1,0,0:0:0:0:
256,192,55255,128,0,55454:0:0:0:0:
36,192,55255,1,0,0:0:0:0:
109,192,55454,128,0,55653:0:0:0:0:
182,192,55454,1,0,0:0:0:0:
475,192,55454,1,0,0:0:0:0:
329,192,55653,128,0,56050:0:0:0:0:
256,192,55653,1,0,0:0:0:0:
402,192,55653,1,0,0:0:0:0:
182,192,55752,1,0,0:0:0:0:
109,192,55851,1,0,0:0:0:0:
475,192,55851,1,0,0:0:0:0:
36,192,55851,1,0,0:0:0:0:
36,192,56050,128,0,56149:0:0:0:0:
182,192,56050,1,0,0:0:0:0:
36,192,56249,128,0,56646:0:0:0:0:
256,192,56249,1,0,0:0:0:0:
402,192,56249,1,0,0:0:0:0:
109,192,56447,128,0,56646:0:0:0:0:
329,192,56447,1,0,0:0:0:0:
475,192,56447,1,0,0:0:0:0:
256,192,56547,1,0,0:0:0:0:
475,192,56646,1,0,0:0:0:0:
402,192,56646,1,0,0:0:0:0:
182,192,56646,1,0,0:0:0:0:
182,192,56845,128,0,57043:0:0:0:0:
329,192,56845,1,0,0:0:0:0:
36,192,56944,1,0,0:0:0:0:
256,192,57043,128,0,57242:0:0:0:0:
402,192,57043,1,0,0:0:0:0:
475,192,57043,1,0,0:0:0:0:
36,192,57242,1,0,0:0:0:0:
475,192,57242,1,0,0:0:0:0:
329,192,57242,1,0,0:0:0:0:
109,192,57341,1,0,0:0:0:0:
182,192,57341,1,0,0:0:0:0:
256,192,57441,1,0,0:0:0:0:
329,192,57441,1,0,0:0:0:0:
475,192,57441,1,0,0:0:0:0:
402,192,57441,1,0,0:0:0:0:
109,192,57639,128,0,57838:0:0:0:0:
36,192,57639,1,0,0:0:0:0:
182,192,57838,128,0,58037:0:0:0:0:
329,192,57838,1,0,0:0:0:0:
475,192,57838,1,0,0:0:0:0:
256,192,58037,128,0,58434:0:0:0:0:
36,192,58037,1,0,0:0:0:0:
109,192,58037,1,0,0:0:0:0:
329,192,58037,1,0,0:0:0:0:
402,192,58136,1,0,0:0:0:0:
475,192,58235,1,0,0:0:0:0:
36,192,58434,128,0,58633:0:0:0:0:
329,192,58434,1,0,0:0:0:0:
109,192,58633,128,0,58831:0:0:0:0:
402,192,58633,1,0,0:0:0:0:
475,192,58633,1,0,0:0:0:0:
182,192,58831,128,0,59030:0:0:0:0:
256,192,58831,1,0,0:0:0:0:
329,192,58831,1,0,0:0:0:0:
475,192,58831,1,0,0:0:0:0:
402,192,59030,1,0,0:0:0:0:
36,192,59229,1,0,0:0:0:0:
109,192,59229,1,0,0:0:0:0:
182,192,59278,1,0,0:0:0:0:
256,192,59328,1,0,0:0:0:0:
329,192,59378,1,0,0:0:0:0:
109,192,59427,1,0,0:0:0:0:
402,192,59427,1,0,0:0:0:0:
475,192,59427,1,0,0:0:0:0:
182,192,59626,1,0,0:0:0:0:
256,192,59725,1,0,0:0:0:0:
329,192,59725,1,0,0:0:0:0:
36,192,59825,1,0,0:0:0:0:
109,192,59825,1,0,0:0:0:0:
182,192,59825,1,0,0:0:0:0:
329,192,59924,1,0,0:0:0:0:
402,192,59924,1,0,0:0:0:0:
182,192,60023,1,0,0:0:0:0:
256,192,60023,1,0,0:0:0:0:
109,192,60023,1,0,0:0:0:0:
402,192,60123,1,0,0:0:0:0:
475,192,60123,1,0,0:0:0:0:
256,192,60222,1,0,0:0:0:0:
329,192,60222,1,0,0:0:0:0:
182,192,60222,1,0,0:0:0:0:
109,192,60321,1,0,0:0:0:0:
36,192,60421,1,0,0:0:0:0:
475,192,60421,1,0,0:0:0:0:
402,192,60421,1,0,0:0:0:0:
329,192,60520,1,0,0:0:0:0:
256,192,60520,1,0,0:0:0:0:
109,192,60619,128,0,61017:0:0:0:0:
402,192,60619,128,0,61017:0:0:0:0:
256,192,60818,1,0,0:0:0:0:
36,192,61017,1,0,0:0:0:0:
182,192,61017,1,0,0:0:0:0:
475,192,61017,1,0,0:0:0:0:
329,192,61017,1,0,0:0:0:0:
256,192,61215,1,0,0:0:0:0:
256,192,61414,1,0,0:0:0:0:
329,192,61613,1,0,0:0:0:0:
475,192,61613,1,0,0:0:0:0:
182,192,61613,1,0,0:0:0:0:
36,192,61613,1,0,0:0:0:0:
109,192,61811,1,0,0:0:0:0:
402,192,61811,1,0,0:0:0:0:
36,192,62010,128,0,62408:0:0:0:0:
182,192,62010,128,0,62408:0:0:0:0:
329,192,62010,128,0,62408:0:0:0:0:
402,192,62010,128,0,62408:0:0:0:0:
475,192,62408,128,0,62507:0:0:0:0:
256,192,62606,1,0,0:0:0:0:
109,192,62606,1,0,0:0:0:0:
402,192,62606,128,0,62706:0:0:0:0:
329,192,62805,128,0,62904:0:0:0:0:
36,192,62805,128,0,63004:0:0:0:0:
256,192,63004,128,0,63103:0:0:0:0:
109,192,63004,128,0,63202:0:0:0:0:
475,192,63004,1,0,0:0:0:0:
182,192,63202,128,0,63401:0:0:0:0:
402,192,63202,1,0,0:0:0:0:
329,192,63202,1,0,0:0:0:0:
256,192,63401,128,0,63600:0:0:0:0:
109,192,63401,1,0,0:0:0:0:
402,192,63401,1,0,0:0:0:0:
36,192,63600,1,0,0:0:0:0:
329,192,63600,128,0,63699:0:0:0:0:
182,192,63699,1,0,0:0:0:0:
329,192,63798,128,0,64792:0:0:0:0:
475,192,63798,1,0,0:0:0:0:
182,192,63997,1,0,0:0:0:0:
109,192,64096,1,0,0:0:0:0:
36,192,64196,1,0,0:0:0:0:
182,192,64196,1,0,0:0:0:0:
256,192,64196,1,0,0:0:0:0:
475,192,64196,1,0,0:0:0:0:
109,192,64394,1,0,0:0:0:0:
182,192,64593,1,0,0:0:0:0:
256,192,64792,1,0,0:0:0:0:
36,192,64792,1,0,0:0:0:0:
475,192,64792,1,0,0:0:0:0:
182,192,64990,128,0,65090:0:0:0:0:
402,192,64990,1,0,0:0:0:0:
329,192,64990,1,0,0:0:0:0:
182,192,65189,128,0,66182:0:0:0:0:
256,192,65189,1,0,0:0:0:0:
402,192,65189,1,0,0:0:0:0:
36,192,65189,1,0,0:0:0:0:
475,192,65586,1,0,0:0:0:0:
329,192,65586,128,0,65686:0:0:0:0:
402,192,65586,1,0,0:0:0:0:
256,192,65785,128,0,65884:0:0:0:0:
36,192,65785,1,0,0:0:0:0:
475,192,65785,1,0,0:0:0:0:
329,192,65884,1,0,0:0:0:0:
402,192,65984,128,0,66083:0:0:0:0:
256,192,66083,1,0,0:0:0:0:
329,192,66182,128,0,66282:0:0:0:0:
109,192,66182,1,0,0:0:0:0:
475,192,66182,1,0,0:0:0:0:
475,192,66381,128,0,66480:0:0:0:0:
36,192,66381,128,0,66580:0:0:0:0:
402,192,66381,1,0,0:0:0:0:
109,192,66580,128,0,66778:0:0:0:0:
256,192,66580,1,0,0:0:0:0:
329,192,66679,1,0,0:0:0:0:
182,192,66778,128,0,66977:0:0:0:0:
475,192,66778,1,0,0:0:0:0:
402,192,66878,1,0,0:0:0:0:
329,192,66977,1,0,0:0:0:0:
109,192,66977,1,0,0:0:0:0:
36,192,66977,1,0,0:0:0:0:
256,192,66977,1,0,0:0:0:0:
109,192,67176,1,0,0:0:0:0:
402,192,67176,1,0,0:0:0:0:
182,192,67275,1,0,0:0:0:0:
329,192,67275,1,0,0:0:0:0:
256,192,67374,1,0,0:0:0:0:
36,192,67374,1,0,0:0:0:0:
475,192,67374,1,0,0:0:0:0:
109,192,67573,1,0,0:0:0:0:
182,192,67573,1,0,0:0:0:0:
329,192,67573,1,0,0:0:0:0:
402,192,67573,1,0,0:0:0:0:
256,192,67772,1,0,0:0:0:0:
256,192,67970,1,0,0:0:0:0:
402,192,67970,1,0,0:0:0:0:
36,192,68169,1,0,0:0:0:0:
109,192,68169,1,0,0:0:0:0:
329,192,68169,1,0,0:0:0:0:
182,192,68368,1,0,0:0:0:0:
256,192,68368,1,0,0:0:0:0:
182,192,68566,1,0,0:0:0:0:
329,192,68566,1,0,0:0:0:0:
475,192,68566,1,0,0:0:0:0:
36,192,68566,1,0,0:0:0:0:
402,192,68765,1,0,0:0:0:0:
109,192,68765,1,0,0:0:0:0:
256,192,68864,1,0,0:0:0:0:
329,192,68864,1,0,0:0:0:0:
182,192,68964,1,0,0:0:0:0:
36,192,68964,1,0,0:0:0:0:
475,192,68964,1,0,0:0:0:0:
256,192,69162,1,0,0:0:0:0:
402,192,69162,1,0,0:0:0:0:
109,192,69162,1,0,0:0:0:0:
475,192,69162,1,0,0:0:0:0:
182,192,69560,128,0,69659:0:0:0:0:
329,192,69560,1,0,0:0:0:0:
36,192,69560,1,0,0:0:0:0:
256,192,69759,128,0,69858:0:0:0:0:
402,192,69759,1,0,0:0:0:0:
475,192,69759,1,0,0:0:0:0:
109,192,69858,128,0,69957:0:0:0:0:
329,192,69957,128,0,70057:0:0:0:0:
475,192,69957,1,0,0:0:0:0:
182,192,70057,128,0,70156:0:0:0:0:
402,192,70156,1,0,0:0:0:0:
36,192,70156,1,0,0:0:0:0:
109,192,70156,1,0,0:0:0:0:
256,192,70156,1,0,0:0:0:0:
329,192,70355,1,0,0:0:0:0:
256,192,70454,1,0,0:0:0:0:
182,192,70553,1,0,0:0:0:0:
109,192,70553,1,0,0:0:0:0:
475,192,70553,1,0,0:0:0:0:
402,192,70653,1,0,0:0:0:0:
329,192,70752,1,0,0:0:0:0:
256,192,70851,1,0,0:0:0:0:
475,192,70951,1,0,0:0:0:0:
36,192,70951,1,0,0:0:0:0:
182,192,70951,1,0,0:0:0:0:
402,192,71050,1,0,0:0:0:0:
329,192,71149,1,0,0:0:0:0:
182,192,71249,1,0,0:0:0:0:
475,192,71348,1,0,0:0:0:0:
256,192,71348,1,0,0:0:0:0:
36,192,71348,1,0,0:0:0:0:
329,192,71447,1,0,0:0:0:0:
402,192,71547,1,0,0:0:0:0:
329,192,71646,1,0,0:0:0:0:
256,192,71745,1,0,0:0:0:0:
475,192,71745,1,0,0:0:0:0:
36,192,71745,1,0,0:0:0:0:
402,192,71845,1,0,0:0:0:0:
182,192,71845,1,0,0:0:0:0:
329,192,71944,1,0,0:0:0:0:
109,192,71944,1,0,0:0:0:0:
256,192,72043,1,0,0:0:0:0:
36,192,72043,1,0,0:0:0:0:
475,192,72143,1,0,0:0:0:0:
182,192,72143,1,0,0:0:0:0:
402,192,72143,1,0,0:0:0:0:
109,192,72242,1,0,0:0:0:0:
329,192,72242,1,0,0:0:0:0:
475,192,72341,1,0,0:0:0:0:
36,192,72341,1,0,0:0:0:0:
256,192,72341,1,0,0:0:0:0:
182,192,72441,1,0,0:0:0:0:
475,192,72540,1,0,0:0:0:0:
402,192,72540,1,0,0:0:0:0:
329,192,72540,1,0,0:0:0:0:
182,192,72639,1,0,0:0:0:0:
36,192,72639,1,0,0:0:0:0:
109,192,72639,1,0,0:0:0:0:
329,192,72739,1,0,0:0:0:0:
475,192,72739,1,0,0:0:0:0:
402,192,72739,1,0,0:0:0:0:
182,192,72838,1,0,0:0:0:0:
109,192,72838,1,0,0:0:0:0:
36,192,72838,1,0,0:0:0:0:
329,192,72937,1,0,0:0:0:0:
402,192,72937,1,0,0:0:0:0:
475,192,72937,1,0,0:0:0:0:
36,192,73037,1,0,0:0:0:0:
109,192,73037,1,0,0:0:0:0:
182,192,73037,1,0,0:0:0:0:
329,192,73136,1,0,0:0:0:0:
475,192,73136,1,0,0:0:0:0:
402,192,73136,1,0,0:0:0:0:
256,192,73186,1,0,0:0:0:0:
182,192,73235,1,0,0:0:0:0:
109,192,73285,1,0,0:0:0:0:
36,192,73335,1,0,0:0:0:0:
402,192,73335,1,0,0:0:0:0:
475,192,73335,1,0,0:0:0:0:
329,192,73434,1,0,0:0:0:0:
256,192,73533,1,0,0:0:0:0:
109,192,73633,1,0,0:0:0:0:
36,192,73633,1,0,0:0:0:0:
182,192,73633,1,0,0:0:0:0:
475,192,73633,1,0,0:0:0:0:
256,192,73732,1,0,0:0:0:0:
329,192,73831,1,0,0:0:0:0:
475,192,73931,1,0,0:0:0:0:
402,192,73931,1,0,0:0:0:0:
36,192,73931,1,0,0:0:0:0:
109,192,73931,1,0,0:0:0:0:
182,192,74030,1,0,0:0:0:0:
256,192,74129,1,0,0:0:0:0:
329,192,74229,1,0,0:0:0:0:
402,192,74278,1,0,0:0:0:0:
475,192,74328,1,0,0:0:0:0:
109,192,74328,1,0,0:0:0:0:
182,192,74378,1,0,0:0:0:0:
256,192,74427,1,0,0:0:0:0:
329,192,74477,1,0,0:0:0:0:
36,192,74527,1,0,0:0:0:0:
402,192,74527,1,0,0:0:0:0:
109,192,74576,1,0,0:0:0:0:
182,192,74626,1,0,0:0:0:0:
256,192,74676,1,0,0:0:0:0:
475,192,74725,128,0,75023:0:0:0:0:
402,192,74725,128,0,75023:0:0:0:0:
329,192,74725,128,0,75023:0:0:0:0:
36,192,74725,128,0,75023:0:0:0:0:
329,192,75123,1,0,0:0:0:0:
182,192,75123,1,0,0:0:0:0:
402,192,75123,1,0,0:0:0:0:
109,192,75123,1,0,0:0:0:0:
329,192,75321,128,0,75421:0:0:0:0:
182,192,75321,128,0,75619:0:0:0:0:
36,192,75321,128,0,75818:0:0:0:0:
475,192,75321,128,0,76017:0:0:0:0:
329,192,75520,128,0,76215:0:0:0:0:
182,192,75719,128,0,76414:0:0:0:0:
36,192,75917,128,0,76414:0:0:0:0:
475,192,76116,128,0,76414:0:0:0:0:
329,192,76315,128,0,76414:0:0:0:0:
36,192,76513,1,0,0:0:0:0:
109,192,76513,128,0,76811:0:0:0:0:
402,192,76513,128,0,76613:0:0:0:0:
475,192,76513,1,0,0:0:0:0:
256,192,76712,1,0,0:0:0:0:
182,192,76811,128,0,77110:0:0:0:0:
329,192,76811,128,0,76911:0:0:0:0:
475,192,76911,1,0,0:0:0:0:
402,192,76911,1,0,0:0:0:0:
36,192,76911,1,0,0:0:0:0:
256,192,77110,128,0,77209:0:0:0:0:
402,192,77110,128,0,77209:0:0:0:0:
256,192,77308,128,0,77706:0:0:0:0:
402,192,77308,128,0,77408:0:0:0:0:
109,192,77308,1,0,0:0:0:0:
182,192,77507,1,0,0:0:0:0:
36,192,77507,1,0,0:0:0:0:
329,192,77706,1,0,0:0:0:0:
475,192,77706,1,0,0:0:0:0:
109,192,77706,1,0,0:0:0:0:
402,192,77706,1,0,0:0:0:0:
475,192,77904,128,0,78302:0:0:0:0:
329,192,77904,128,0,78004:0:0:0:0:
182,192,77904,1,0,0:0:0:0:
256,192,78103,1,0,0:0:0:0:
36,192,78103,1,0,0:0:0:0:
109,192,78103,1,0,0:0:0:0:
402,192,78302,128,0,78500:0:0:0:0:
256,192,78302,128,0,78401:0:0:0:0:
329,192,78500,128,0,78699:0:0:0:0:
182,192,78500,128,0,78600:0:0:0:0:
475,192,78500,1,0,0:0:0:0:
109,192,78500,1,0,0:0:0:0:
36,192,78600,128,0,78699:0:0:0:0:
256,192,78699,128,0,78898:0:0:0:0:
109,192,78699,128,0,78798:0:0:0:0:
182,192,78798,128,0,78898:0:0:0:0:
402,192,78898,128,0,78997:0:0:0:0:
475,192,78898,1,0,0:0:0:0:
36,192,78898,1,0,0:0:0:0:
329,192,78997,128,0,79096:0:0:0:0:
36,192,79096,128,0,79295:0:0:0:0:
256,192,79096,128,0,79196:0:0:0:0:
475,192,79196,128,0,79295:0:0:0:0:
109,192,79295,128,0,79494:0:0:0:0:
402,192,79295,128,0,79394:0:0:0:0:
182,192,79295,1,0,0:0:0:0:
329,192,79394,128,0,79494:0:0:0:0:
182,192,79494,128,0,79692:0:0:0:0:
256,192,79494,128,0,79593:0:0:0:0:
475,192,79593,128,0,79692:0:0:0:0:
36,192,79692,1,0,0:0:0:0:
109,192,79692,1,0,0:0:0:0:
329,192,79692,1,0,0:0:0:0:
402,192,79692,128,0,79990:0:0:0:0:
182,192,79891,1,0,0:0:0:0:
256,192,79990,128,0,80388:0:0:0:0:
109,192,79990,128,0,80090:0:0:0:0:
329,192,80090,1,0,0:0:0:0:
475,192,80090,1,0,0:0:0:0:
36,192,80090,1,0,0:0:0:0:
182,192,80288,128,0,80388:0:0:0:0:
36,192,80288,128,0,80388:0:0:0:0:
182,192,80487,128,0,80785:0:0:0:0:
329,192,80487,128,0,80586:0:0:0:0:
475,192,80487,1,0,0:0:0:0:
402,192,80586,1,0,0:0:0:0:
256,192,80686,1,0,0:0:0:0:
109,192,80785,128,0,81083:0:0:0:0:
402,192,80785,128,0,80884:0:0:0:0:
329,192,80884,1,0,0:0:0:0:
182,192,80884,1,0,0:0:0:0:
475,192,80884,1,0,0:0:0:0:
36,192,81083,128,0,81282:0:0:0:0:
475,192,81083,128,0,81182:0:0:0:0:
182,192,81182,1,0,0:0:0:0:
329,192,81282,128,0,81679:0:0:0:0:
256,192,81282,128,0,81381:0:0:0:0:
402,192,81282,1,0,0:0:0:0:
475,192,81282,1,0,0:0:0:0:
182,192,81480,1,0,0:0:0:0:
109,192,81679,1,0,0:0:0:0:
36,192,81679,1,0,0:0:0:0:
475,192,81679,1,0,0:0:0:0:
402,192,81679,1,0,0:0:0:0:
256,192,81878,128,0,82275:0:0:0:0:
182,192,81878,128,0,81977:0:0:0:0:
329,192,81878,1,0,0:0:0:0:
36,192,81878,1,0,0:0:0:0:
402,192,82076,1,0,0:0:0:0:
475,192,82076,1,0,0:0:0:0:
109,192,82076,1,0,0:0:0:0:
402,192,82275,1,0,0:0:0:0:
475,192,82275,1,0,0:0:0:0:
182,192,82474,1,0,0:0:0:0:
256,192,82474,1,0,0:0:0:0:
329,192,82474,1,0,0:0:0:0:
475,192,82474,1,0,0:0:0:0:
36,192,82672,1,0,0:0:0:0:
109,192,82672,1,0,0:0:0:0:
402,192,82672,128,0,82871:0:0:0:0:
36,192,82871,1,0,0:0:0:0:
109,192,82871,1,0,0:0:0:0:
329,192,82871,1,0,0:0:0:0:
475,192,82871,1,0,0:0:0:0:
256,192,82970,1,0,0:0:0:0:
182,192,83070,1,0,0:0:0:0:
36,192,83070,1,0,0:0:0:0:
329,192,83169,1,0,0:0:0:0:
475,192,83169,1,0,0:0:0:0:
109,192,83268,1,0,0:0:0:0:
182,192,83268,1,0,0:0:0:0:
256,192,83268,1,0,0:0:0:0:
402,192,83368,1,0,0:0:0:0:
329,192,83467,1,0,0:0:0:0:
36,192,83467,1,0,0:0:0:0:
109,192,83467,1,0,0:0:0:0:
256,192,83566,1,0,0:0:0:0:
475,192,83566,1,0,0:0:0:0:
182,192,83666,1,0,0:0:0:0:
109,192,83765,1,0,0:0:0:0:
36,192,83864,1,0,0:0:0:0:
256,192,83864,1,0,0:0:0:0:
475,192,83864,1,0,0:0:0:0:
329,192,83964,1,0,0:0:0:0:
402,192,84063,1,0,0:0:0:0:
182,192,84063,1,0,0:0:0:0:
109,192,84063,1,0,0:0:0:0:
256,192,84162,1,0,0:0:0:0:
329,192,84262,1,0,0:0:0:0:
475,192,84262,1,0,0:0:0:0:
36,192,84262,1,0,0:0:0:0:
182,192,84361,1,0,0:0:0:0:
329,192,84461,1,0,0:0:0:0:
475,192,84461,1,0,0:0:0:0:
109,192,84461,1,0,0:0:0:0:
256,192,84560,1,0,0:0:0:0:
182,192,84659,1,0,0:0:0:0:
36,192,84659,1,0,0:0:0:0:
329,192,84759,1,0,0:0:0:0:
475,192,84759,1,0,0:0:0:0:
256,192,84858,1,0,0:0:0:0:
109,192,84858,1,0,0:0:0:0:
402,192,84858,1,0,0:0:0:0:
182,192,84957,1,0,0:0:0:0:
36,192,85057,1,0,0:0:0:0:
475,192,85057,1,0,0:0:0:0:
256,192,85057,1,0,0:0:0:0:
109,192,85156,1,0,0:0:0:0:
402,192,85156,1,0,0:0:0:0:
329,192,85255,1,0,0:0:0:0:
256,192,85355,1,0,0:0:0:0:
182,192,85454,1,0,0:0:0:0:
36,192,85454,1,0,0:0:0:0:
475,192,85454,1,0,0:0:0:0:
402,192,85553,1,0,0:0:0:0:
256,192,85653,1,0,0:0:0:0:
109,192,85653,1,0,0:0:0:0:
36,192,85653,1,0,0:0:0:0:
329,192,85752,1,0,0:0:0:0:
402,192,85851,1,0,0:0:0:0:
182,192,85851,1,0,0:0:0:0:
475,192,85851,1,0,0:0:0:0:
256,192,85951,1,0,0:0:0:0:
329,192,86050,1,0,0:0:0:0:
36,192,86050,1,0,0:0:0:0:
475,192,86050,1,0,0:0:0:0:
109,192,86050,1,0,0:0:0:0:
182,192,86149,1,0,0:0:0:0:
402,192,86149,1,0,0:0:0:0:
329,192,86249,1,0,0:0:0:0:
109,192,86249,1,0,0:0:0:0:
475,192,86348,1,0,0:0:0:0:
36,192,86348,1,0,0:0:0:0:
256,192,86348,1,0,0:0:0:0:
182,192,86447,1,0,0:0:0:0:
402,192,86447,1,0,0:0:0:0:
109,192,86547,1,0,0:0:0:0:
329,192,86547,1,0,0:0:0:0:
475,192,86646,1,0,0:0:0:0:
256,192,86646,1,0,0:0:0:0:
36,192,86646,1,0,0:0:0:0:
182,192,86745,1,0,0:0:0:0:
36,192,86845,1,0,0:0:0:0:
109,192,86845,1,0,0:0:0:0:
402,192,86845,1,0,0:0:0:0:
475,192,86845,1,0,0:0:0:0:
329,192,86944,1,0,0:0:0:0:
256,192,86944,1,0,0:0:0:0:
182,192,87043,1,0,0:0:0:0:
109,192,87043,1,0,0:0:0:0:
36,192,87143,1,0,0:0:0:0:
475,192,87143,1,0,0:0:0:0:
402,192,87143,1,0,0:0:0:0:
256,192,87242,1,0,0:0:0:0:
329,192,87242,1,0,0:0:0:0:
109,192,87341,1,0,0:0:0:0:
182,192,87341,1,0,0:0:0:0:
402,192,87441,1,0,0:0:0:0:
475,192,87441,1,0,0:0:0:0:
36,192,87441,1,0,0:0:0:0:
329,192,87540,1,0,0:0:0:0:
256,192,87639,1,0,0:0:0:0:
109,192,87639,1,0,0:0:0:0:
182,192,87639,1,0,0:0:0:0:
475,192,87639,1,0,0:0:0:0:
402,192,87739,1,0,0:0:0:0:
329,192,87739,1,0,0:0:0:0:
36,192,87838,1,0,0:0:0:0:
182,192,87838,1,0,0:0:0:0:
402,192,87937,1,0,0:0:0:0:
475,192,87937,1,0,0:0:0:0:
109,192,88037,1,0,0:0:0:0:
182,192,88037,1,0,0:0:0:0:
256,192,88136,1,0,0:0:0:0:
329,192,88136,1,0,0:0:0:0:
36,192,88235,1,0,0:0:0:0:
475,192,88235,1,0,0:0:0:0:
402,192,88235,1,0,0:0:0:0:
109,192,88235,1,0,0:0:0:0:
256,192,88335,1,0,0:0:0:0:
475,192,88434,5,0,0:0:0:0:
36,192,88434,1,0,0:0:0:0:
402,192,88484,1,0,0:0:0:0:
329,192,88533,1,0,0:0:0:0:
256,192,88583,1,0,0:0:0:0:
36,192,88633,1,0,0:0:0:0:
109,192,88633,1,0,0:0:0:0:
182,192,88682,1,0,0:0:0:0:
256,192,88732,1,0,0:0:0:0:
329,192,88782,1,0,0:0:0:0:
475,192,88831,1,0,0:0:0:0:
402,192,88831,1,0,0:0:0:0:
109,192,88881,1,0,0:0:0:0:
182,192,88931,1,0,0:0:0:0:
256,192,88980,1,0,0:0:0:0:
329,192,89030,1,0,0:0:0:0:
475,192,89030,1,0,0:0:0:0:
36,192,89080,1,0,0:0:0:0:
109,192,89129,1,0,0:0:0:0:
182,192,89179,1,0,0:0:0:0:
329,192,89229,1,0,0:0:0:0:
256,192,89229,1,0,0:0:0:0:
475,192,89229,1,0,0:0:0:0:
402,192,89229,128,0,89626:0:0:0:0:
182,192,89427,1,0,0:0:0:0:
329,192,89527,128,0,89626:0:0:0:0:
36,192,89626,1,0,0:0:0:0:
109,192,89626,1,0,0:0:0:0:
256,192,89626,1,0,0:0:0:0:
475,192,89626,1,0,0:0:0:0:
182,192,89825,128,0,90222:0:0:0:0:
109,192,89825,128,0,89924:0:0:0:0:
329,192,90023,128,0,90222:0:0:0:0:
402,192,90023,128,0,90123:0:0:0:0:
475,192,90023,1,0,0:0:0:0:
36,192,90222,1,0,0:0:0:0:
109,192,90421,1,0,0:0:0:0:
329,192,90421,1,0,0:0:0:0:
475,192,90421,1,0,0:0:0:0:
402,192,90421,1,0,0:0:0:0:
256,192,90619,128,0,91017:0:0:0:0:
329,192,90619,128,0,90719:0:0:0:0:
182,192,90818,128,0,91017:0:0:0:0:
109,192,90818,1,0,0:0:0:0:
475,192,90818,1,0,0:0:0:0:
329,192,91017,128,0,91215:0:0:0:0:
36,192,91017,128,0,91116:0:0:0:0:
109,192,91116,128,0,91215:0:0:0:0:
402,192,91215,128,0,91414:0:0:0:0:
256,192,91215,128,0,91315:0:0:0:0:
475,192,91215,1,0,0:0:0:0:
182,192,91315,128,0,91414:0:0:0:0:
475,192,91414,128,0,91613:0:0:0:0:
109,192,91414,128,0,91513:0:0:0:0:
36,192,91513,128,0,91613:0:0:0:0:
256,192,91613,128,0,91712:0:0:0:0:
329,192,91613,1,0,0:0:0:0:
402,192,91613,1,0,0:0:0:0:
109,192,91712,128,0,91811:0:0:0:0:
329,192,91811,128,0,92010:0:0:0:0:
182,192,91811,128,0,91911:0:0:0:0:
36,192,91911,128,0,92010:0:0:0:0:
256,192,92010,128,0,92209:0:0:0:0:
475,192,92010,128,0,92110:0:0:0:0:
109,192,92010,1,0,0:0:0:0:
402,192,92110,128,0,92209:0:0:0:0:
182,192,92209,128,0,92408:0:0:0:0:
329,192,92209,128,0,92308:0:0:0:0:
475,192,92308,128,0,92408:0:0:0:0:
402,192,92408,1,0,0:0:0:0:
109,192,92408,128,0,92507:0:0:0:0:
36,192,92408,128,0,92706:0:0:0:0:
256,192,92408,1,0,0:0:0:0:
182,192,92606,1,0,0:0:0:0:
329,192,92706,128,0,93004:0:0:0:0:
402,192,92706,128,0,92805:0:0:0:0:
36,192,92805,1,0,0:0:0:0:
475,192,92805,1,0,0:0:0:0:
109,192,92805,1,0,0:0:0:0:
182,192,93004,128,0,93202:0:0:0:0:
109,192,93004,128,0,93103:0:0:0:0:
256,192,93202,128,0,93500:0:0:0:0:
402,192,93202,128,0,93302:0:0:0:0:
475,192,93202,1,0,0:0:0:0:
36,192,93302,1,0,0:0:0:0:
109,192,93401,1,0,0:0:0:0:
475,192,93500,128,0,93600:0:0:0:0:
329,192,93500,128,0,93798:0:0:0:0:
182,192,93600,1,0,0:0:0:0:
109,192,93600,1,0,0:0:0:0:
36,192,93600,1,0,0:0:0:0:
402,192,93798,128,0,93997:0:0:0:0:
36,192,93798,128,0,93898:0:0:0:0:
475,192,93997,128,0,94196:0:0:0:0:
109,192,93997,128,0,94096:0:0:0:0:
256,192,93997,1,0,0:0:0:0:
182,192,93997,1,0,0:0:0:0:
182,192,94196,128,0,94295:0:0:0:0:
329,192,94196,128,0,94394:0:0:0:0:
256,192,94394,128,0,94494:0:0:0:0:
402,192,94394,128,0,94593:0:0:0:0:
36,192,94394,1,0,0:0:0:0:
329,192,94593,128,0,94692:0:0:0:0:
475,192,94593,128,0,94792:0:0:0:0:
109,192,94593,1,0,0:0:0:0:
36,192,94792,1,0,0:0:0:0:
182,192,94792,1,0,0:0:0:0:
402,192,94792,1,0,0:0:0:0:
256,192,94891,1,0,0:0:0:0:
329,192,94990,1,0,0:0:0:0:
256,192,95189,128,0,95388:0:0:0:0:
182,192,95189,1,0,0:0:0:0:
109,192,95189,1,0,0:0:0:0:
36,192,95388,1,0,0:0:0:0:
475,192,95388,1,0,0:0:0:0:
329,192,95388,1,0,0:0:0:0:
109,192,95487,1,0,0:0:0:0:
182,192,95487,1,0,0:0:0:0:
256,192,95586,1,0,0:0:0:0:
402,192,95586,1,0,0:0:0:0:
475,192,95586,1,0,0:0:0:0:
329,192,95586,1,0,0:0:0:0:
182,192,95686,1,0,0:0:0:0:
109,192,95785,1,0,0:0:0:0:
36,192,95884,1,0,0:0:0:0:
475,192,95884,1,0,0:0:0:0:
256,192,95984,1,0,0:0:0:0:
329,192,95984,1,0,0:0:0:0:
402,192,95984,1,0,0:0:0:0:
36,192,96182,1,0,0:0:0:0:
109,192,96182,1,0,0:0:0:0:
182,192,96182,1,0,0:0:0:0:
475,192,96182,1,0,0:0:0:0:
256,192,96381,1,0,0:0:0:0:
182,192,96381,1,0,0:0:0:0:
329,192,96480,1,0,0:0:0:0:
402,192,96580,1,0,0:0:0:0:
36,192,96580,1,0,0:0:0:0:
109,192,96580,1,0,0:0:0:0:
182,192,96778,1,0,0:0:0:0:
256,192,96778,1,0,0:0:0:0:
475,192,96778,1,0,0:0:0:0:
402,192,96778,1,0,0:0:0:0:
329,192,96977,1,0,0:0:0:0:
36,192,96977,1,0,0:0:0:0:
109,192,96977,1,0,0:0:0:0:
256,192,97076,1,0,0:0:0:0:
182,192,97176,1,0,0:0:0:0:
475,192,97176,1,0,0:0:0:0:
402,192,97176,1,0,0:0:0:0:
36,192,97176,1,0,0:0:0:0:
256,192,97374,1,0,0:0:0:0:
36,192,97374,1,0,0:0:0:0:
329,192,97474,1,0,0:0:0:0:
402,192,97573,1,0,0:0:0:0:
182,192,97573,1,0,0:0:0:0:
475,192,97573,1,0,0:0:0:0:
36,192,97772,1,0,0:0:0:0:
109,192,97772,1,0,0:0:0:0:
256,192,97772,1,0,0:0:0:0:
329,192,97772,1,0,0:0:0:0:
402,192,97970,1,0,0:0:0:0:
329,192,98070,1,0,0:0:0:0:
36,192,98169,1,0,0:0:0:0:
475,192,98169,1,0,0:0:0:0:
182,192,98169,1,0,0:0:0:0:
256,192,98368,1,0,0:0:0:0:
402,192,98368,1,0,0:0:0:0:
36,192,98368,1,0,0:0:0:0:
402,192,98566,1,0,0:0:0:0:
182,192,98566,1,0,0:0:0:0:
475,192,98566,1,0,0:0:0:0:
36,192,98765,1,0,0:0:0:0:
109,192,98765,1,0,0:0:0:0:
475,192,98765,1,0,0:0:0:0:
256,192,98765,1,0,0:0:0:0:
36,192,98964,1,0,0:0:0:0:
109,192,98964,1,0,0:0:0:0:
402,192,98964,1,0,0:0:0:0:
329,192,99162,1,0,0:0:0:0:
36,192,99162,1,0,0:0:0:0:
109,192,99162,1,0,0:0:0:0:
256,192,99361,1,0,0:0:0:0:
475,192,99361,1,0,0:0:0:0:
402,192,99361,1,0,0:0:0:0:
402,192,99560,1,0,0:0:0:0:
475,192,99560,1,0,0:0:0:0:
329,192,99560,1,0,0:0:0:0:
182,192,99610,1,0,0:0:0:0:
109,192,99659,1,0,0:0:0:0:
36,192,99709,1,0,0:0:0:0:
475,192,99759,1,0,0:0:0:0:
256,192,99759,1,0,0:0:0:0:
329,192,99759,1,0,0:0:0:0:
182,192,99858,1,0,0:0:0:0:
109,192,99858,1,0,0:0:0:0:
475,192,99957,1,0,0:0:0:0:
329,192,99957,1,0,0:0:0:0:
36,192,99957,1,0,0:0:0:0:
256,192,100007,1,0,0:0:0:0:
182,192,100057,1,0,0:0:0:0:
109,192,100106,1,0,0:0:0:0:
402,192,100156,1,0,0:0:0:0:
329,192,100206,1,0,0:0:0:0:
256,192,100255,1,0,0:0:0:0:
182,192,100305,1,0,0:0:0:0:
109,192,100355,1,0,0:0:0:0:
36,192,100355,1,0,0:0:0:0:
402,192,100355,1,0,0:0:0:0:
475,192,100355,1,0,0:0:0:0:
36,192,100553,128,0,100951:0:0:0:0:
109,192,100553,128,0,100951:0:0:0:0:
402,192,100553,128,0,100951:0:0:0:0:
475,192,100553,128,0,100951:0:0:0:0:
256,192,100951,128,0,101050:0:0:0:0:
182,192,100951,1,0,0:0:0:0:
256,192,101149,128,0,101547:0:0:0:0:
182,192,101149,1,0,0:0:0:0:
329,192,101547,128,0,101944:0:0:0:0:
36,192,101547,1,0,0:0:0:0:
402,192,101745,128,0,101944:0:0:0:0:
475,192,101944,128,0,102143:0:0:0:0:
256,192,101944,1,0,0:0:0:0:
36,192,101944,1,0,0:0:0:0:
109,192,101944,1,0,0:0:0:0:
182,192,102143,128,0,102341:0:0:0:0:
36,192,102341,128,0,103931:0:0:0:0:
329,192,102341,1,0,0:0:0:0:
256,192,102540,1,0,0:0:0:0:
109,192,102540,1,0,0:0:0:0:
475,192,102540,1,0,0:0:0:0:
182,192,102739,1,0,0:0:0:0:
256,192,102739,1,0,0:0:0:0:
402,192,102739,1,0,0:0:0:0:
329,192,102937,1,0,0:0:0:0:
109,192,103136,1,0,0:0:0:0:
182,192,103136,1,0,0:0:0:0:
256,192,103335,1,0,0:0:0:0:
329,192,103533,1,0,0:0:0:0:
475,192,103533,1,0,0:0:0:0:
402,192,103732,1,0,0:0:0:0:
109,192,103931,1,0,0:0:0:0:
182,192,103931,1,0,0:0:0:0:
402,192,103931,1,0,0:0:0:0:
182,192,104129,128,0,104229:0:0:0:0:
329,192,104129,1,0,0:0:0:0:
402,192,104229,1,0,0:0:0:0:
182,192,104328,128,0,104626:0:0:0:0:
475,192,104328,1,0,0:0:0:0:
36,192,104328,1,0,0:0:0:0:
402,192,104527,1,0,0:0:0:0:
256,192,104626,128,0,104924:0:0:0:0:
36,192,104725,1,0,0:0:0:0:
109,192,104725,1,0,0:0:0:0:
329,192,104924,128,0,105123:0:0:0:0:
182,192,104924,1,0,0:0:0:0:
475,192,104924,1,0,0:0:0:0:
402,192,105123,128,0,105321:0:0:0:0:
36,192,105123,1,0,0:0:0:0:
109,192,105123,1,0,0:0:0:0:
256,192,105123,1,0,0:0:0:0:
182,192,105321,1,0,0:0:0:0:
256,192,105421,1,0,0:0:0:0:
109,192,105520,128,0,105818:0:0:0:0:
329,192,105520,1,0,0:0:0:0:
475,192,105520,1,0,0:0:0:0:
329,192,105719,128,0,105818:0:0:0:0:
402,192,105719,1,0,0:0:0:0:
475,192,105719,1,0,0:0:0:0:
256,192,105917,1,0,0:0:0:0:
182,192,106017,1,0,0:0:0:0:
36,192,106017,1,0,0:0:0:0:
329,192,106116,1,0,0:0:0:0:
475,192,106116,1,0,0:0:0:0:
402,192,106116,128,0,106215:0:0:0:0:
256,192,106215,1,0,0:0:0:0:
182,192,106315,1,0,0:0:0:0:
109,192,106315,1,0,0:0:0:0:
36,192,106315,1,0,0:0:0:0:
329,192,106414,1,0,0:0:0:0:
402,192,106513,1,0,0:0:0:0:
475,192,106513,1,0,0:0:0:0:
182,192,106513,128,0,106613:0:0:0:0:
256,192,106613,1,0,0:0:0:0:
109,192,106712,1,0,0:0:0:0:
402,192,106712,128,0,106911:0:0:0:0:
475,192,106712,1,0,0:0:0:0:
36,192,106712,1,0,0:0:0:0:
256,192,106911,128,0,107110:0:0:0:0:
475,192,107010,1,0,0:0:0:0:
402,192,107110,1,0,0:0:0:0:
182,192,107110,1,0,0:0:0:0:
109,192,107110,128,0,107308:0:0:0:0:
329,192,107209,1,0,0:0:0:0:
256,192,107308,1,0,0:0:0:0:
475,192,107308,128,0,107706:0:0:0:0:
182,192,107408,1,0,0:0:0:0:
109,192,107507,1,0,0:0:0:0:
36,192,107507,1,0,0:0:0:0:
329,192,107507,1,0,0:0:0:0:
402,192,107606,1,0,0:0:0:0:
256,192,107706,1,0,0:0:0:0:
36,192,107706,128,0,108103:0:0:0:0:
109,192,107904,1,0,0:0:0:0:
402,192,107904,1,0,0:0:0:0:
329,192,107904,1,0,0:0:0:0:
182,192,108103,1,0,0:0:0:0:
475,192,108103,1,0,0:0:0:0:
402,192,108103,128,0,108500:0:0:0:0:
329,192,108202,1,0,0:0:0:0:
109,192,108302,1,0,0:0:0:0:
36,192,108302,1,0,0:0:0:0:
256,192,108302,1,0,0:0:0:0:
182,192,108401,1,0,0:0:0:0:
329,192,108500,1,0,0:0:0:0:
109,192,108500,128,0,108699:0:0:0:0:
475,192,108600,1,0,0:0:0:0:
36,192,108699,1,0,0:0:0:0:
402,192,108699,1,0,0:0:0:0:
182,192,108699,128,0,108898:0:0:0:0:
329,192,108798,1,0,0:0:0:0:
109,192,108898,1,0,0:0:0:0:
256,192,108898,128,0,109891:0:0:0:0:
475,192,108997,1,0,0:0:0:0:
182,192,109096,1,0,0:0:0:0:
36,192,109096,1,0,0:0:0:0:
329,192,109096,1,0,0:0:0:0:
109,192,109196,1,0,0:0:0:0:
402,192,109295,128,0,109394:0:0:0:0:
475,192,109394,128,0,109494:0:0:0:0:
36,192,109494,128,0,109593:0:0:0:0:
109,192,109494,128,0,109593:0:0:0:0:
329,192,109494,128,0,109593:0:0:0:0:
402,192,109593,128,0,109692:0:0:0:0:
109,192,109692,128,0,109792:0:0:0:0:
36,192,109692,128,0,109792:0:0:0:0:
475,192,109692,128,0,109792:0:0:0:0:
182,192,109792,128,0,109891:0:0:0:0:
329,192,109891,128,0,110090:0:0:0:0:
36,192,109891,1,0,0:0:0:0:
402,192,109891,1,0,0:0:0:0:
475,192,109891,1,0,0:0:0:0:
109,192,109990,1,0,0:0:0:0:
256,192,110090,1,0,0:0:0:0:
182,192,110090,128,0,110288:0:0:0:0:
329,192,110189,1,0,0:0:0:0:
36,192,110288,1,0,0:0:0:0:
475,192,110288,1,0,0:0:0:0:
402,192,110288,128,0,110487:0:0:0:0:
182,192,110388,1,0,0:0:0:0:
256,192,110487,1,0,0:0:0:0:
109,192,110487,128,0,110686:0:0:0:0:
329,192,110586,1,0,0:0:0:0:
36,192,110686,1,0,0:0:0:0:
475,192,110686,1,0,0:0:0:0:
402,192,110686,1,0,0:0:0:0:
182,192,110785,1,0,0:0:0:0:
402,192,110884,1,0,0:0:0:0:
256,192,110884,128,0,111083:0:0:0:0:
109,192,110984,1,0,0:0:0:0:
36,192,111083,1,0,0:0:0:0:
475,192,111083,1,0,0:0:0:0:
329,192,111083,128,0,111282:0:0:0:0:
182,192,111182,1,0,0:0:0:0:
109,192,111282,1,0,0:0:0:0:
402,192,111282,128,0,111480:0:0:0:0:
256,192,111381,1,0,0:0:0:0:
36,192,111480,1,0,0:0:0:0:
109,192,111480,1,0,0:0:0:0:
475,192,111480,128,0,112076:0:0:0:0:
182,192,111480,1,0,0:0:0:0:
329,192,111580,1,0,0:0:0:0:
256,192,111679,1,0,0:0:0:0:
182,192,111778,1,0,0:0:0:0:
329,192,111878,1,0,0:0:0:0:
36,192,111878,1,0,0:0:0:0:
109,192,111878,1,0,0:0:0:0:
256,192,111977,1,0,0:0:0:0:
182,192,112076,128,0,112176:0:0:0:0:
402,192,112076,128,0,112176:0:0:0:0:
109,192,112176,128,0,112275:0:0:0:0:
329,192,112176,128,0,112275:0:0:0:0:
36,192,112275,128,0,112573:0:0:0:0:
182,192,112275,128,0,112573:0:0:0:0:
475,192,112275,128,0,112573:0:0:0:0:
256,192,112275,128,0,112573:0:0:0:0:
36,192,112672,128,0,112871:0:0:0:0:
182,192,112672,128,0,112871:0:0:0:0:
256,192,112672,128,0,112871:0:0:0:0:
475,192,112672,128,0,112871:0:0:0:0:
109,192,112871,1,0,0:0:0:0:
329,192,112871,1,0,0:0:0:0:
402,192,112970,1,0,0:0:0:0:
256,192,113070,1,0,0:0:0:0:
36,192,113070,1,0,0:0:0:0:
109,192,113070,128,0,113268:0:0:0:0:
475,192,113070,1,0,0:0:0:0:
329,192,113169,1,0,0:0:0:0:
475,192,113268,1,0,0:0:0:0:
182,192,113268,128,0,113467:0:0:0:0:
402,192,113368,1,0,0:0:0:0:
36,192,113467,1,0,0:0:0:0:
329,192,113467,1,0,0:0:0:0:
256,192,113467,128,0,113666:0:0:0:0:
109,192,113566,1,0,0:0:0:0:
475,192,113666,1,0,0:0:0:0:
329,192,113666,128,0,114063:0:0:0:0:
182,192,113765,1,0,0:0:0:0:
109,192,113864,1,0,0:0:0:0:
36,192,113864,1,0,0:0:0:0:
182,192,113964,1,0,0:0:0:0:
402,192,114063,1,0,0:0:0:0:
475,192,114063,128,0,114461:0:0:0:0:
256,192,114162,1,0,0:0:0:0:
36,192,114262,1,0,0:0:0:0:
109,192,114262,1,0,0:0:0:0:
182,192,114262,1,0,0:0:0:0:
329,192,114361,1,0,0:0:0:0:
256,192,114461,1,0,0:0:0:0:
36,192,114461,128,0,114858:0:0:0:0:
182,192,114560,1,0,0:0:0:0:
329,192,114659,1,0,0:0:0:0:
475,192,114659,1,0,0:0:0:0:
109,192,114659,1,0,0:0:0:0:
256,192,114759,1,0,0:0:0:0:
182,192,114858,1,0,0:0:0:0:
402,192,114858,128,0,115057:0:0:0:0:
109,192,114957,1,0,0:0:0:0:
256,192,115057,1,0,0:0:0:0:
475,192,115057,1,0,0:0:0:0:
329,192,115057,128,0,115255:0:0:0:0:
36,192,115156,1,0,0:0:0:0:
109,192,115255,1,0,0:0:0:0:
182,192,115255,128,0,116249:0:0:0:0:
475,192,115355,1,0,0:0:0:0:
402,192,115355,1,0,0:0:0:0:
329,192,115454,1,0,0:0:0:0:
256,192,115454,1,0,0:0:0:0:
402,192,115553,1,0,0:0:0:0:
256,192,115653,128,0,115752:0:0:0:0:
329,192,115752,128,0,115851:0:0:0:0:
36,192,115851,128,0,115951:0:0:0:0:
475,192,115851,128,0,115951:0:0:0:0:
402,192,115851,128,0,115951:0:0:0:0:
256,192,115951,128,0,116050:0:0:0:0:
329,192,116050,128,0,116149:0:0:0:0:
402,192,116149,128,0,116249:0:0:0:0:
256,192,116249,128,0,116646:0:0:0:0:
109,192,116249,1,0,0:0:0:0:
475,192,116249,128,0,116447:0:0:0:0:
36,192,116249,128,0,116447:0:0:0:0:
329,192,116447,128,0,116646:0:0:0:0:
182,192,116447,128,0,116646:0:0:0:0:
36,192,116845,128,0,117242:0:0:0:0:
402,192,116845,1,0,0:0:0:0:
256,192,116845,128,0,117043:0:0:0:0:
475,192,116845,128,0,117242:0:0:0:0:
182,192,117043,128,0,117242:0:0:0:0:
329,192,117043,128,0,117242:0:0:0:0:
475,192,117441,1,0,0:0:0:0:
36,192,117441,1,0,0:0:0:0:
109,192,117441,128,0,117838:0:0:0:0:
402,192,117441,128,0,117838:0:0:0:0:
182,192,117639,128,0,118235:0:0:0:0:
329,192,117639,128,0,118235:0:0:0:0:
256,192,117639,128,0,119030:0:0:0:0:
475,192,118235,1,0,0:0:0:0:
36,192,118434,1,0,0:0:0:0:
109,192,118633,1,0,0:0:0:0:
475,192,118831,1,0,0:0:0:0:
402,192,118931,1,0,0:0:0:0:
329,192,119030,1,0,0:0:0:0:
36,192,119030,1,0,0:0:0:0:
182,192,119030,1,0,0:0:0:0:
109,192,119229,1,0,0:0:0:0:
182,192,119278,1,0,0:0:0:0:
256,192,119328,1,0,0:0:0:0:
329,192,119378,1,0,0:0:0:0:
475,192,119427,1,0,0:0:0:0:
402,192,119427,1,0,0:0:0:0:
36,192,119427,1,0,0:0:0:0:
109,192,119427,128,0,119626:0:0:0:0:
256,192,119626,128,0,119725:0:0:0:0:
256,192,119825,128,0,120023:0:0:0:0:
182,192,119825,1,0,0:0:0:0:
36,192,119825,1,0,0:0:0:0:
109,192,120023,1,0,0:0:0:0:
475,192,120023,1,0,0:0:0:0:
329,192,120023,128,0,120123:0:0:0:0:
402,192,120123,128,0,121017:0:0:0:0:
256,192,120222,1,0,0:0:0:0:
182,192,120421,128,0,120520:0:0:0:0:
36,192,120421,1,0,0:0:0:0:
182,192,120619,128,0,120719:0:0:0:0:
109,192,120619,1,0,0:0:0:0:
182,192,120818,128,0,121017:0:0:0:0:
329,192,120818,1,0,0:0:0:0:
36,192,120917,1,0,0:0:0:0:
256,192,121017,1,0,0:0:0:0:
475,192,121017,1,0,0:0:0:0:
109,192,121017,1,0,0:0:0:0:
36,192,121215,128,0,121414:0:0:0:0:
329,192,121215,1,0,0:0:0:0:
109,192,121414,128,0,121613:0:0:0:0:
402,192,121414,1,0,0:0:0:0:
475,192,121414,1,0,0:0:0:0:
475,192,121613,1,0,0:0:0:0:
182,192,121613,128,0,121712:0:0:0:0:
402,192,121613,1,0,0:0:0:0:
256,192,121712,128,0,121811:0:0:0:0:
36,192,121712,1,0,0:0:0:0:
329,192,121811,128,0,122010:0:0:0:0:
109,192,121811,1,0,0:0:0:0:
475,192,122010,128,0,122209:0:0:0:0:
109,192,122010,1,0,0:0:0:0:
402,192,122209,128,0,122408:0:0:0:0:
256,192,122209,1,0,0:0:0:0:
182,192,122209,1,0,0:0:0:0:
329,192,122408,128,0,122805:0:0:0:0:
109,192,122408,1,0,0:0:0:0:
36,192,122408,1,0,0:0:0:0:
256,192,122606,1,0,0:0:0:0:
36,192,122606,1,0,0:0:0:0:
182,192,122606,1,0,0:0:0:0:
182,192,122805,128,0,123004:0:0:0:0:
475,192,122805,1,0,0:0:0:0:
256,192,123004,128,0,123202:0:0:0:0:
402,192,123004,1,0,0:0:0:0:
36,192,123004,1,0,0:0:0:0:
109,192,123202,128,0,124196:0:0:0:0:
329,192,123202,1,0,0:0:0:0:
182,192,123202,1,0,0:0:0:0:
402,192,123302,1,0,0:0:0:0:
475,192,123302,1,0,0:0:0:0:
256,192,123401,1,0,0:0:0:0:
329,192,123600,128,0,123699:0:0:0:0:
182,192,123600,1,0,0:0:0:0:
329,192,123798,128,0,123898:0:0:0:0:
256,192,123798,1,0,0:0:0:0:
475,192,123798,1,0,0:0:0:0:
329,192,123997,128,0,124792:0:0:0:0:
402,192,123997,1,0,0:0:0:0:
182,192,124096,1,0,0:0:0:0:
36,192,124196,1,0,0:0:0:0:
475,192,124196,1,0,0:0:0:0:
256,192,124196,1,0,0:0:0:0:
182,192,124394,1,0,0:0:0:0:
109,192,124494,1,0,0:0:0:0:
36,192,124593,1,0,0:0:0:0:
256,192,124593,1,0,0:0:0:0:
475,192,124593,1,0,0:0:0:0:
182,192,124792,128,0,124891:0:0:0:0:
402,192,124792,1,0,0:0:0:0:
475,192,124792,1,0,0:0:0:0:
109,192,124891,128,0,124990:0:0:0:0:
329,192,124891,1,0,0:0:0:0:
36,192,124990,128,0,125785:0:0:0:0:
256,192,124990,1,0,0:0:0:0:
182,192,124990,1,0,0:0:0:0:
402,192,125189,1,0,0:0:0:0:
475,192,125388,1,0,0:0:0:0:
402,192,125388,1,0,0:0:0:0:
256,192,125388,1,0,0:0:0:0:
329,192,125586,1,0,0:0:0:0:
182,192,125785,1,0,0:0:0:0:
475,192,125785,1,0,0:0:0:0:
109,192,125785,1,0,0:0:0:0:
329,192,125785,1,0,0:0:0:0:
402,192,125984,128,0,126083:0:0:0:0:
256,192,125984,1,0,0:0:0:0:
402,192,126182,128,0,126282:0:0:0:0:
329,192,126182,1,0,0:0:0:0:
475,192,126182,1,0,0:0:0:0:
182,192,126381,1,0,0:0:0:0:
109,192,126381,1,0,0:0:0:0:
402,192,126381,128,0,126480:0:0:0:0:
329,192,126480,128,0,126778:0:0:0:0:
256,192,126480,1,0,0:0:0:0:
36,192,126580,1,0,0:0:0:0:
475,192,126778,1,0,0:0:0:0:
182,192,126778,128,0,126878:0:0:0:0:
329,192,126977,1,0,0:0:0:0:
36,192,126977,1,0,0:0:0:0:
182,192,126977,128,0,127076:0:0:0:0:
182,192,127176,128,0,127573:0:0:0:0:
256,192,127176,1,0,0:0:0:0:
109,192,127176,1,0,0:0:0:0:
329,192,127275,1,0,0:0:0:0:
402,192,127374,1,0,0:0:0:0:
36,192,127374,1,0,0:0:0:0:
475,192,127374,1,0,0:0:0:0:
475,192,127573,128,0,127672:0:0:0:0:
329,192,127573,1,0,0:0:0:0:
256,192,127772,1,0,0:0:0:0:
109,192,127772,1,0,0:0:0:0:
475,192,127772,128,0,127970:0:0:0:0:
182,192,127970,1,0,0:0:0:0:
36,192,127970,1,0,0:0:0:0:
402,192,127970,128,0,128070:0:0:0:0:
329,192,128070,128,0,128169:0:0:0:0:
36,192,128169,1,0,0:0:0:0:
109,192,128169,1,0,0:0:0:0:
329,192,128368,128,0,128566:0:0:0:0:
182,192,128368,1,0,0:0:0:0:
475,192,128467,1,0,0:0:0:0:
256,192,128566,128,0,128765:0:0:0:0:
109,192,128566,1,0,0:0:0:0:
36,192,128566,1,0,0:0:0:0:
475,192,128765,1,0,0:0:0:0:
36,192,128765,1,0,0:0:0:0:
182,192,128765,1,0,0:0:0:0:
402,192,128864,1,0,0:0:0:0:
329,192,128864,1,0,0:0:0:0:
256,192,128964,1,0,0:0:0:0:
182,192,128964,1,0,0:0:0:0:
36,192,128964,1,0,0:0:0:0:
109,192,128964,1,0,0:0:0:0:
402,192,129162,128,0,129361:0:0:0:0:
475,192,129162,1,0,0:0:0:0:
329,192,129361,128,0,129560:0:0:0:0:
182,192,129361,1,0,0:0:0:0:
36,192,129361,1,0,0:0:0:0:
256,192,129560,128,0,129957:0:0:0:0:
475,192,129560,1,0,0:0:0:0:
402,192,129560,1,0,0:0:0:0:
109,192,129560,1,0,0:0:0:0:
36,192,129759,1,0,0:0:0:0:
475,192,129957,128,0,130156:0:0:0:0:
182,192,129957,1,0,0:0:0:0:
402,192,130156,128,0,130355:0:0:0:0:
109,192,130156,1,0,0:0:0:0:
36,192,130156,1,0,0:0:0:0:
329,192,130355,128,0,130553:0:0:0:0:
256,192,130355,1,0,0:0:0:0:
182,192,130355,1,0,0:0:0:0:
36,192,130355,1,0,0:0:0:0:
109,192,130553,1,0,0:0:0:0:
475,192,130752,1,0,0:0:0:0:
402,192,130752,1,0,0:0:0:0:
329,192,130802,1,0,0:0:0:0:
256,192,130851,1,0,0:0:0:0:
182,192,130901,1,0,0:0:0:0:
402,192,130951,1,0,0:0:0:0:
109,192,130951,1,0,0:0:0:0:
36,192,130951,1,0,0:0:0:0:
329,192,131149,1,0,0:0:0:0:
256,192,131249,1,0,0:0:0:0:
182,192,131249,1,0,0:0:0:0:
475,192,131348,1,0,0:0:0:0:
402,192,131348,1,0,0:0:0:0:
329,192,131348,1,0,0:0:0:0:
182,192,131447,1,0,0:0:0:0:
109,192,131447,1,0,0:0:0:0:
329,192,131547,1,0,0:0:0:0:
256,192,131547,1,0,0:0:0:0:
402,192,131547,1,0,0:0:0:0:
109,192,131646,1,0,0:0:0:0:
36,192,131646,1,0,0:0:0:0:
256,192,131745,1,0,0:0:0:0:
182,192,131745,1,0,0:0:0:0:
329,192,131745,1,0,0:0:0:0:
402,192,131845,1,0,0:0:0:0:
475,192,131944,1,0,0:0:0:0:
36,192,131944,1,0,0:0:0:0:
109,192,131944,1,0,0:0:0:0:
182,192,132043,1,0,0:0:0:0:
256,192,132043,1,0,0:0:0:0:
402,192,132143,128,0,132540:0:0:0:0:
109,192,132143,128,0,132540:0:0:0:0:
256,192,132341,1,0,0:0:0:0:
475,192,132540,1,0,0:0:0:0:
329,192,132540,1,0,0:0:0:0:
36,192,132540,1,0,0:0:0:0:
182,192,132540,1,0,0:0:0:0:
256,192,132739,1,0,0:0:0:0:
256,192,132937,1,0,0:0:0:0:
182,192,133136,1,0,0:0:0:0:
36,192,133136,1,0,0:0:0:0:
329,192,133136,1,0,0:0:0:0:
475,192,133136,1,0,0:0:0:0:
402,192,133335,1,0,0:0:0:0:
109,192,133335,1,0,0:0:0:0:
475,192,133533,128,0,133931:0:0:0:0:
329,192,133533,128,0,133931:0:0:0:0:
182,192,133533,128,0,133931:0:0:0:0:
109,192,133533,128,0,133931:0:0:0:0:
36,192,133931,128,0,134030:0:0:0:0:
256,192,134129,1,0,0:0:0:0:
402,192,134129,1,0,0:0:0:0:
109,192,134129,128,0,134229:0:0:0:0:
182,192,134328,128,0,134427:0:0:0:0:
475,192,134328,128,0,134527:0:0:0:0:
256,192,134527,128,0,134626:0:0:0:0:
402,192,134527,128,0,134725:0:0:0:0:
36,192,134527,1,0,0:0:0:0:
329,192,134725,128,0,134924:0:0:0:0:
109,192,134725,1,0,0:0:0:0:
182,192,134725,1,0,0:0:0:0:
256,192,134924,128,0,135123:0:0:0:0:
402,192,134924,1,0,0:0:0:0:
109,192,134924,1,0,0:0:0:0:
475,192,135123,1,0,0:0:0:0:
182,192,135123,128,0,135222:0:0:0:0:
329,192,135222,1,0,0:0:0:0:
182,192,135321,128,0,136315:0:0:0:0:
36,192,135321,1,0,0:0:0:0:
256,192,135520,1,0,0:0:0:0:
329,192,135619,1,0,0:0:0:0:
475,192,135719,1,0,0:0:0:0:
109,192,135719,1,0,0:0:0:0:
402,192,135719,1,0,0:0:0:0:
329,192,135917,1,0,0:0:0:0:
36,192,136116,1,0,0:0:0:0:
256,192,136315,1,0,0:0:0:0:
475,192,136315,1,0,0:0:0:0:
36,192,136315,1,0,0:0:0:0:
329,192,136513,128,0,136613:0:0:0:0:
109,192,136513,1,0,0:0:0:0:
182,192,136513,1,0,0:0:0:0:
329,192,136712,128,0,137706:0:0:0:0:
256,192,136712,1,0,0:0:0:0:
109,192,136712,1,0,0:0:0:0:
475,192,136712,1,0,0:0:0:0:
36,192,137110,1,0,0:0:0:0:
182,192,137110,128,0,137209:0:0:0:0:
109,192,137110,1,0,0:0:0:0:
256,192,137308,128,0,137408:0:0:0:0:
475,192,137308,1,0,0:0:0:0:
36,192,137308,1,0,0:0:0:0:
182,192,137408,1,0,0:0:0:0:
109,192,137507,128,0,137606:0:0:0:0:
256,192,137606,1,0,0:0:0:0:
182,192,137706,128,0,137805:0:0:0:0:
402,192,137706,1,0,0:0:0:0:
36,192,137706,1,0,0:0:0:0:
36,192,137904,128,0,138004:0:0:0:0:
475,192,137904,128,0,138103:0:0:0:0:
109,192,137904,1,0,0:0:0:0:
402,192,138103,128,0,138302:0:0:0:0:
256,192,138103,1,0,0:0:0:0:
182,192,138202,1,0,0:0:0:0:
329,192,138302,128,0,138500:0:0:0:0:
36,192,138302,1,0,0:0:0:0:
109,192,138401,1,0,0:0:0:0:
182,192,138500,1,0,0:0:0:0:
402,192,138500,1,0,0:0:0:0:
475,192,138500,1,0,0:0:0:0:
256,192,138500,1,0,0:0:0:0:
402,192,138699,1,0,0:0:0:0:
109,192,138699,1,0,0:0:0:0:
329,192,138798,1,0,0:0:0:0:
182,192,138798,1,0,0:0:0:0:
256,192,138898,1,0,0:0:0:0:
475,192,138898,1,0,0:0:0:0:
36,192,138898,1,0,0:0:0:0:
402,192,139096,1,0,0:0:0:0:
329,192,139096,1,0,0:0:0:0:
182,192,139096,1,0,0:0:0:0:
109,192,139096,1,0,0:0:0:0:
256,192,139295,1,0,0:0:0:0:
256,192,139494,1,0,0:0:0:0:
109,192,139494,1,0,0:0:0:0:
475,192,139692,1,0,0:0:0:0:
402,192,139692,1,0,0:0:0:0:
182,192,139692,1,0,0:0:0:0:
329,192,139891,1,0,0:0:0:0:
256,192,139891,1,0,0:0:0:0:
329,192,140090,1,0,0:0:0:0:
182,192,140090,1,0,0:0:0:0:
36,192,140090,1,0,0:0:0:0:
475,192,140090,1,0,0:0:0:0:
109,192,140288,1,0,0:0:0:0:
402,192,140288,1,0,0:0:0:0:
256,192,140388,1,0,0:0:0:0:
182,192,140388,1,0,0:0:0:0:
329,192,140487,1,0,0:0:0:0:
475,192,140487,1,0,0:0:0:0:
36,192,140487,1,0,0:0:0:0:
256,192,140686,1,0,0:0:0:0:
109,192,140686,1,0,0:0:0:0:
402,192,140686,1,0,0:0:0:0:
36,192,140686,1,0,0:0:0:0:
329,192,141083,128,0,141182:0:0:0:0:
182,192,141083,1,0,0:0:0:0:
475,192,141083,1,0,0:0:0:0:
256,192,141282,128,0,141381:0:0:0:0:
109,192,141282,1,0,0:0:0:0:
36,192,141282,1,0,0:0:0:0:
402,192,141381,128,0,141480:0:0:0:0:
182,192,141480,128,0,141580:0:0:0:0:
36,192,141480,1,0,0:0:0:0:
329,192,141580,128,0,141679:0:0:0:0:
109,192,141679,1,0,0:0:0:0:
475,192,141679,1,0,0:0:0:0:
402,192,141679,1,0,0:0:0:0:
256,192,141679,1,0,0:0:0:0:
256,192,141878,1,0,0:0:0:0:
329,192,141977,1,0,0:0:0:0:
402,192,142076,1,0,0:0:0:0:
475,192,142076,1,0,0:0:0:0:
36,192,142076,1,0,0:0:0:0:
256,192,142176,1,0,0:0:0:0:
182,192,142275,1,0,0:0:0:0:
109,192,142374,1,0,0:0:0:0:
36,192,142474,1,0,0:0:0:0:
475,192,142474,1,0,0:0:0:0:
256,192,142474,1,0,0:0:0:0:
329,192,142573,1,0,0:0:0:0:
402,192,142672,1,0,0:0:0:0:
36,192,142772,1,0,0:0:0:0:
329,192,142871,1,0,0:0:0:0:
475,192,142871,1,0,0:0:0:0:
109,192,142871,1,0,0:0:0:0:
182,192,142970,1,0,0:0:0:0:
329,192,143070,1,0,0:0:0:0:
402,192,143169,1,0,0:0:0:0:
256,192,143268,1,0,0:0:0:0:
475,192,143268,1,0,0:0:0:0:
36,192,143268,1,0,0:0:0:0:
109,192,143368,1,0,0:0:0:0:
329,192,143368,1,0,0:0:0:0:
182,192,143467,1,0,0:0:0:0:
402,192,143467,1,0,0:0:0:0:
256,192,143566,1,0,0:0:0:0:
475,192,143566,1,0,0:0:0:0:
36,192,143666,1,0,0:0:0:0:
329,192,143666,1,0,0:0:0:0:
109,192,143666,1,0,0:0:0:0:
256,192,143765,1,0,0:0:0:0:
182,192,143765,1,0,0:0:0:0:
329,192,143864,1,0,0:0:0:0:
475,192,143864,1,0,0:0:0:0:
402,192,143864,1,0,0:0:0:0:
256,192,143964,1,0,0:0:0:0:
36,192,144063,1,0,0:0:0:0:
109,192,144063,1,0,0:0:0:0:
182,192,144063,1,0,0:0:0:0:
329,192,144162,1,0,0:0:0:0:
475,192,144162,1,0,0:0:0:0:
402,192,144162,1,0,0:0:0:0:
182,192,144262,1,0,0:0:0:0:
36,192,144262,1,0,0:0:0:0:
109,192,144262,1,0,0:0:0:0:
329,192,144361,1,0,0:0:0:0:
402,192,144361,1,0,0:0:0:0:
475,192,144361,1,0,0:0:0:0:
182,192,144461,1,0,0:0:0:0:
109,192,144461,1,0,0:0:0:0:
36,192,144461,1,0,0:0:0:0:
475,192,144560,1,0,0:0:0:0:
402,192,144560,1,0,0:0:0:0:
329,192,144560,1,0,0:0:0:0:
182,192,144659,1,0,0:0:0:0:
36,192,144659,1,0,0:0:0:0:
109,192,144659,1,0,0:0:0:0:
256,192,144709,1,0,0:0:0:0:
329,192,144759,1,0,0:0:0:0:
402,192,144808,1,0,0:0:0:0:
475,192,144858,1,0,0:0:0:0:
109,192,144858,1,0,0:0:0:0:
36,192,144858,1,0,0:0:0:0:
182,192,144957,1,0,0:0:0:0:
256,192,145057,1,0,0:0:0:0:
402,192,145156,1,0,0:0:0:0:
475,192,145156,1,0,0:0:0:0:
329,192,145156,1,0,0:0:0:0:
36,192,145156,1,0,0:0:0:0:
256,192,145255,1,0,0:0:0:0:
182,192,145355,1,0,0:0:0:0:
36,192,145454,1,0,0:0:0:0:
109,192,145454,1,0,0:0:0:0:
475,192,145454,1,0,0:0:0:0:
402,192,145454,1,0,0:0:0:0:
329,192,145553,1,0,0:0:0:0:
256,192,145653,1,0,0:0:0:0:
182,192,145752,1,0,0:0:0:0:
109,192,145802,1,0,0:0:0:0:
36,192,145851,1,0,0:0:0:0:
402,192,145851,1,0,0:0:0:0:
329,192,145901,1,0,0:0:0:0:
256,192,145951,1,0,0:0:0:0:
182,192,146000,1,0,0:0:0:0:
475,192,146050,1,0,0:0:0:0:
109,192,146050,1,0,0:0:0:0:
402,192,146100,1,0,0:0:0:0:
329,192,146149,1,0,0:0:0:0:
256,192,146199,1,0,0:0:0:0:
36,192,146249,128,0,146547:0:0:0:0:
109,192,146249,128,0,146547:0:0:0:0:
182,192,146249,128,0,146547:0:0:0:0:
475,192,146249,128,0,146547:0:0:0:0:
36,192,146646,1,0,0:0:0:0:
182,192,146646,1,0,0:0:0:0:
329,192,146646,1,0,0:0:0:0:
402,192,146646,1,0,0:0:0:0:
36,192,146845,1,0,0:0:0:0:
182,192,146845,1,0,0:0:0:0:
329,192,146845,1,0,0:0:0:0:
402,192,146845,1,0,0:0:0:0:
256,192,147043,1,0,0:0:0:0:
329,192,147242,1,0,0:0:0:0:
256,192,147308,1,0,0:0:0:0:
36,192,147374,1,0,0:0:0:0:
182,192,147374,1,0,0:0:0:0:
475,192,147441,1,0,0:0:0:0:
402,192,147441,1,0,0:0:0:0:
329,192,147441,1,0,0:0:0:0:
256,192,147507,1,0,0:0:0:0:
182,192,147573,1,0,0:0:0:0:
109,192,147639,1,0,0:0:0:0:
36,192,147639,1,0,0:0:0:0:
475,192,147639,1,0,0:0:0:0:
402,192,147706,1,0,0:0:0:0:
182,192,147772,1,0,0:0:0:0:
256,192,147838,1,0,0:0:0:0:
475,192,147838,1,0,0:0:0:0:
36,192,147838,1,0,0:0:0:0:
329,192,147904,1,0,0:0:0:0:
402,192,147970,1,0,0:0:0:0:
475,192,148037,128,0,148335:0:0:0:0:
109,192,148037,128,0,148136:0:0:0:0:
36,192,148037,1,0,0:0:0:0:
182,192,148037,1,0,0:0:0:0:
256,192,148235,1,0,0:0:0:0:
329,192,148335,128,0,148633:0:0:0:0:
182,192,148335,128,0,148434:0:0:0:0:
36,192,148434,1,0,0:0:0:0:
109,192,148434,1,0,0:0:0:0:
475,192,148434,1,0,0:0:0:0:
256,192,148633,128,0,148732:0:0:0:0:
109,192,148633,128,0,148732:0:0:0:0:
256,192,148831,128,0,149229:0:0:0:0:
109,192,148831,128,0,148931:0:0:0:0:
402,192,148831,1,0,0:0:0:0:
329,192,149030,1,0,0:0:0:0:
475,192,149030,1,0,0:0:0:0:
182,192,149229,1,0,0:0:0:0:
36,192,149229,1,0,0:0:0:0:
402,192,149229,1,0,0:0:0:0:
109,192,149229,1,0,0:0:0:0:
36,192,149427,128,0,149825:0:0:0:0:
182,192,149427,128,0,149527:0:0:0:0:
329,192,149427,1,0,0:0:0:0:
256,192,149626,1,0,0:0:0:0:
475,192,149626,1,0,0:0:0:0:
402,192,149626,1,0,0:0:0:0:
109,192,149825,128,0,150023:0:0:0:0:
256,192,149825,128,0,149924:0:0:0:0:
182,192,150023,128,0,150222:0:0:0:0:
329,192,150023,128,0,150123:0:0:0:0:
36,192,150023,1,0,0:0:0:0:
402,192,150023,1,0,0:0:0:0:
475,192,150123,128,0,150222:0:0:0:0:
256,192,150222,128,0,150421:0:0:0:0:
402,192,150222,128,0,150321:0:0:0:0:
329,192,150321,128,0,150421:0:0:0:0:
109,192,150421,128,0,150520:0:0:0:0:
36,192,150421,1,0,0:0:0:0:
475,192,150421,1,0,0:0:0:0:
182,192,150520,128,0,150619:0:0:0:0:
475,192,150619,128,0,150818:0:0:0:0:
256,192,150619,128,0,150719:0:0:0:0:
36,192,150719,128,0,150818:0:0:0:0:
402,192,150818,128,0,151017:0:0:0:0:
109,192,150818,128,0,150917:0:0:0:0:
329,192,150818,1,0,0:0:0:0:
182,192,150917,128,0,151017:0:0:0:0:
329,192,151017,128,0,151215:0:0:0:0:
256,192,151017,128,0,151116:0:0:0:0:
36,192,151116,128,0,151215:0:0:0:0:
475,192,151215,1,0,0:0:0:0:
402,192,151215,1,0,0:0:0:0:
182,192,151215,1,0,0:0:0:0:
109,192,151215,128,0,151513:0:0:0:0:
329,192,151414,1,0,0:0:0:0:
256,192,151513,128,0,151911:0:0:0:0:
402,192,151513,128,0,151613:0:0:0:0:
182,192,151613,1,0,0:0:0:0:
36,192,151613,1,0,0:0:0:0:
475,192,151613,1,0,0:0:0:0:
329,192,151811,128,0,151911:0:0:0:0:
475,192,151811,128,0,151911:0:0:0:0:
329,192,152010,128,0,152308:0:0:0:0:
182,192,152010,128,0,152110:0:0:0:0:
36,192,152010,1,0,0:0:0:0:
109,192,152110,1,0,0:0:0:0:
256,192,152209,1,0,0:0:0:0:
402,192,152308,128,0,152606:0:0:0:0:
109,192,152308,128,0,152408:0:0:0:0:
182,192,152408,1,0,0:0:0:0:
329,192,152408,1,0,0:0:0:0:
36,192,152408,1,0,0:0:0:0:
475,192,152606,128,0,152805:0:0:0:0:
36,192,152606,128,0,152706:0:0:0:0:
329,192,152706,1,0,0:0:0:0:
182,192,152805,128,0,153202:0:0:0:0:
256,192,152805,128,0,152904:0:0:0:0:
109,192,152805,1,0,0:0:0:0:
36,192,152805,1,0,0:0:0:0:
329,192,153004,1,0,0:0:0:0:
402,192,153202,1,0,0:0:0:0:
475,192,153202,1,0,0:0:0:0:
36,192,153202,1,0,0:0:0:0:
109,192,153202,1,0,0:0:0:0:
256,192,153401,128,0,153798:0:0:0:0:
329,192,153401,128,0,153500:0:0:0:0:
182,192,153401,1,0,0:0:0:0:
475,192,153401,1,0,0:0:0:0:
109,192,153600,1,0,0:0:0:0:
36,192,153600,1,0,0:0:0:0:
402,192,153600,1,0,0:0:0:0:
109,192,153798,1,0,0:0:0:0:
36,192,153798,1,0,0:0:0:0:
329,192,153997,1,0,0:0:0:0:
256,192,153997,1,0,0:0:0:0:
182,192,153997,1,0,0:0:0:0:
36,192,153997,1,0,0:0:0:0:
475,192,154196,1,0,0:0:0:0:
402,192,154196,1,0,0:0:0:0:
109,192,154196,1,0,0:0:0:0:
475,192,154394,1,0,0:0:0:0:
402,192,154394,1,0,0:0:0:0:
182,192,154394,1,0,0:0:0:0:
36,192,154394,1,0,0:0:0:0:
256,192,154494,1,0,0:0:0:0:
329,192,154593,1,0,0:0:0:0:
475,192,154593,1,0,0:0:0:0:
182,192,154692,1,0,0:0:0:0:
36,192,154692,1,0,0:0:0:0:
402,192,154792,1,0,0:0:0:0:
329,192,154792,1,0,0:0:0:0:
256,192,154792,1,0,0:0:0:0:
109,192,154891,1,0,0:0:0:0:
182,192,154990,1,0,0:0:0:0:
475,192,154990,1,0,0:0:0:0:
402,192,154990,1,0,0:0:0:0:
256,192,155090,1,0,0:0:0:0:
36,192,155090,1,0,0:0:0:0:
329,192,155189,1,0,0:0:0:0:
402,192,155288,1,0,0:0:0:0:
475,192,155388,1,0,0:0:0:0:
256,192,155388,1,0,0:0:0:0:
36,192,155388,1,0,0:0:0:0:
182,192,155487,1,0,0:0:0:0:
109,192,155586,1,0,0:0:0:0:
329,192,155586,1,0,0:0:0:0:
402,192,155586,1,0,0:0:0:0:
256,192,155686,1,0,0:0:0:0:
182,192,155785,1,0,0:0:0:0:
36,192,155785,1,0,0:0:0:0:
475,192,155785,1,0,0:0:0:0:
329,192,155884,1,0,0:0:0:0:
182,192,155984,1,0,0:0:0:0:
36,192,155984,1,0,0:0:0:0:
402,192,155984,1,0,0:0:0:0:
256,192,156083,1,0,0:0:0:0:
329,192,156182,1,0,0:0:0:0:
475,192,156182,1,0,0:0:0:0:
182,192,156282,1,0,0:0:0:0:
36,192,156282,1,0,0:0:0:0:
256,192,156381,1,0,0:0:0:0:
109,192,156381,1,0,0:0:0:0:
475,192,156381,1,0,0:0:0:0:
329,192,156480,1,0,0:0:0:0:
475,192,156580,1,0,0:0:0:0:
36,192,156580,1,0,0:0:0:0:
256,192,156580,1,0,0:0:0:0:
402,192,156679,1,0,0:0:0:0:
109,192,156679,1,0,0:0:0:0:
182,192,156778,1,0,0:0:0:0:
256,192,156878,1,0,0:0:0:0:
329,192,156977,1,0,0:0:0:0:
475,192,156977,1,0,0:0:0:0:
36,192,156977,1,0,0:0:0:0:
109,192,157076,1,0,0:0:0:0:
256,192,157176,1,0,0:0:0:0:
402,192,157176,1,0,0:0:0:0:
475,192,157176,1,0,0:0:0:0:
182,192,157275,1,0,0:0:0:0:
109,192,157374,1,0,0:0:0:0:
329,192,157374,1,0,0:0:0:0:
36,192,157374,1,0,0:0:0:0:
256,192,157474,1,0,0:0:0:0:
182,192,157573,1,0,0:0:0:0:
475,192,157573,1,0,0:0:0:0:
36,192,157573,1,0,0:0:0:0:
402,192,157573,1,0,0:0:0:0:
329,192,157672,1,0,0:0:0:0:
109,192,157672,1,0,0:0:0:0:
182,192,157772,1,0,0:0:0:0:
402,192,157772,1,0,0:0:0:0:
36,192,157871,1,0,0:0:0:0:
475,192,157871,1,0,0:0:0:0:
256,192,157871,1,0,0:0:0:0:
329,192,157970,1,0,0:0:0:0:
109,192,157970,1,0,0:0:0:0:
402,192,158070,1,0,0:0:0:0:
182,192,158070,1,0,0:0:0:0:
36,192,158169,1,0,0:0:0:0:
256,192,158169,1,0,0:0:0:0:
475,192,158169,1,0,0:0:0:0:
329,192,158268,1,0,0:0:0:0:
475,192,158368,1,0,0:0:0:0:
402,192,158368,1,0,0:0:0:0:
109,192,158368,1,0,0:0:0:0:
36,192,158368,1,0,0:0:0:0:
182,192,158467,1,0,0:0:0:0:
256,192,158467,1,0,0:0:0:0:
402,192,158566,1,0,0:0:0:0:
329,192,158566,1,0,0:0:0:0:
475,192,158666,1,0,0:0:0:0:
36,192,158666,1,0,0:0:0:0:
109,192,158666,1,0,0:0:0:0:
182,192,158765,1,0,0:0:0:0:
256,192,158765,1,0,0:0:0:0:
402,192,158864,1,0,0:0:0:0:
329,192,158864,1,0,0:0:0:0:
109,192,158964,1,0,0:0:0:0:
36,192,158964,1,0,0:0:0:0:
475,192,158964,1,0,0:0:0:0:
182,192,159063,1,0,0:0:0:0:
256,192,159162,1,0,0:0:0:0:
402,192,159162,1,0,0:0:0:0:
329,192,159162,1,0,0:0:0:0:
36,192,159162,1,0,0:0:0:0:
109,192,159262,1,0,0:0:0:0:
182,192,159262,1,0,0:0:0:0:
475,192,159361,1,0,0:0:0:0:
329,192,159361,1,0,0:0:0:0:
109,192,159461,1,0,0:0:0:0:
36,192,159461,1,0,0:0:0:0:
402,192,159560,1,0,0:0:0:0:
329,192,159560,1,0,0:0:0:0:
256,192,159659,1,0,0:0:0:0:
475,192,159759,1,0,0:0:0:0:
36,192,159759,1,0,0:0:0:0:
109,192,159759,1,0,0:0:0:0:
402,192,159759,1,0,0:0:0:0:
256,192,159858,1,0,0:0:0:0:
36,192,159957,1,0,0:0:0:0:
475,192,159957,1,0,0:0:0:0:
109,192,160007,1,0,0:0:0:0:
182,192,160057,1,0,0:0:0:0:
256,192,160106,1,0,0:0:0:0:
475,192,160156,1,0,0:0:0:0:
402,192,160156,1,0,0:0:0:0:
329,192,160206,1,0,0:0:0:0:
256,192,160255,1,0,0:0:0:0:
182,192,160305,1,0,0:0:0:0:
36,192,160355,1,0,0:0:0:0:
109,192,160355,1,0,0:0:0:0:
402,192,160404,1,0,0:0:0:0:
329,192,160454,1,0,0:0:0:0:
256,192,160504,1,0,0:0:0:0:
182,192,160553,1,0,0:0:0:0:
36,192,160553,1,0,0:0:0:0:
475,192,160603,1,0,0:0:0:0:
402,192,160653,1,0,0:0:0:0:
329,192,160702,1,0,0:0:0:0:
182,192,160752,1,0,0:0:0:0:
256,192,160752,1,0,0:0:0:0:
36,192,160752,1,0,0:0:0:0:
109,192,160752,128,0,161149:0:0:0:0:
329,192,160951,1,0,0:0:0:0:
182,192,161050,128,0,161149:0:0:0:0:
475,192,161149,1,0,0:0:0:0:
402,192,161149,1,0,0:0:0:0:
256,192,161149,1,0,0:0:0:0:
36,192,161149,1,0,0:0:0:0:
402,192,161348,128,0,161447:0:0:0:0:
329,192,161348,128,0,161745:0:0:0:0:
182,192,161547,128,0,161745:0:0:0:0:
109,192,161547,128,0,161646:0:0:0:0:
36,192,161547,1,0,0:0:0:0:
475,192,161646,1,0,0:0:0:0:
402,192,161745,1,0,0:0:0:0:
402,192,161944,1,0,0:0:0:0:
256,192,161944,1,0,0:0:0:0:
36,192,161944,1,0,0:0:0:0:
109,192,161944,1,0,0:0:0:0:
256,192,162143,128,0,162540:0:0:0:0:
182,192,162143,128,0,162242:0:0:0:0:
329,192,162341,128,0,162540:0:0:0:0:
402,192,162341,1,0,0:0:0:0:
36,192,162341,1,0,0:0:0:0:
182,192,162540,128,0,162739:0:0:0:0:
475,192,162540,128,0,162639:0:0:0:0:
402,192,162639,128,0,162739:0:0:0:0:
109,192,162739,128,0,162937:0:0:0:0:
256,192,162739,128,0,162838:0:0:0:0:
36,192,162739,1,0,0:0:0:0:
329,192,162838,128,0,162937:0:0:0:0:
36,192,162937,128,0,163136:0:0:0:0:
402,192,162937,128,0,163037:0:0:0:0:
475,192,163037,128,0,163136:0:0:0:0:
256,192,163136,128,0,163235:0:0:0:0:
182,192,163136,1,0,0:0:0:0:
109,192,163136,1,0,0:0:0:0:
402,192,163235,128,0,163335:0:0:0:0:
182,192,163335,128,0,163533:0:0:0:0:
329,192,163335,128,0,163434:0:0:0:0:
475,192,163434,128,0,163533:0:0:0:0:
256,192,163533,128,0,163732:0:0:0:0:
36,192,163533,128,0,163633:0:0:0:0:
402,192,163533,1,0,0:0:0:0:
109,192,163633,128,0,163732:0:0:0:0:
475,192,163732,128,0,163831:0:0:0:0:
402,192,163732,128,0,163831:0:0:0:0:
182,192,163831,128,0,163931:0:0:0:0:
109,192,163931,1,0,0:0:0:0:
402,192,163931,128,0,164030:0:0:0:0:
475,192,163931,128,0,164229:0:0:0:0:
256,192,163931,1,0,0:0:0:0:
329,192,164129,1,0,0:0:0:0:
182,192,164229,128,0,164527:0:0:0:0:
109,192,164229,128,0,164328:0:0:0:0:
475,192,164328,1,0,0:0:0:0:
36,192,164328,1,0,0:0:0:0:
402,192,164328,1,0,0:0:0:0:
329,192,164527,128,0,164725:0:0:0:0:
402,192,164527,128,0,164626:0:0:0:0:
256,192,164725,128,0,165023:0:0:0:0:
109,192,164725,128,0,164825:0:0:0:0:
36,192,164725,1,0,0:0:0:0:
475,192,164825,1,0,0:0:0:0:
402,192,164924,1,0,0:0:0:0:
36,192,165023,128,0,165123:0:0:0:0:
182,192,165023,128,0,165321:0:0:0:0:
329,192,165123,1,0,0:0:0:0:
402,192,165123,1,0,0:0:0:0:
475,192,165123,1,0,0:0:0:0:
109,192,165321,128,0,165520:0:0:0:0:
475,192,165321,128,0,165421:0:0:0:0:
36,192,165520,128,0,165719:0:0:0:0:
402,192,165520,128,0,165619:0:0:0:0:
256,192,165520,1,0,0:0:0:0:
329,192,165520,1,0,0:0:0:0:
329,192,165719,128,0,165818:0:0:0:0:
182,192,165719,128,0,165917:0:0:0:0:
256,192,165917,128,0,166017:0:0:0:0:
109,192,165917,128,0,166116:0:0:0:0:
475,192,165917,1,0,0:0:0:0:
182,192,166116,128,0,166215:0:0:0:0:
36,192,166116,128,0,166315:0:0:0:0:
402,192,166116,1,0,0:0:0:0:
475,192,166315,1,0,0:0:0:0:
329,192,166315,1,0,0:0:0:0:
109,192,166315,1,0,0:0:0:0:
256,192,166414,1,0,0:0:0:0:
182,192,166513,1,0,0:0:0:0:
256,192,166712,128,0,166911:0:0:0:0:
329,192,166712,1,0,0:0:0:0:
402,192,166712,1,0,0:0:0:0:
475,192,166911,1,0,0:0:0:0:
36,192,166911,1,0,0:0:0:0:
182,192,166911,1,0,0:0:0:0:
402,192,167010,1,0,0:0:0:0:
329,192,167010,1,0,0:0:0:0:
256,192,167110,1,0,0:0:0:0:
109,192,167110,1,0,0:0:0:0:
36,192,167110,1,0,0:0:0:0:
182,192,167110,1,0,0:0:0:0:
329,192,167209,1,0,0:0:0:0:
402,192,167308,1,0,0:0:0:0:
475,192,167408,1,0,0:0:0:0:
36,192,167408,1,0,0:0:0:0:
256,192,167507,1,0,0:0:0:0:
182,192,167507,1,0,0:0:0:0:
109,192,167507,1,0,0:0:0:0:
475,192,167706,1,0,0:0:0:0:
402,192,167706,1,0,0:0:0:0:
329,192,167706,1,0,0:0:0:0:
36,192,167706,1,0,0:0:0:0:
256,192,167904,1,0,0:0:0:0:
182,192,168004,1,0,0:0:0:0:
109,192,168103,1,0,0:0:0:0:
475,192,168103,1,0,0:0:0:0:
402,192,168103,1,0,0:0:0:0:
329,192,168302,1,0,0:0:0:0:
256,192,168302,1,0,0:0:0:0:
36,192,168302,1,0,0:0:0:0:
109,192,168302,1,0,0:0:0:0:
182,192,168500,1,0,0:0:0:0:
475,192,168500,1,0,0:0:0:0:
402,192,168500,1,0,0:0:0:0:
256,192,168600,1,0,0:0:0:0:
329,192,168699,1,0,0:0:0:0:
36,192,168699,1,0,0:0:0:0:
109,192,168699,1,0,0:0:0:0:
475,192,168699,1,0,0:0:0:0:
256,192,168898,1,0,0:0:0:0:
182,192,168997,1,0,0:0:0:0:
402,192,168997,1,0,0:0:0:0:
109,192,169096,1,0,0:0:0:0:
329,192,169096,1,0,0:0:0:0:
36,192,169096,1,0,0:0:0:0:
475,192,169295,1,0,0:0:0:0:
402,192,169295,1,0,0:0:0:0:
256,192,169295,1,0,0:0:0:0:
182,192,169295,1,0,0:0:0:0:
109,192,169494,1,0,0:0:0:0:
182,192,169593,1,0,0:0:0:0:
475,192,169692,1,0,0:0:0:0:
36,192,169692,1,0,0:0:0:0:
329,192,169692,1,0,0:0:0:0:
256,192,169891,1,0,0:0:0:0:
109,192,169891,1,0,0:0:0:0:
475,192,169891,1,0,0:0:0:0:
109,192,170090,1,0,0:0:0:0:
329,192,170090,1,0,0:0:0:0:
36,192,170090,1,0,0:0:0:0:
475,192,170288,1,0,0:0:0:0:
402,192,170288,1,0,0:0:0:0:
182,192,170288,1,0,0:0:0:0:
36,192,170288,1,0,0:0:0:0:
475,192,170487,1,0,0:0:0:0:
402,192,170487,1,0,0:0:0:0:
109,192,170487,1,0,0:0:0:0:
182,192,170686,1,0,0:0:0:0:
475,192,170686,1,0,0:0:0:0:
402,192,170686,1,0,0:0:0:0:
256,192,170884,1,0,0:0:0:0:
36,192,170884,1,0,0:0:0:0:
109,192,170884,1,0,0:0:0:0:
109,192,171083,1,0,0:0:0:0:
36,192,171083,1,0,0:0:0:0:
182,192,171083,1,0,0:0:0:0:
329,192,171133,1,0,0:0:0:0:
402,192,171182,1,0,0:0:0:0:
475,192,171232,1,0,0:0:0:0:
36,192,171282,1,0,0:0:0:0:
256,192,171282,1,0,0:0:0:0:
182,192,171282,1,0,0:0:0:0:
329,192,171381,1,0,0:0:0:0:
402,192,171381,1,0,0:0:0:0:
36,192,171480,1,0,0:0:0:0:
182,192,171480,1,0,0:0:0:0:
475,192,171480,1,0,0:0:0:0:
256,192,171530,1,0,0:0:0:0:
329,192,171580,1,0,0:0:0:0:
402,192,171629,1,0,0:0:0:0:
109,192,171679,1,0,0:0:0:0:
182,192,171729,1,0,0:0:0:0:
256,192,171778,1,0,0:0:0:0:
329,192,171828,1,0,0:0:0:0:
402,192,171878,1,0,0:0:0:0:
475,192,171878,1,0,0:0:0:0:
109,192,171878,1,0,0:0:0:0:
36,192,171878,1,0,0:0:0:0:
475,192,172076,128,0,172474:0:0:0:0:
402,192,172076,128,0,172474:0:0:0:0:
109,192,172076,128,0,172474:0:0:0:0:
36,192,172076,128,0,172474:0:0:0:0:
256,192,173070,128,0,173467:0:0:0:0:
329,192,173268,128,0,173467:0:0:0:0:
36,192,173467,1,0,0:0:0:0:
182,192,173467,1,0,0:0:0:0:
475,192,173467,1,0,0:0:0:0:
475,192,173666,1,0,0:0:0:0:
329,192,173666,1,0,0:0:0:0:
36,192,174262,1,0,0:0:0:0:
182,192,174262,1,0,0:0:0:0:
36,192,174461,1,0,0:0:0:0:
256,192,174461,128,0,174560:0:0:0:0:
329,192,174461,128,0,174560:0:0:0:0:
256,192,174659,128,0,174759:0:0:0:0:
402,192,174659,128,0,174759:0:0:0:0:
256,192,174858,128,0,174957:0:0:0:0:
475,192,174858,128,0,174957:0:0:0:0:
109,192,174858,1,0,0:0:0:0:
329,192,175255,1,0,0:0:0:0:
256,192,175454,128,0,175553:0:0:0:0:
109,192,175454,128,0,175553:0:0:0:0:
182,192,175653,1,0,0:0:0:0:
36,192,175851,128,0,175951:0:0:0:0:
182,192,175851,128,0,175951:0:0:0:0:
109,192,176050,1,0,0:0:0:0:
329,192,176249,128,0,176348:0:0:0:0:
475,192,176249,128,0,176348:0:0:0:0:
256,192,176348,128,0,176447:0:0:0:0:
182,192,176447,128,0,176547:0:0:0:0:
402,192,176547,1,0,0:0:0:0:
36,192,176646,128,0,176745:0:0:0:0:
329,192,176646,128,0,176745:0:0:0:0:
256,192,176646,1,0,0:0:0:0:
36,192,176845,128,0,176944:0:0:0:0:
182,192,176845,128,0,176944:0:0:0:0:
36,192,177242,1,0,0:0:0:0:
182,192,177242,1,0,0:0:0:0:
36,192,177441,1,0,0:0:0:0:
256,192,177441,128,0,178235:0:0:0:0:
475,192,177441,128,0,177540:0:0:0:0:
475,192,177639,128,0,177739:0:0:0:0:
402,192,177639,128,0,177739:0:0:0:0:
402,192,177838,1,0,0:0:0:0:
182,192,178037,1,0,0:0:0:0:
109,192,178037,1,0,0:0:0:0:
475,192,178235,128,0,179030:0:0:0:0:
36,192,178235,1,0,0:0:0:0:
402,192,178235,128,0,178335:0:0:0:0:
36,192,178434,1,0,0:0:0:0:
182,192,178434,1,0,0:0:0:0:
256,192,178633,128,0,178732:0:0:0:0:
402,192,178633,128,0,178732:0:0:0:0:
182,192,178831,1,0,0:0:0:0:
36,192,179030,128,0,179825:0:0:0:0:
109,192,179030,1,0,0:0:0:0:
329,192,179030,128,0,179129:0:0:0:0:
256,192,179229,128,0,179328:0:0:0:0:
182,192,179427,1,0,0:0:0:0:
256,192,179626,128,0,179725:0:0:0:0:
109,192,179626,128,0,179725:0:0:0:0:
329,192,179725,128,0,179825:0:0:0:0:
402,192,179825,128,0,180619:0:0:0:0:
182,192,179825,1,0,0:0:0:0:
475,192,179825,128,0,179924:0:0:0:0:
109,192,180023,1,0,0:0:0:0:
182,192,180023,1,0,0:0:0:0:
36,192,180421,1,0,0:0:0:0:
109,192,180520,1,0,0:0:0:0:
182,192,180619,1,0,0:0:0:0:
475,192,180619,1,0,0:0:0:0:
182,192,180818,128,0,180917:0:0:0:0:
329,192,180818,128,0,180917:0:0:0:0:
475,192,180818,1,0,0:0:0:0:
256,192,181017,1,0,0:0:0:0:
182,192,181215,1,0,0:0:0:0:
36,192,181215,1,0,0:0:0:0:
256,192,181265,1,0,0:0:0:0:
329,192,181315,1,0,0:0:0:0:
475,192,181414,1,0,0:0:0:0:
402,192,181414,1,0,0:0:0:0:
402,192,181613,1,0,0:0:0:0:
475,192,181613,1,0,0:0:0:0:
182,192,181811,128,0,181911:0:0:0:0:
109,192,181811,128,0,181911:0:0:0:0:
182,192,182010,128,0,182110:0:0:0:0:
256,192,182010,128,0,182110:0:0:0:0:
256,192,182209,128,0,182308:0:0:0:0:
329,192,182209,128,0,182308:0:0:0:0:
36,192,182209,128,0,183004:0:0:0:0:
475,192,182408,1,0,0:0:0:0:
256,192,182805,1,0,0:0:0:0:
329,192,182904,1,0,0:0:0:0:
475,192,183004,128,0,183600:0:0:0:0:
109,192,183004,1,0,0:0:0:0:
402,192,183004,128,0,183103:0:0:0:0:
109,192,183202,1,0,0:0:0:0:
182,192,183202,1,0,0:0:0:0:
109,192,183600,128,0,183997:0:0:0:0:
182,192,183600,128,0,183699:0:0:0:0:
329,192,183699,1,0,0:0:0:0:
256,192,183798,1,0,0:0:0:0:
475,192,183798,1,0,0:0:0:0:
402,192,183997,128,0,184394:0:0:0:0:
329,192,183997,128,0,184096:0:0:0:0:
256,192,183997,1,0,0:0:0:0:
182,192,184196,1,0,0:0:0:0:
256,192,184394,128,0,184990:0:0:0:0:
36,192,184394,1,0,0:0:0:0:
109,192,184394,1,0,0:0:0:0:
182,192,184990,128,0,185388:0:0:0:0:
475,192,184990,1,0,0:0:0:0:
402,192,184990,1,0,0:0:0:0:
109,192,185388,128,0,185785:0:0:0:0:
329,192,185388,1,0,0:0:0:0:
402,192,185388,1,0,0:0:0:0:
475,192,185653,1,0,0:0:0:0:
402,192,185719,1,0,0:0:0:0:
329,192,185785,1,0,0:0:0:0:
256,192,185851,1,0,0:0:0:0:
182,192,185917,1,0,0:0:0:0:
109,192,185984,1,0,0:0:0:0:
402,192,186050,1,0,0:0:0:0:
329,192,186116,1,0,0:0:0:0:
256,192,186182,1,0,0:0:0:0:
36,192,186182,128,0,186679:0:0:0:0:
109,192,186182,1,0,0:0:0:0:
475,192,186182,1,0,0:0:0:0:
182,192,186480,128,0,186679:0:0:0:0:
402,192,186580,1,0,0:0:0:0:
475,192,186580,1,0,0:0:0:0:
256,192,186778,128,0,186977:0:0:0:0:
109,192,186778,1,0,0:0:0:0:
402,192,186977,128,0,187573:0:0:0:0:
182,192,186977,1,0,0:0:0:0:
475,192,186977,1,0,0:0:0:0:
36,192,187176,1,0,0:0:0:0:
109,192,187176,1,0,0:0:0:0:
36,192,187374,1,0,0:0:0:0:
182,192,187374,1,0,0:0:0:0:
109,192,187573,128,0,187672:0:0:0:0:
329,192,187573,1,0,0:0:0:0:
475,192,187573,1,0,0:0:0:0:
256,192,187672,128,0,187772:0:0:0:0:
36,192,187772,128,0,188368:0:0:0:0:
182,192,187772,1,0,0:0:0:0:
402,192,187772,1,0,0:0:0:0:
256,192,187970,1,0,0:0:0:0:
329,192,188169,1,0,0:0:0:0:
402,192,188169,1,0,0:0:0:0:
475,192,188169,1,0,0:0:0:0:
182,192,188368,128,0,188467:0:0:0:0:
109,192,188368,1,0,0:0:0:0:
256,192,188467,128,0,188566:0:0:0:0:
402,192,188566,128,0,188964:0:0:0:0:
329,192,188566,1,0,0:0:0:0:
36,192,188566,1,0,0:0:0:0:
109,192,188765,1,0,0:0:0:0:
182,192,188864,1,0,0:0:0:0:
329,192,188964,128,0,189361:0:0:0:0:
256,192,188964,1,0,0:0:0:0:
475,192,188964,1,0,0:0:0:0:
36,192,189162,1,0,0:0:0:0:
109,192,189262,1,0,0:0:0:0:
182,192,189361,128,0,190156:0:0:0:0:
256,192,189361,1,0,0:0:0:0:
402,192,189361,1,0,0:0:0:0:
329,192,189560,1,0,0:0:0:0:
475,192,189560,1,0,0:0:0:0:
475,192,189759,1,0,0:0:0:0:
402,192,189759,1,0,0:0:0:0:
256,192,189759,1,0,0:0:0:0:
329,192,189957,1,0,0:0:0:0:
256,192,190156,128,0,190752:0:0:0:0:
36,192,190156,1,0,0:0:0:0:
109,192,190156,1,0,0:0:0:0:
402,192,190355,1,0,0:0:0:0:
475,192,190355,1,0,0:0:0:0:
475,192,190553,1,0,0:0:0:0:
329,192,190553,1,0,0:0:0:0:
109,192,190553,1,0,0:0:0:0:
329,192,190752,128,0,190851:0:0:0:0:
402,192,190851,128,0,190951:0:0:0:0:
475,192,190951,128,0,191944:0:0:0:0:
182,192,190951,1,0,0:0:0:0:
36,192,190951,1,0,0:0:0:0:
109,192,191149,1,0,0:0:0:0:
256,192,191149,1,0,0:0:0:0:
109,192,191348,1,0,0:0:0:0:
329,192,191348,1,0,0:0:0:0:
402,192,191348,1,0,0:0:0:0:
182,192,191547,1,0,0:0:0:0:
256,192,191745,1,0,0:0:0:0:
36,192,191745,1,0,0:0:0:0:
402,192,191745,1,0,0:0:0:0:
109,192,191944,1,0,0:0:0:0:
402,192,192143,1,0,0:0:0:0:
475,192,192143,1,0,0:0:0:0:
256,192,192143,128,0,192242:0:0:0:0:
329,192,192242,128,0,192341:0:0:0:0:
182,192,192341,128,0,192441:0:0:0:0:
109,192,192441,128,0,192540:0:0:0:0:
36,192,192540,128,0,192739:0:0:0:0:
256,192,192540,1,0,0:0:0:0:
475,192,192540,1,0,0:0:0:0:
109,192,192739,1,0,0:0:0:0:
182,192,192788,1,0,0:0:0:0:
256,192,192838,1,0,0:0:0:0:
329,192,192888,1,0,0:0:0:0:
402,192,192937,128,0,193335:0:0:0:0:
475,192,192937,1,0,0:0:0:0:
109,192,192937,1,0,0:0:0:0:
475,192,193136,128,0,193335:0:0:0:0:
182,192,193136,1,0,0:0:0:0:
109,192,193335,128,0,193732:0:0:0:0:
256,192,193335,1,0,0:0:0:0:
329,192,193335,1,0,0:0:0:0:
256,192,193533,1,0,0:0:0:0:
402,192,193533,1,0,0:0:0:0:
402,192,193732,1,0,0:0:0:0:
475,192,193732,1,0,0:0:0:0:
36,192,193732,1,0,0:0:0:0:
329,192,193782,1,0,0:0:0:0:
256,192,193831,1,0,0:0:0:0:
182,192,193881,1,0,0:0:0:0:
329,192,193931,128,0,194030:0:0:0:0:
109,192,193931,1,0,0:0:0:0:
402,192,194030,128,0,194129:0:0:0:0:
475,192,194129,128,0,194328:0:0:0:0:
36,192,194129,1,0,0:0:0:0:
182,192,194129,1,0,0:0:0:0:
256,192,194328,1,0,0:0:0:0:
182,192,194378,1,0,0:0:0:0:
109,192,194427,1,0,0:0:0:0:
36,192,194477,1,0,0:0:0:0:
402,192,194527,1,0,0:0:0:0:
256,192,194527,1,0,0:0:0:0:
475,192,194527,128,0,194725:0:0:0:0:
329,192,194725,128,0,194924:0:0:0:0:
109,192,194725,1,0,0:0:0:0:
182,192,194924,128,0,195321:0:0:0:0:
36,192,194924,1,0,0:0:0:0:
256,192,194924,1,0,0:0:0:0:
329,192,195123,1,0,0:0:0:0:
36,192,195321,128,0,195719:0:0:0:0:
402,192,195321,1,0,0:0:0:0:
475,192,195321,1,0,0:0:0:0:
329,192,195520,1,0,0:0:0:0:
109,192,195619,128,0,195719:0:0:0:0:
256,192,195719,1,0,0:0:0:0:
182,192,195719,1,0,0:0:0:0:
402,192,195719,1,0,0:0:0:0:
475,192,195719,1,0,0:0:0:0:
329,192,195818,1,0,0:0:0:0:
402,192,195917,1,0,0:0:0:0:
109,192,195917,1,0,0:0:0:0:
475,192,196017,1,0,0:0:0:0:
36,192,196116,1,0,0:0:0:0:
256,192,196116,1,0,0:0:0:0:
182,192,196116,1,0,0:0:0:0:
329,192,196215,1,0,0:0:0:0:
402,192,196315,1,0,0:0:0:0:
475,192,196315,1,0,0:0:0:0:
109,192,196414,1,0,0:0:0:0:
182,192,196513,1,0,0:0:0:0:
329,192,196513,1,0,0:0:0:0:
475,192,196513,1,0,0:0:0:0:
256,192,196613,1,0,0:0:0:0:
36,192,196712,1,0,0:0:0:0:
109,192,196712,1,0,0:0:0:0:
402,192,196811,1,0,0:0:0:0:
329,192,196911,1,0,0:0:0:0:
256,192,196911,1,0,0:0:0:0:
109,192,196911,1,0,0:0:0:0:
182,192,197010,1,0,0:0:0:0:
402,192,197110,1,0,0:0:0:0:
475,192,197110,1,0,0:0:0:0:
329,192,197209,1,0,0:0:0:0:
256,192,197308,1,0,0:0:0:0:
109,192,197308,1,0,0:0:0:0:
36,192,197308,1,0,0:0:0:0:
475,192,197374,1,0,0:0:0:0:
402,192,197441,1,0,0:0:0:0:
329,192,197507,1,0,0:0:0:0:
182,192,197507,1,0,0:0:0:0:
109,192,197573,1,0,0:0:0:0:
36,192,197639,1,0,0:0:0:0:
256,192,197706,1,0,0:0:0:0:
329,192,197706,1,0,0:0:0:0:
475,192,197706,1,0,0:0:0:0:
109,192,197772,1,0,0:0:0:0:
182,192,197838,1,0,0:0:0:0:
256,192,197904,1,0,0:0:0:0:
402,192,197904,1,0,0:0:0:0:
36,192,197970,1,0,0:0:0:0:
109,192,198037,1,0,0:0:0:0:
182,192,198103,1,0,0:0:0:0:
402,192,198103,1,0,0:0:0:0:
475,192,198103,1,0,0:0:0:0:
329,192,198169,1,0,0:0:0:0:
256,192,198235,1,0,0:0:0:0:
182,192,198302,1,0,0:0:0:0:
36,192,198302,1,0,0:0:0:0:
329,192,198368,1,0,0:0:0:0:
402,192,198434,1,0,0:0:0:0:
475,192,198500,1,0,0:0:0:0:
256,192,198500,1,0,0:0:0:0:
109,192,198500,1,0,0:0:0:0:
329,192,198566,1,0,0:0:0:0:
182,192,198633,1,0,0:0:0:0:
256,192,198699,1,0,0:0:0:0:
36,192,198699,1,0,0:0:0:0:
329,192,198765,1,0,0:0:0:0:
402,192,198831,1,0,0:0:0:0:
182,192,198898,1,0,0:0:0:0:
109,192,198898,1,0,0:0:0:0:
475,192,198898,1,0,0:0:0:0:
36,192,198898,1,0,0:0:0:0:
256,192,198964,1,0,0:0:0:0:
329,192,199030,1,0,0:0:0:0:
109,192,199096,1,0,0:0:0:0:
402,192,199096,1,0,0:0:0:0:
182,192,199162,1,0,0:0:0:0:
256,192,199229,1,0,0:0:0:0:
329,192,199295,1,0,0:0:0:0:
36,192,199295,1,0,0:0:0:0:
109,192,199295,1,0,0:0:0:0:
402,192,199361,1,0,0:0:0:0:
475,192,199427,1,0,0:0:0:0:
329,192,199494,1,0,0:0:0:0:
182,192,199494,1,0,0:0:0:0:
36,192,199560,1,0,0:0:0:0:
109,192,199626,1,0,0:0:0:0:
182,192,199692,1,0,0:0:0:0:
256,192,199692,1,0,0:0:0:0:
402,192,199692,1,0,0:0:0:0:
475,192,199692,1,0,0:0:0:0:
256,192,199990,1,0,0:0:0:0:
36,192,199990,1,0,0:0:0:0:
109,192,199990,1,0,0:0:0:0:
475,192,199990,1,0,0:0:0:0:
402,192,200288,1,0,0:0:0:0:
182,192,200288,1,0,0:0:0:0:
36,192,200288,1,0,0:0:0:0:
475,192,200288,1,0,0:0:0:0:
329,192,200487,128,0,200884:0:0:0:0:
256,192,200686,128,0,200884:0:0:0:0:
36,192,200884,1,0,0:0:0:0:
109,192,200884,128,0,202076:0:0:0:0:
402,192,200884,1,0,0:0:0:0:
475,192,200884,1,0,0:0:0:0:
475,192,201083,128,0,201282:0:0:0:0:
402,192,201282,128,0,201480:0:0:0:0:
329,192,201480,128,0,201679:0:0:0:0:
256,192,201679,128,0,201878:0:0:0:0:
182,192,201878,128,0,202076:0:0:0:0:
36,192,202076,1,0,0:0:0:0:
402,192,202076,128,0,202672:0:0:0:0:
256,192,202076,1,0,0:0:0:0:
475,192,202076,128,0,202176:0:0:0:0:
329,192,202374,128,0,202672:0:0:0:0:
256,192,202374,128,0,202474:0:0:0:0:
182,192,202672,128,0,203070:0:0:0:0:
109,192,202672,128,0,202772:0:0:0:0:
329,192,202871,128,0,203070:0:0:0:0:
402,192,202871,128,0,202970:0:0:0:0:
36,192,203070,128,0,203169:0:0:0:0:
109,192,203268,128,0,203368:0:0:0:0:
256,192,203268,128,0,203368:0:0:0:0:
475,192,203467,128,0,204461:0:0:0:0:
402,192,203467,128,0,203566:0:0:0:0:
329,192,203467,1,0,0:0:0:0:
182,192,203467,1,0,0:0:0:0:
329,192,203864,128,0,203964:0:0:0:0:
256,192,203864,128,0,203964:0:0:0:0:
329,192,204063,128,0,204162:0:0:0:0:
109,192,204063,128,0,204162:0:0:0:0:
329,192,204262,128,0,204461:0:0:0:0:
182,192,204461,128,0,204560:0:0:0:0:
109,192,204659,128,0,204759:0:0:0:0:
109,192,204858,128,0,204957:0:0:0:0:
256,192,204858,128,0,204957:0:0:0:0:
109,192,205057,128,0,205553:0:0:0:0:
182,192,205255,128,0,205553:0:0:0:0:
475,192,205255,1,0,0:0:0:0:
329,192,205255,128,0,205355:0:0:0:0:
256,192,205553,128,0,205851:0:0:0:0:
329,192,205851,128,0,206050:0:0:0:0:
402,192,206050,128,0,206249:0:0:0:0:
36,192,206050,1,0,0:0:0:0:
182,192,206050,1,0,0:0:0:0:
475,192,206050,1,0,0:0:0:0:
402,192,206348,128,0,206646:0:0:0:0:
109,192,206348,128,0,206447:0:0:0:0:
256,192,206646,128,0,206845:0:0:0:0:
109,192,206845,128,0,207143:0:0:0:0:
36,192,206845,1,0,0:0:0:0:
475,192,206845,1,0,0:0:0:0:
329,192,206845,1,0,0:0:0:0:
182,192,207143,128,0,207441:0:0:0:0:
256,192,207143,1,0,0:0:0:0:
402,192,207143,1,0,0:0:0:0:
475,192,207143,1,0,0:0:0:0:
256,192,207441,128,0,208037:0:0:0:0:
36,192,207441,1,0,0:0:0:0:
109,192,207441,1,0,0:0:0:0:
475,192,207441,1,0,0:0:0:0:
402,192,207639,1,0,0:0:0:0:
109,192,207838,1,0,0:0:0:0:
475,192,208037,1,0,0:0:0:0:
402,192,208136,1,0,0:0:0:0:
182,192,208235,1,0,0:0:0:0:
256,192,208335,1,0,0:0:0:0:
329,192,208434,1,0,0:0:0:0:
36,192,208434,1,0,0:0:0:0:
475,192,208434,1,0,0:0:0:0:
109,192,208434,1,0,0:0:0:0:
182,192,208533,1,0,0:0:0:0:
475,192,208633,1,0,0:0:0:0:
36,192,208633,1,0,0:0:0:0:
402,192,208633,1,0,0:0:0:0:
109,192,208732,1,0,0:0:0:0:
256,192,208732,1,0,0:0:0:0:
329,192,208831,1,0,0:0:0:0:
402,192,208831,1,0,0:0:0:0:
182,192,208831,1,0,0:0:0:0:
109,192,208931,1,0,0:0:0:0:
256,192,209030,1,0,0:0:0:0:
36,192,209030,1,0,0:0:0:0:
475,192,209030,1,0,0:0:0:0:
329,192,209129,1,0,0:0:0:0:
109,192,209229,1,0,0:0:0:0:
182,192,209229,1,0,0:0:0:0:
402,192,209229,1,0,0:0:0:0:
256,192,209328,1,0,0:0:0:0:
36,192,209427,1,0,0:0:0:0:
475,192,209427,1,0,0:0:0:0:
329,192,209427,1,0,0:0:0:0:
182,192,209527,1,0,0:0:0:0:
109,192,209626,1,0,0:0:0:0:
402,192,209626,1,0,0:0:0:0:
329,192,209725,1,0,0:0:0:0:
36,192,209825,1,0,0:0:0:0:
256,192,209825,1,0,0:0:0:0:
182,192,209825,1,0,0:0:0:0:
475,192,209924,1,0,0:0:0:0:
402,192,210023,1,0,0:0:0:0:
109,192,210023,1,0,0:0:0:0:
256,192,210023,1,0,0:0:0:0:
182,192,210123,1,0,0:0:0:0:
475,192,210222,1,0,0:0:0:0:
36,192,210222,1,0,0:0:0:0:
402,192,210321,1,0,0:0:0:0:
109,192,210321,1,0,0:0:0:0:
329,192,210421,1,0,0:0:0:0:
182,192,210421,1,0,0:0:0:0:
256,192,210421,1,0,0:0:0:0:
36,192,210520,1,0,0:0:0:0:
109,192,210619,1,0,0:0:0:0:
329,192,210619,1,0,0:0:0:0:
402,192,210719,1,0,0:0:0:0:
256,192,210818,1,0,0:0:0:0:
182,192,210818,1,0,0:0:0:0:
475,192,210818,1,0,0:0:0:0:
109,192,210917,1,0,0:0:0:0:
475,192,211017,1,0,0:0:0:0:
329,192,211017,1,0,0:0:0:0:
36,192,211017,1,0,0:0:0:0:
182,192,211116,1,0,0:0:0:0:
329,192,211215,1,0,0:0:0:0:
109,192,211215,1,0,0:0:0:0:
256,192,211315,1,0,0:0:0:0:
475,192,211414,1,0,0:0:0:0:
402,192,211414,1,0,0:0:0:0:
182,192,211414,1,0,0:0:0:0:
329,192,211513,1,0,0:0:0:0:
475,192,211613,1,0,0:0:0:0:
36,192,211613,1,0,0:0:0:0:
256,192,211613,1,0,0:0:0:0:
109,192,211613,1,0,0:0:0:0:
402,192,211712,1,0,0:0:0:0:
182,192,211712,1,0,0:0:0:0:
109,192,211811,1,0,0:0:0:0:
329,192,211811,1,0,0:0:0:0:
256,192,211911,1,0,0:0:0:0:
36,192,211911,1,0,0:0:0:0:
475,192,211911,1,0,0:0:0:0:
402,192,212010,1,0,0:0:0:0:
182,192,212010,1,0,0:0:0:0:
329,192,212110,1,0,0:0:0:0:
109,192,212110,1,0,0:0:0:0:
36,192,212209,1,0,0:0:0:0:
256,192,212209,1,0,0:0:0:0:
475,192,212209,1,0,0:0:0:0:
182,192,212308,1,0,0:0:0:0:
402,192,212408,1,0,0:0:0:0:
475,192,212408,1,0,0:0:0:0:
36,192,212408,1,0,0:0:0:0:
109,192,212408,1,0,0:0:0:0:
329,192,212507,1,0,0:0:0:0:
182,192,212507,1,0,0:0:0:0:
109,192,212606,1,0,0:0:0:0:
256,192,212606,1,0,0:0:0:0:
475,192,212706,1,0,0:0:0:0:
36,192,212706,1,0,0:0:0:0:
182,192,212706,1,0,0:0:0:0:
329,192,212805,1,0,0:0:0:0:
402,192,212805,1,0,0:0:0:0:
182,192,212904,1,0,0:0:0:0:
109,192,212904,1,0,0:0:0:0:
36,192,213004,1,0,0:0:0:0:
475,192,213004,1,0,0:0:0:0:
402,192,213004,1,0,0:0:0:0:
329,192,213103,1,0,0:0:0:0:
475,192,213202,1,0,0:0:0:0:
256,192,213202,1,0,0:0:0:0:
182,192,213202,1,0,0:0:0:0:
109,192,213252,1,0,0:0:0:0:
36,192,213302,1,0,0:0:0:0:
402,192,213351,1,0,0:0:0:0:
329,192,213401,1,0,0:0:0:0:
256,192,213451,1,0,0:0:0:0:
182,192,213500,1,0,0:0:0:0:
36,192,213500,1,0,0:0:0:0:
475,192,213550,1,0,0:0:0:0:
402,192,213600,1,0,0:0:0:0:
329,192,213649,1,0,0:0:0:0:
109,192,213699,1,0,0:0:0:0:
182,192,213749,1,0,0:0:0:0:
256,192,213798,1,0,0:0:0:0:
329,192,213798,1,0,0:0:0:0:
475,192,213798,1,0,0:0:0:0:
36,192,213798,1,0,0:0:0:0:
109,192,214196,128,0,214394:0:0:0:0:
182,192,214394,128,0,214593:0:0:0:0:
256,192,214593,128,0,214792:0:0:0:0:
402,192,214792,128,0,215189:0:0:0:0:
182,192,214990,1,0,0:0:0:0:
329,192,215090,128,0,215189:0:0:0:0:
256,192,215189,1,0,0:0:0:0:
475,192,215189,1,0,0:0:0:0:
36,192,215189,1,0,0:0:0:0:
109,192,215189,1,0,0:0:0:0:
109,192,215388,128,0,215487:0:0:0:0:
182,192,215388,128,0,215785:0:0:0:0:
475,192,215586,1,0,0:0:0:0:
402,192,215586,128,0,215686:0:0:0:0:
329,192,215586,128,0,215785:0:0:0:0:
36,192,215785,1,0,0:0:0:0:
475,192,215984,1,0,0:0:0:0:
402,192,215984,1,0,0:0:0:0:
109,192,215984,1,0,0:0:0:0:
256,192,215984,1,0,0:0:0:0:
329,192,216182,128,0,216480:0:0:0:0:
256,192,216182,1,0,0:0:0:0:
475,192,216381,1,0,0:0:0:0:
109,192,216381,1,0,0:0:0:0:
182,192,216381,1,0,0:0:0:0:
36,192,216580,128,0,216679:0:0:0:0:
329,192,216580,128,0,216778:0:0:0:0:
109,192,216679,128,0,216778:0:0:0:0:
475,192,216778,1,0,0:0:0:0:
256,192,216778,128,0,216878:0:0:0:0:
402,192,216778,128,0,216977:0:0:0:0:
182,192,216878,128,0,216977:0:0:0:0:
109,192,216977,128,0,217076:0:0:0:0:
475,192,216977,128,0,217176:0:0:0:0:
36,192,217076,128,0,217176:0:0:0:0:
402,192,217176,1,0,0:0:0:0:
329,192,217176,1,0,0:0:0:0:
256,192,217176,128,0,217275:0:0:0:0:
109,192,217275,128,0,217374:0:0:0:0:
182,192,217374,128,0,217474:0:0:0:0:
329,192,217374,128,0,217573:0:0:0:0:
36,192,217474,128,0,217573:0:0:0:0:
109,192,217573,1,0,0:0:0:0:
475,192,217573,128,0,217672:0:0:0:0:
256,192,217573,128,0,217772:0:0:0:0:
402,192,217672,128,0,217772:0:0:0:0:
329,192,217772,128,0,217871:0:0:0:0:
182,192,217772,128,0,217970:0:0:0:0:
475,192,217871,128,0,217970:0:0:0:0:
36,192,217970,128,0,218268:0:0:0:0:
256,192,217970,1,0,0:0:0:0:
402,192,217970,1,0,0:0:0:0:
109,192,217970,128,0,218070:0:0:0:0:
182,192,218169,1,0,0:0:0:0:
402,192,218268,128,0,218368:0:0:0:0:
329,192,218268,128,0,218566:0:0:0:0:
109,192,218368,1,0,0:0:0:0:
475,192,218368,1,0,0:0:0:0:
36,192,218368,1,0,0:0:0:0:
109,192,218566,128,0,218666:0:0:0:0:
182,192,218566,128,0,218765:0:0:0:0:
475,192,218765,1,0,0:0:0:0:
402,192,218765,128,0,218864:0:0:0:0:
256,192,218765,128,0,219063:0:0:0:0:
36,192,218864,1,0,0:0:0:0:
109,192,218964,1,0,0:0:0:0:
329,192,219063,128,0,219361:0:0:0:0:
475,192,219063,128,0,219162:0:0:0:0:
36,192,219162,1,0,0:0:0:0:
109,192,219162,1,0,0:0:0:0:
182,192,219162,1,0,0:0:0:0:
36,192,219361,128,0,219461:0:0:0:0:
402,192,219361,128,0,219560:0:0:0:0:
256,192,219560,1,0,0:0:0:0:
182,192,219560,1,0,0:0:0:0:
475,192,219560,128,0,219759:0:0:0:0:
109,192,219560,128,0,219659:0:0:0:0:
329,192,219759,128,0,219957:0:0:0:0:
182,192,219759,128,0,219858:0:0:0:0:
36,192,219957,1,0,0:0:0:0:
402,192,219957,128,0,220156:0:0:0:0:
256,192,219957,128,0,220057:0:0:0:0:
109,192,220156,1,0,0:0:0:0:
475,192,220156,128,0,220355:0:0:0:0:
329,192,220156,128,0,220255:0:0:0:0:
402,192,220355,1,0,0:0:0:0:
182,192,220355,1,0,0:0:0:0:
36,192,220355,1,0,0:0:0:0:
256,192,220454,1,0,0:0:0:0:
329,192,220553,1,0,0:0:0:0:
109,192,220752,1,0,0:0:0:0:
182,192,220752,1,0,0:0:0:0:
256,192,220752,128,0,220951:0:0:0:0:
329,192,220951,1,0,0:0:0:0:
475,192,220951,1,0,0:0:0:0:
36,192,220951,1,0,0:0:0:0:
182,192,221050,1,0,0:0:0:0:
109,192,221050,1,0,0:0:0:0:
475,192,221149,1,0,0:0:0:0:
329,192,221149,1,0,0:0:0:0:
256,192,221149,1,0,0:0:0:0:
402,192,221149,1,0,0:0:0:0:
182,192,221249,1,0,0:0:0:0:
109,192,221348,1,0,0:0:0:0:
475,192,221447,1,0,0:0:0:0:
36,192,221447,1,0,0:0:0:0:
402,192,221547,1,0,0:0:0:0:
329,192,221547,1,0,0:0:0:0:
256,192,221547,1,0,0:0:0:0:
182,192,221745,1,0,0:0:0:0:
475,192,221745,1,0,0:0:0:0:
36,192,221745,1,0,0:0:0:0:
109,192,221745,1,0,0:0:0:0:
256,192,221944,1,0,0:0:0:0:
329,192,222043,1,0,0:0:0:0:
109,192,222143,1,0,0:0:0:0:
36,192,222143,1,0,0:0:0:0:
402,192,222143,1,0,0:0:0:0:
475,192,222341,1,0,0:0:0:0:
402,192,222341,1,0,0:0:0:0:
182,192,222341,1,0,0:0:0:0:
256,192,222341,1,0,0:0:0:0:
109,192,222540,1,0,0:0:0:0:
36,192,222540,1,0,0:0:0:0:
329,192,222540,1,0,0:0:0:0:
256,192,222639,1,0,0:0:0:0:
402,192,222739,1,0,0:0:0:0:
36,192,222739,1,0,0:0:0:0:
182,192,222739,1,0,0:0:0:0:
475,192,222739,1,0,0:0:0:0:
256,192,222937,1,0,0:0:0:0:
329,192,222937,1,0,0:0:0:0:
109,192,223037,1,0,0:0:0:0:
36,192,223037,1,0,0:0:0:0:
475,192,223136,1,0,0:0:0:0:
182,192,223136,1,0,0:0:0:0:
402,192,223136,1,0,0:0:0:0:
256,192,223335,1,0,0:0:0:0:
329,192,223335,1,0,0:0:0:0:
475,192,223335,1,0,0:0:0:0:
109,192,223335,1,0,0:0:0:0:
182,192,223533,1,0,0:0:0:0:
329,192,223633,1,0,0:0:0:0:
475,192,223732,1,0,0:0:0:0:
36,192,223732,1,0,0:0:0:0:
182,192,223732,1,0,0:0:0:0:
36,192,223931,1,0,0:0:0:0:
402,192,223931,1,0,0:0:0:0:
256,192,223931,1,0,0:0:0:0:
475,192,224129,1,0,0:0:0:0:
182,192,224129,1,0,0:0:0:0:
402,192,224129,1,0,0:0:0:0:
329,192,224328,1,0,0:0:0:0:
475,192,224328,1,0,0:0:0:0:
36,192,224328,1,0,0:0:0:0:
109,192,224328,1,0,0:0:0:0:
256,192,224427,1,0,0:0:0:0:
182,192,224527,1,0,0:0:0:0:
36,192,224527,1,0,0:0:0:0:
329,192,224626,1,0,0:0:0:0:
402,192,224725,1,0,0:0:0:0:
475,192,224725,1,0,0:0:0:0:
109,192,224725,1,0,0:0:0:0:
182,192,224825,1,0,0:0:0:0:
256,192,224924,1,0,0:0:0:0:
36,192,224924,1,0,0:0:0:0:
329,192,225023,1,0,0:0:0:0:
475,192,225023,1,0,0:0:0:0:
109,192,225123,1,0,0:0:0:0:
182,192,225123,1,0,0:0:0:0:
36,192,225123,1,0,0:0:0:0:
256,192,225222,1,0,0:0:0:0:
402,192,225321,1,0,0:0:0:0:
329,192,225371,1,0,0:0:0:0:
256,192,225421,1,0,0:0:0:0:
182,192,225470,1,0,0:0:0:0:
36,192,225520,1,0,0:0:0:0:
109,192,225520,1,0,0:0:0:0:
475,192,225520,1,0,0:0:0:0:
402,192,225570,1,0,0:0:0:0:
329,192,225619,1,0,0:0:0:0:
256,192,225669,1,0,0:0:0:0:
36,192,225719,1,0,0:0:0:0:
109,192,225768,1,0,0:0:0:0:
182,192,225818,1,0,0:0:0:0:
256,192,225868,1,0,0:0:0:0:
329,192,225917,1,0,0:0:0:0:
402,192,226116,1,0,0:0:0:0:
475,192,226116,1,0,0:0:0:0:
182,192,226116,1,0,0:0:0:0:
402,192,226315,1,0,0:0:0:0:
475,192,226315,1,0,0:0:0:0:
182,192,226315,1,0,0:0:0:0:
329,192,226513,128,0,226712:0:0:0:0:
475,192,226513,1,0,0:0:0:0:
182,192,226613,1,0,0:0:0:0:
256,192,226712,128,0,226911:0:0:0:0:
36,192,226712,1,0,0:0:0:0:
109,192,226712,1,0,0:0:0:0:
182,192,226911,128,0,227110:0:0:0:0:
475,192,226911,1,0,0:0:0:0:
402,192,227010,1,0,0:0:0:0:
329,192,227010,1,0,0:0:0:0:
109,192,227110,128,0,227308:0:0:0:0:
256,192,227110,1,0,0:0:0:0:
36,192,227110,1,0,0:0:0:0:
475,192,227209,1,0,0:0:0:0:
402,192,227308,1,0,0:0:0:0:
329,192,227358,1,0,0:0:0:0:
256,192,227408,1,0,0:0:0:0:
182,192,227457,1,0,0:0:0:0:
402,192,227507,128,0,227606:0:0:0:0:
475,192,227507,1,0,0:0:0:0:
109,192,227507,1,0,0:0:0:0:
36,192,227507,128,0,229096:0:0:0:0:
329,192,227706,1,0,0:0:0:0:
256,192,227904,1,0,0:0:0:0:
109,192,227904,1,0,0:0:0:0:
475,192,227904,1,0,0:0:0:0:
182,192,228103,128,0,228202:0:0:0:0:
256,192,228302,128,0,228401:0:0:0:0:
402,192,228302,1,0,0:0:0:0:
475,192,228302,1,0,0:0:0:0:
329,192,228500,128,0,228600:0:0:0:0:
109,192,228500,1,0,0:0:0:0:
475,192,228600,1,0,0:0:0:0:
402,192,228699,128,0,228798:0:0:0:0:
182,192,228699,1,0,0:0:0:0:
256,192,228699,1,0,0:0:0:0:
475,192,228898,128,0,228997:0:0:0:0:
329,192,228898,1,0,0:0:0:0:
182,192,229096,128,0,229196:0:0:0:0:
402,192,229096,1,0,0:0:0:0:
256,192,229295,1,0,0:0:0:0:
329,192,229494,128,0,229891:0:0:0:0:
475,192,229494,1,0,0:0:0:0:
402,192,229494,1,0,0:0:0:0:
256,192,229494,128,0,229593:0:0:0:0:
182,192,229593,128,0,229692:0:0:0:0:
109,192,229692,128,0,229792:0:0:0:0:
36,192,229792,128,0,229891:0:0:0:0:
256,192,229891,128,0,230288:0:0:0:0:
475,192,229891,128,0,229990:0:0:0:0:
182,192,229891,1,0,0:0:0:0:
402,192,229990,128,0,230090:0:0:0:0:
329,192,230090,128,0,230189:0:0:0:0:
36,192,230189,128,0,230288:0:0:0:0:
182,192,230288,128,0,230686:0:0:0:0:
109,192,230288,128,0,230388:0:0:0:0:
475,192,230288,1,0,0:0:0:0:
402,192,230388,128,0,230487:0:0:0:0:
256,192,230487,128,0,230586:0:0:0:0:
475,192,230586,128,0,230686:0:0:0:0:
109,192,230686,128,0,231083:0:0:0:0:
329,192,230686,128,0,230785:0:0:0:0:
36,192,230686,1,0,0:0:0:0:
402,192,230686,1,0,0:0:0:0:
256,192,230884,1,0,0:0:0:0:
475,192,231083,128,0,231182:0:0:0:0:
36,192,231083,1,0,0:0:0:0:
182,192,231083,1,0,0:0:0:0:
402,192,231083,1,0,0:0:0:0:
475,192,231282,128,0,231679:0:0:0:0:
256,192,231282,1,0,0:0:0:0:
329,192,231480,1,0,0:0:0:0:
256,192,231480,1,0,0:0:0:0:
109,192,231480,1,0,0:0:0:0:
402,192,231679,128,0,231878:0:0:0:0:
36,192,231679,1,0,0:0:0:0:
329,192,231878,128,0,232076:0:0:0:0:
182,192,231878,1,0,0:0:0:0:
475,192,231878,1,0,0:0:0:0:
256,192,232076,128,0,233070:0:0:0:0:
109,192,232076,1,0,0:0:0:0:
36,192,232275,1,0,0:0:0:0:
475,192,232275,1,0,0:0:0:0:
402,192,232275,1,0,0:0:0:0:
475,192,232474,1,0,0:0:0:0:
402,192,232573,1,0,0:0:0:0:
36,192,232672,1,0,0:0:0:0:
109,192,232672,1,0,0:0:0:0:
329,192,232672,1,0,0:0:0:0:
109,192,232871,1,0,0:0:0:0:
182,192,232871,1,0,0:0:0:0:
402,192,232871,1,0,0:0:0:0:
329,192,233070,1,0,0:0:0:0:
36,192,233070,1,0,0:0:0:0:
475,192,233070,1,0,0:0:0:0:
109,192,233268,1,0,0:0:0:0:
329,192,233467,1,0,0:0:0:0:
475,192,233467,1,0,0:0:0:0:
182,192,233467,1,0,0:0:0:0:
256,192,233467,1,0,0:0:0:0:
402,192,233666,1,0,0:0:0:0:
109,192,233666,1,0,0:0:0:0:
36,192,233666,1,0,0:0:0:0:
182,192,233765,1,0,0:0:0:0:
329,192,233864,1,0,0:0:0:0:
475,192,233864,1,0,0:0:0:0:
36,192,233864,1,0,0:0:0:0:
109,192,233864,1,0,0:0:0:0:
256,192,233964,1,0,0:0:0:0:
36,192,234063,1,0,0:0:0:0:
182,192,234063,1,0,0:0:0:0:
475,192,234162,1,0,0:0:0:0:
329,192,234162,1,0,0:0:0:0:
256,192,234262,1,0,0:0:0:0:
182,192,234262,1,0,0:0:0:0:
109,192,234262,1,0,0:0:0:0:
402,192,234361,1,0,0:0:0:0:
109,192,234461,1,0,0:0:0:0:
36,192,234461,1,0,0:0:0:0:
329,192,234461,1,0,0:0:0:0:
475,192,234560,1,0,0:0:0:0:
256,192,234560,1,0,0:0:0:0:
182,192,234659,1,0,0:0:0:0:
109,192,234759,1,0,0:0:0:0:
475,192,234858,1,0,0:0:0:0:
256,192,234858,1,0,0:0:0:0:
36,192,234858,1,0,0:0:0:0:
329,192,234957,1,0,0:0:0:0:
109,192,235057,1,0,0:0:0:0:
182,192,235057,1,0,0:0:0:0:
402,192,235057,1,0,0:0:0:0:
256,192,235156,1,0,0:0:0:0:
36,192,235255,1,0,0:0:0:0:
475,192,235255,1,0,0:0:0:0:
329,192,235255,1,0,0:0:0:0:
182,192,235355,1,0,0:0:0:0:
109,192,235454,1,0,0:0:0:0:
475,192,235454,1,0,0:0:0:0:
329,192,235454,1,0,0:0:0:0:
256,192,235553,1,0,0:0:0:0:
36,192,235653,1,0,0:0:0:0:
182,192,235653,1,0,0:0:0:0:
475,192,235752,1,0,0:0:0:0:
329,192,235752,1,0,0:0:0:0:
402,192,235851,1,0,0:0:0:0:
109,192,235851,1,0,0:0:0:0:
256,192,235851,1,0,0:0:0:0:
182,192,235951,1,0,0:0:0:0:
256,192,236050,1,0,0:0:0:0:
475,192,236050,1,0,0:0:0:0:
36,192,236050,1,0,0:0:0:0:
402,192,236149,1,0,0:0:0:0:
109,192,236149,1,0,0:0:0:0:
329,192,236249,1,0,0:0:0:0:
256,192,236348,1,0,0:0:0:0:
475,192,236447,1,0,0:0:0:0:
36,192,236447,1,0,0:0:0:0:
182,192,236447,1,0,0:0:0:0:
402,192,236547,1,0,0:0:0:0:
36,192,236646,1,0,0:0:0:0:
109,192,236646,1,0,0:0:0:0:
256,192,236646,1,0,0:0:0:0:
329,192,236745,1,0,0:0:0:0:
475,192,236845,1,0,0:0:0:0:
182,192,236845,1,0,0:0:0:0:
402,192,236845,1,0,0:0:0:0:
256,192,236944,1,0,0:0:0:0:
475,192,237043,1,0,0:0:0:0:
109,192,237043,1,0,0:0:0:0:
329,192,237043,1,0,0:0:0:0:
36,192,237043,1,0,0:0:0:0:
402,192,237143,1,0,0:0:0:0:
182,192,237143,1,0,0:0:0:0:
109,192,237242,1,0,0:0:0:0:
329,192,237242,1,0,0:0:0:0:
256,192,237341,1,0,0:0:0:0:
36,192,237341,1,0,0:0:0:0:
475,192,237341,1,0,0:0:0:0:
402,192,237441,1,0,0:0:0:0:
182,192,237441,1,0,0:0:0:0:
329,192,237540,1,0,0:0:0:0:
109,192,237540,1,0,0:0:0:0:
36,192,237639,1,0,0:0:0:0:
256,192,237639,1,0,0:0:0:0:
475,192,237639,1,0,0:0:0:0:
182,192,237739,1,0,0:0:0:0:
402,192,237838,1,0,0:0:0:0:
475,192,237838,1,0,0:0:0:0:
36,192,237838,1,0,0:0:0:0:
109,192,237838,1,0,0:0:0:0:
329,192,237937,1,0,0:0:0:0:
182,192,237937,1,0,0:0:0:0:
109,192,238037,1,0,0:0:0:0:
256,192,238037,1,0,0:0:0:0:
475,192,238136,1,0,0:0:0:0:
36,192,238136,1,0,0:0:0:0:
182,192,238136,1,0,0:0:0:0:
329,192,238235,1,0,0:0:0:0:
402,192,238235,1,0,0:0:0:0:
182,192,238335,1,0,0:0:0:0:
109,192,238335,1,0,0:0:0:0:
36,192,238434,1,0,0:0:0:0:
475,192,238434,1,0,0:0:0:0:
402,192,238434,1,0,0:0:0:0:
329,192,238533,1,0,0:0:0:0:
182,192,238633,1,0,0:0:0:0:
475,192,238633,1,0,0:0:0:0:
256,192,238633,1,0,0:0:0:0:
109,192,238633,1,0,0:0:0:0:
329,192,238732,1,0,0:0:0:0:
402,192,238732,1,0,0:0:0:0:
182,192,238831,1,0,0:0:0:0:
36,192,238831,1,0,0:0:0:0:
475,192,238931,1,0,0:0:0:0:
402,192,238931,1,0,0:0:0:0:
329,192,238931,1,0,0:0:0:0:
182,192,239030,1,0,0:0:0:0:
109,192,239030,1,0,0:0:0:0:
329,192,239129,1,0,0:0:0:0:
256,192,239129,1,0,0:0:0:0:
402,192,239229,1,0,0:0:0:0:
109,192,239229,1,0,0:0:0:0:
36,192,239229,1,0,0:0:0:0:
475,192,239229,1,0,0:0:0:0:
256,192,239328,1,0,0:0:0:0:
36,192,239427,1,0,0:0:0:0:
475,192,239427,1,0,0:0:0:0:
402,192,239477,1,0,0:0:0:0:
329,192,239527,1,0,0:0:0:0:
256,192,239576,1,0,0:0:0:0:
109,192,239626,1,0,0:0:0:0:
36,192,239626,1,0,0:0:0:0:
182,192,239676,1,0,0:0:0:0:
256,192,239725,1,0,0:0:0:0:
329,192,239775,1,0,0:0:0:0:
402,192,239825,1,0,0:0:0:0:
475,192,239825,1,0,0:0:0:0:
109,192,239874,1,0,0:0:0:0:
182,192,239924,1,0,0:0:0:0:
256,192,239974,1,0,0:0:0:0:
475,192,240023,1,0,0:0:0:0:
329,192,240023,1,0,0:0:0:0:
36,192,240073,1,0,0:0:0:0:
109,192,240123,1,0,0:0:0:0:
182,192,240172,1,0,0:0:0:0:
475,192,240222,1,0,0:0:0:0:
402,192,240222,128,0,241414:0:0:0:0:
329,192,240222,1,0,0:0:0:0:
256,192,240222,1,0,0:0:0:0:
182,192,240421,1,0,0:0:0:0:
36,192,240619,1,0,0:0:0:0:
109,192,240619,1,0,0:0:0:0:
329,192,240619,1,0,0:0:0:0:
182,192,240818,1,0,0:0:0:0:
256,192,241017,1,0,0:0:0:0:
36,192,241017,1,0,0:0:0:0:
329,192,241017,1,0,0:0:0:0:
182,192,241116,1,0,0:0:0:0:
109,192,241215,128,0,241315:0:0:0:0:
475,192,241414,1,0,0:0:0:0:
329,192,241414,1,0,0:0:0:0:
182,192,241414,128,0,241513:0:0:0:0:
109,192,241513,1,0,0:0:0:0:
256,192,241613,128,0,241712:0:0:0:0:
36,192,241613,1,0,0:0:0:0:
475,192,241613,1,0,0:0:0:0:
182,192,241811,1,0,0:0:0:0:
475,192,241811,1,0,0:0:0:0:
402,192,241811,1,0,0:0:0:0:
329,192,241911,1,0,0:0:0:0:
256,192,242010,128,0,242110:0:0:0:0:
109,192,242010,1,0,0:0:0:0:
36,192,242209,128,0,242606:0:0:0:0:
329,192,242209,128,0,242308:0:0:0:0:
182,192,242209,1,0,0:0:0:0:
475,192,242308,128,0,242408:0:0:0:0:
256,192,242408,128,0,242507:0:0:0:0:
402,192,242507,128,0,242606:0:0:0:0:
109,192,242606,128,0,243004:0:0:0:0:
182,192,242606,128,0,242706:0:0:0:0:
256,192,242606,1,0,0:0:0:0:
329,192,242706,128,0,242805:0:0:0:0:
402,192,242805,128,0,242904:0:0:0:0:
475,192,242904,128,0,243004:0:0:0:0:
182,192,243004,128,0,243401:0:0:0:0:
256,192,243004,128,0,243103:0:0:0:0:
36,192,243004,1,0,0:0:0:0:
329,192,243103,128,0,243202:0:0:0:0:
475,192,243202,128,0,243302:0:0:0:0:
402,192,243302,128,0,243401:0:0:0:0:
329,192,243401,128,0,243798:0:0:0:0:
109,192,243401,128,0,243500:0:0:0:0:
36,192,243401,1,0,0:0:0:0:
256,192,243401,1,0,0:0:0:0:
182,192,243600,1,0,0:0:0:0:
402,192,243798,128,0,243997:0:0:0:0:
256,192,243798,1,0,0:0:0:0:
36,192,243798,1,0,0:0:0:0:
475,192,243798,1,0,0:0:0:0:
475,192,243997,128,0,244196:0:0:0:0:
109,192,243997,1,0,0:0:0:0:
182,192,244196,1,0,0:0:0:0:
402,192,244196,1,0,0:0:0:0:
256,192,244196,1,0,0:0:0:0:
329,192,244394,128,0,244593:0:0:0:0:
109,192,244394,1,0,0:0:0:0:
256,192,244593,128,0,244792:0:0:0:0:
36,192,244593,1,0,0:0:0:0:
475,192,244593,1,0,0:0:0:0:
109,192,244692,1,0,0:0:0:0:
182,192,244792,128,0,245586:0:0:0:0:
402,192,244792,1,0,0:0:0:0:
329,192,244990,1,0,0:0:0:0:
36,192,244990,1,0,0:0:0:0:
475,192,244990,1,0,0:0:0:0:
475,192,245189,1,0,0:0:0:0:
256,192,245388,1,0,0:0:0:0:
329,192,245388,1,0,0:0:0:0:
402,192,245388,1,0,0:0:0:0:
36,192,245586,1,0,0:0:0:0:
109,192,245586,1,0,0:0:0:0:
475,192,245586,1,0,0:0:0:0:
329,192,245586,1,0,0:0:0:0:
182,192,245785,1,0,0:0:0:0:
36,192,245785,1,0,0:0:0:0:
402,192,245785,1,0,0:0:0:0:
256,192,245884,1,0,0:0:0:0:
329,192,245984,1,0,0:0:0:0:
475,192,245984,1,0,0:0:0:0:
109,192,246182,1,0,0:0:0:0:
182,192,246182,1,0,0:0:0:0:
256,192,246182,128,0,246381:0:0:0:0:
329,192,246381,1,0,0:0:0:0:
475,192,246381,1,0,0:0:0:0:
36,192,246381,1,0,0:0:0:0:
182,192,246480,1,0,0:0:0:0:
109,192,246480,1,0,0:0:0:0:
475,192,246580,1,0,0:0:0:0:
329,192,246580,1,0,0:0:0:0:
256,192,246580,1,0,0:0:0:0:
402,192,246580,1,0,0:0:0:0:
182,192,246679,1,0,0:0:0:0:
109,192,246778,1,0,0:0:0:0:
475,192,246878,1,0,0:0:0:0:
36,192,246878,1,0,0:0:0:0:
402,192,246977,1,0,0:0:0:0:
329,192,246977,1,0,0:0:0:0:
256,192,246977,1,0,0:0:0:0:
182,192,247176,1,0,0:0:0:0:
475,192,247176,1,0,0:0:0:0:
36,192,247176,1,0,0:0:0:0:
109,192,247176,1,0,0:0:0:0:
256,192,247374,1,0,0:0:0:0:
329,192,247474,1,0,0:0:0:0:
109,192,247573,1,0,0:0:0:0:
36,192,247573,1,0,0:0:0:0:
402,192,247573,1,0,0:0:0:0:
475,192,247772,1,0,0:0:0:0:
402,192,247772,1,0,0:0:0:0:
182,192,247772,1,0,0:0:0:0:
256,192,247772,1,0,0:0:0:0:
109,192,247970,1,0,0:0:0:0:
36,192,247970,1,0,0:0:0:0:
329,192,247970,1,0,0:0:0:0:
256,192,248070,1,0,0:0:0:0:
402,192,248169,1,0,0:0:0:0:
36,192,248169,1,0,0:0:0:0:
182,192,248169,1,0,0:0:0:0:
475,192,248169,1,0,0:0:0:0:
256,192,248368,1,0,0:0:0:0:
109,192,248467,1,0,0:0:0:0:
329,192,248467,1,0,0:0:0:0:
475,192,248566,1,0,0:0:0:0:
182,192,248566,1,0,0:0:0:0:
402,192,248566,1,0,0:0:0:0:
256,192,248765,1,0,0:0:0:0:
329,192,248765,1,0,0:0:0:0:
36,192,248765,1,0,0:0:0:0:
109,192,248765,1,0,0:0:0:0:
402,192,248964,1,0,0:0:0:0:
329,192,249063,1,0,0:0:0:0:
182,192,249162,1,0,0:0:0:0:
475,192,249162,1,0,0:0:0:0:
36,192,249162,1,0,0:0:0:0:
36,192,249361,1,0,0:0:0:0:
402,192,249361,1,0,0:0:0:0:
109,192,249361,1,0,0:0:0:0:
475,192,249560,1,0,0:0:0:0:
182,192,249560,1,0,0:0:0:0:
402,192,249560,1,0,0:0:0:0:
256,192,249759,1,0,0:0:0:0:
475,192,249759,1,0,0:0:0:0:
36,192,249759,1,0,0:0:0:0:
109,192,249759,1,0,0:0:0:0:
402,192,249957,1,0,0:0:0:0:
109,192,249957,1,0,0:0:0:0:
36,192,249957,1,0,0:0:0:0:
109,192,250156,1,0,0:0:0:0:
36,192,250156,1,0,0:0:0:0:
329,192,250156,1,0,0:0:0:0:
402,192,250355,1,0,0:0:0:0:
475,192,250355,1,0,0:0:0:0:
256,192,250355,1,0,0:0:0:0:
329,192,250553,1,0,0:0:0:0:
475,192,250553,1,0,0:0:0:0:
402,192,250553,1,0,0:0:0:0:
182,192,250603,1,0,0:0:0:0:
109,192,250653,1,0,0:0:0:0:
36,192,250702,1,0,0:0:0:0:
329,192,250752,1,0,0:0:0:0:
256,192,250752,1,0,0:0:0:0:
475,192,250752,1,0,0:0:0:0:
109,192,250851,1,0,0:0:0:0:
182,192,250851,1,0,0:0:0:0:
36,192,250951,1,0,0:0:0:0:
329,192,250951,1,0,0:0:0:0:
475,192,250951,1,0,0:0:0:0:
256,192,251000,1,0,0:0:0:0:
182,192,251050,1,0,0:0:0:0:
109,192,251100,1,0,0:0:0:0:
402,192,251149,1,0,0:0:0:0:
329,192,251199,1,0,0:0:0:0:
256,192,251249,1,0,0:0:0:0:
182,192,251298,1,0,0:0:0:0:
402,192,251348,1,0,0:0:0:0:
475,192,251348,1,0,0:0:0:0:
109,192,251348,1,0,0:0:0:0:
36,192,251348,1,0,0:0:0:0:
402,192,251547,128,0,251944:0:0:0:0:
475,192,251547,128,0,251944:0:0:0:0:
36,192,251547,128,0,251944:0:0:0:0:
109,192,251547,128,0,251944:0:0:0:0:
329,192,251944,1,0,0:0:0:0:
182,192,251944,128,0,252043:0:0:0:0:
329,192,252143,1,0,0:0:0:0:
182,192,252143,128,0,252441:0:0:0:0:
329,192,252441,128,0,252937:0:0:0:0:
36,192,252441,1,0,0:0:0:0:
402,192,252739,128,0,252937:0:0:0:0:
36,192,252937,1,0,0:0:0:0:
109,192,252937,1,0,0:0:0:0:
475,192,252937,128,0,253136:0:0:0:0:
256,192,252937,1,0,0:0:0:0:
182,192,253136,128,0,253335:0:0:0:0:
36,192,253335,128,0,254924:0:0:0:0:
329,192,253335,1,0,0:0:0:0:
256,192,253533,1,0,0:0:0:0:
109,192,253533,1,0,0:0:0:0:
475,192,253533,128,0,253633:0:0:0:0:
182,192,253732,1,0,0:0:0:0:
256,192,253732,1,0,0:0:0:0:
402,192,253732,128,0,253831:0:0:0:0:
329,192,253931,1,0,0:0:0:0:
182,192,254030,128,0,254129:0:0:0:0:
402,192,254129,1,0,0:0:0:0:
256,192,254328,128,0,254427:0:0:0:0:
475,192,254527,1,0,0:0:0:0:
329,192,254527,128,0,254626:0:0:0:0:
402,192,254725,128,0,254825:0:0:0:0:
256,192,254825,128,0,254924:0:0:0:0:
109,192,254924,1,0,0:0:0:0:
182,192,254924,1,0,0:0:0:0:
402,192,254924,1,0,0:0:0:0:
182,192,255123,128,0,255222:0:0:0:0:
329,192,255123,1,0,0:0:0:0:
402,192,255222,1,0,0:0:0:0:
182,192,255321,128,0,255619:0:0:0:0:
475,192,255321,1,0,0:0:0:0:
36,192,255321,1,0,0:0:0:0:
402,192,255520,1,0,0:0:0:0:
256,192,255619,128,0,255917:0:0:0:0:
36,192,255719,1,0,0:0:0:0:
109,192,255719,1,0,0:0:0:0:
329,192,255917,128,0,256116:0:0:0:0:
182,192,255917,1,0,0:0:0:0:
475,192,255917,1,0,0:0:0:0:
402,192,256116,128,0,256315:0:0:0:0:
36,192,256116,1,0,0:0:0:0:
182,192,256116,1,0,0:0:0:0:
109,192,256116,1,0,0:0:0:0:
256,192,256315,1,0,0:0:0:0:
329,192,256513,1,0,0:0:0:0:
109,192,256513,128,0,256712:0:0:0:0:
182,192,256712,128,0,257010:0:0:0:0:
36,192,256712,128,0,257010:0:0:0:0:
402,192,256712,128,0,257010:0:0:0:0:
475,192,256712,128,0,257010:0:0:0:0:
182,192,257110,128,0,257408:0:0:0:0:
36,192,257110,128,0,257408:0:0:0:0:
402,192,257110,128,0,257408:0:0:0:0:
475,192,257110,128,0,257408:0:0:0:0:
36,192,257507,128,0,264858:0:0:0:0:
475,192,257507,128,0,264858:0:0:0:0:
402,192,257507,128,0,264858:0:0:0:0:
182,192,257507,128,0,264858:0:0:0:0:
