osu file format v14

[General]
AudioFilename: PRESENTER.mp3
AudioLeadIn: 0
PreviewTime: 75421
Countdown: 0
SampleSet: Soft
StackLeniency: 0.7
Mode: 3
LetterboxInBreaks: 0
SpecialStyle: 0
WidescreenStoryboard: 0

[Editor]
Bookmarks: 195719,207441
DistanceSpacing: 0.8
BeatDivisor: 4
GridSize: 32
TimelineZoom: 2.800002

[Metadata]
Title:Presenter
TitleUnicode:Presenter
Artist:Horie Yui
ArtistUnicode:堀江由衣
Creator:PP_Aika
Version:Lv.11
Source:DOG DAYS
Tags:Mage 中村彼方 Nakamura kanata Elements Garden 中山真斗
BeatmapID:1214293
BeatmapSetID:542933

[Difficulty]
HPDrainRate:6.5
CircleSize:7
OverallDifficulty:6.5
ApproachRate:5
SliderMultiplier:1.4
SliderTickRate:1

[Events]
//Background and Video events
0,0,"BG.jpg",0,0
//Break Periods
2,28833,33989
//Storyboard Layer 0 (Background)
//Storyboard Layer 1 (Fail)
//Storyboard Layer 2 (Pass)
//Storyboard Layer 3 (Foreground)
//Storyboard Sound Samples

[TimingPoints]
1812,397.350993377483,4,2,0,5,1,0
76513,-100,4,2,0,5,0,1
100355,-100,4,2,0,5,0,0
148037,-100,4,2,0,5,0,1
171878,-100,4,2,0,5,0,0
215139,-100,4,2,0,5,0,1
251348,-100,4,2,0,5,0,0

[HitObjects]
475,192,1812,5,0,0:0:0:0:
36,192,1812,1,0,0:0:0:0:
402,192,2010,1,0,0:0:0:0:
256,192,2209,1,0,0:0:0:0:
109,192,2408,1,0,0:0:0:0:
36,192,2606,1,0,0:0:0:0:
475,192,2904,1,0,0:0:0:0:
329,192,3202,1,0,0:0:0:0:
475,192,3401,1,0,0:0:0:0:
256,192,3699,1,0,0:0:0:0:
109,192,3997,1,0,0:0:0:0:
256,192,4196,1,0,0:0:0:0:
475,192,4196,1,0,0:0:0:0:
109,192,4494,1,0,0:0:0:0:
402,192,4494,1,0,0:0:0:0:
36,192,4792,1,0,0:0:0:0:
329,192,4792,1,0,0:0:0:0:
182,192,4990,1,0,0:0:0:0:
475,192,4990,1,0,0:0:0:0:
36,192,5288,1,0,0:0:0:0:
329,192,5586,1,0,0:0:0:0:
109,192,5785,1,0,0:0:0:0:
402,192,6083,1,0,0:0:0:0:
182,192,6381,1,0,0:0:0:0:
475,192,6580,1,0,0:0:0:0:
109,192,6977,1,0,0:0:0:0:
475,192,7176,1,0,0:0:0:0:
402,192,7275,1,0,0:0:0:0:
329,192,7374,1,0,0:0:0:0:
36,192,7573,1,0,0:0:0:0:
182,192,7772,1,0,0:0:0:0:
329,192,7970,1,0,0:0:0:0:
475,192,8169,1,0,0:0:0:0:
36,192,8169,1,0,0:0:0:0:
182,192,8368,1,0,0:0:0:0:
402,192,8566,1,0,0:0:0:0:
329,192,8765,1,0,0:0:0:0:
256,192,8964,1,0,0:0:0:0:
182,192,9262,1,0,0:0:0:0:
329,192,9560,1,0,0:0:0:0:
475,192,9759,1,0,0:0:0:0:
36,192,9759,1,0,0:0:0:0:
256,192,10355,1,0,0:0:0:0:
36,192,10553,1,0,0:0:0:0:
109,192,10752,1,0,0:0:0:0:
182,192,10951,1,0,0:0:0:0:
256,192,11149,1,0,0:0:0:0:
475,192,11149,1,0,0:0:0:0:
402,192,11547,1,0,0:0:0:0:
329,192,11745,1,0,0:0:0:0:
256,192,11944,1,0,0:0:0:0:
36,192,11944,1,0,0:0:0:0:
182,192,12341,1,0,0:0:0:0:
256,192,12540,1,0,0:0:0:0:
329,192,12739,1,0,0:0:0:0:
475,192,12739,1,0,0:0:0:0:
256,192,13136,1,0,0:0:0:0:
182,192,13335,1,0,0:0:0:0:
109,192,13533,1,0,0:0:0:0:
402,192,13533,1,0,0:0:0:0:
329,192,13931,1,0,0:0:0:0:
36,192,14129,1,0,0:0:0:0:
182,192,14328,1,0,0:0:0:0:
402,192,14328,128,0,14924:0:0:0:0:
109,192,14924,128,0,15321:0:0:0:0:
329,192,15321,128,0,15719:0:0:0:0:
182,192,15719,128,0,16116:0:0:0:0:
402,192,16116,128,0,16513:0:0:0:0:
256,192,16513,128,0,16911:0:0:0:0:
475,192,16911,128,0,17110:0:0:0:0:
36,192,17110,128,0,17308:0:0:0:0:
402,192,17308,128,0,17507:0:0:0:0:
182,192,17507,128,0,17706:0:0:0:0:
36,192,17706,1,0,0:0:0:0:
475,192,17706,1,0,0:0:0:0:
329,192,17904,1,0,0:0:0:0:
402,192,18103,1,0,0:0:0:0:
182,192,18103,1,0,0:0:0:0:
109,192,18500,1,0,0:0:0:0:
329,192,18500,1,0,0:0:0:0:
475,192,18699,1,0,0:0:0:0:
36,192,18898,1,0,0:0:0:0:
256,192,18898,1,0,0:0:0:0:
402,192,19295,1,0,0:0:0:0:
109,192,19295,1,0,0:0:0:0:
182,192,19494,1,0,0:0:0:0:
329,192,19692,1,0,0:0:0:0:
36,192,19692,1,0,0:0:0:0:
402,192,20090,1,0,0:0:0:0:
256,192,20090,1,0,0:0:0:0:
109,192,20288,1,0,0:0:0:0:
329,192,20487,1,0,0:0:0:0:
329,192,20686,1,0,0:0:0:0:
36,192,20884,1,0,0:0:0:0:
475,192,20884,1,0,0:0:0:0:
256,192,21083,1,0,0:0:0:0:
402,192,21282,1,0,0:0:0:0:
109,192,21282,1,0,0:0:0:0:
329,192,21679,1,0,0:0:0:0:
36,192,21679,1,0,0:0:0:0:
256,192,21878,1,0,0:0:0:0:
109,192,22076,1,0,0:0:0:0:
402,192,22076,1,0,0:0:0:0:
182,192,22474,128,0,22871:0:0:0:0:
329,192,22474,128,0,22871:0:0:0:0:
36,192,22871,1,0,0:0:0:0:
475,192,22871,1,0,0:0:0:0:
182,192,23268,1,0,0:0:0:0:
329,192,23268,1,0,0:0:0:0:
109,192,23666,1,0,0:0:0:0:
402,192,23666,1,0,0:0:0:0:
36,192,24063,1,0,0:0:0:0:
475,192,24063,1,0,0:0:0:0:
182,192,24262,1,0,0:0:0:0:
402,192,24461,1,0,0:0:0:0:
109,192,24461,1,0,0:0:0:0:
329,192,24858,1,0,0:0:0:0:
36,192,24858,1,0,0:0:0:0:
256,192,25057,1,0,0:0:0:0:
109,192,25255,1,0,0:0:0:0:
402,192,25255,1,0,0:0:0:0:
182,192,25653,1,0,0:0:0:0:
475,192,25653,1,0,0:0:0:0:
36,192,25851,1,0,0:0:0:0:
109,192,26050,1,0,0:0:0:0:
402,192,26050,1,0,0:0:0:0:
256,192,26447,1,0,0:0:0:0:
36,192,26447,1,0,0:0:0:0:
475,192,26646,1,0,0:0:0:0:
329,192,26845,1,0,0:0:0:0:
109,192,26845,1,0,0:0:0:0:
36,192,27242,1,0,0:0:0:0:
329,192,27242,1,0,0:0:0:0:
109,192,27540,1,0,0:0:0:0:
402,192,27540,1,0,0:0:0:0:
182,192,27838,1,0,0:0:0:0:
475,192,27838,1,0,0:0:0:0:
329,192,28037,1,0,0:0:0:0:
36,192,28037,1,0,0:0:0:0:
329,192,28434,1,0,0:0:0:0:
182,192,28434,1,0,0:0:0:0:
36,192,28633,1,0,0:0:0:0:
475,192,28633,1,0,0:0:0:0:
329,192,35189,5,0,0:0:0:0:
182,192,35785,1,0,0:0:0:0:
402,192,36182,1,0,0:0:0:0:
109,192,36381,1,0,0:0:0:0:
329,192,36580,1,0,0:0:0:0:
182,192,36778,1,0,0:0:0:0:
402,192,36977,1,0,0:0:0:0:
256,192,37176,1,0,0:0:0:0:
109,192,37374,1,0,0:0:0:0:
402,192,37772,1,0,0:0:0:0:
182,192,37970,1,0,0:0:0:0:
329,192,38169,1,0,0:0:0:0:
36,192,38368,1,0,0:0:0:0:
402,192,38566,1,0,0:0:0:0:
329,192,38765,1,0,0:0:0:0:
182,192,38964,1,0,0:0:0:0:
36,192,39361,1,0,0:0:0:0:
182,192,39560,1,0,0:0:0:0:
402,192,39759,1,0,0:0:0:0:
109,192,39957,1,0,0:0:0:0:
329,192,40156,1,0,0:0:0:0:
182,192,40355,1,0,0:0:0:0:
475,192,40553,1,0,0:0:0:0:
402,192,40653,1,0,0:0:0:0:
329,192,40752,1,0,0:0:0:0:
36,192,40951,1,0,0:0:0:0:
182,192,41149,1,0,0:0:0:0:
402,192,41547,1,0,0:0:0:0:
109,192,41745,1,0,0:0:0:0:
329,192,41944,1,0,0:0:0:0:
182,192,42143,1,0,0:0:0:0:
402,192,42540,1,0,0:0:0:0:
256,192,42739,1,0,0:0:0:0:
109,192,42937,1,0,0:0:0:0:
329,192,43136,1,0,0:0:0:0:
36,192,43335,1,0,0:0:0:0:
182,192,43533,1,0,0:0:0:0:
402,192,43732,1,0,0:0:0:0:
109,192,44328,1,0,0:0:0:0:
329,192,44527,1,0,0:0:0:0:
182,192,44725,1,0,0:0:0:0:
36,192,44924,1,0,0:0:0:0:
329,192,45321,1,0,0:0:0:0:
402,192,45719,1,0,0:0:0:0:
256,192,45917,1,0,0:0:0:0:
109,192,46116,1,0,0:0:0:0:
329,192,46315,1,0,0:0:0:0:
36,192,46513,1,0,0:0:0:0:
182,192,46712,1,0,0:0:0:0:
329,192,46911,1,0,0:0:0:0:
475,192,47110,1,0,0:0:0:0:
402,192,47209,1,0,0:0:0:0:
329,192,47308,1,0,0:0:0:0:
256,192,47408,1,0,0:0:0:0:
182,192,47507,128,0,47904:0:0:0:0:
36,192,47904,1,0,0:0:0:0:
329,192,47904,1,0,0:0:0:0:
109,192,48500,1,0,0:0:0:0:
402,192,48500,1,0,0:0:0:0:
256,192,48898,1,0,0:0:0:0:
475,192,49295,1,0,0:0:0:0:
329,192,49494,1,0,0:0:0:0:
109,192,49494,1,0,0:0:0:0:
402,192,50090,1,0,0:0:0:0:
182,192,50090,1,0,0:0:0:0:
256,192,50487,1,0,0:0:0:0:
36,192,50884,1,0,0:0:0:0:
182,192,51083,1,0,0:0:0:0:
402,192,51083,1,0,0:0:0:0:
109,192,51679,1,0,0:0:0:0:
329,192,51679,1,0,0:0:0:0:
256,192,52076,1,0,0:0:0:0:
475,192,52474,1,0,0:0:0:0:
329,192,52672,1,0,0:0:0:0:
109,192,52672,1,0,0:0:0:0:
109,192,53268,1,0,0:0:0:0:
475,192,53467,1,0,0:0:0:0:
256,192,53467,1,0,0:0:0:0:
109,192,53864,1,0,0:0:0:0:
402,192,53864,1,0,0:0:0:0:
36,192,54262,1,0,0:0:0:0:
475,192,54262,1,0,0:0:0:0:
256,192,54262,1,0,0:0:0:0:
109,192,54858,1,0,0:0:0:0:
402,192,54858,1,0,0:0:0:0:
256,192,55255,1,0,0:0:0:0:
182,192,55653,1,0,0:0:0:0:
36,192,55851,1,0,0:0:0:0:
329,192,55851,1,0,0:0:0:0:
109,192,56447,1,0,0:0:0:0:
402,192,56447,1,0,0:0:0:0:
329,192,56845,1,0,0:0:0:0:
182,192,57043,1,0,0:0:0:0:
402,192,57441,128,0,57838:0:0:0:0:
109,192,57441,128,0,57838:0:0:0:0:
256,192,57838,1,0,0:0:0:0:
36,192,58037,128,0,58434:0:0:0:0:
329,192,58037,128,0,58434:0:0:0:0:
182,192,58434,1,0,0:0:0:0:
256,192,58633,1,0,0:0:0:0:
329,192,58831,1,0,0:0:0:0:
109,192,58831,128,0,59229:0:0:0:0:
402,192,59229,1,0,0:0:0:0:
256,192,59427,1,0,0:0:0:0:
109,192,59626,1,0,0:0:0:0:
475,192,59825,1,0,0:0:0:0:
329,192,60023,1,0,0:0:0:0:
182,192,60222,1,0,0:0:0:0:
36,192,60421,1,0,0:0:0:0:
329,192,61017,128,0,61414:0:0:0:0:
329,192,61613,128,0,61811:0:0:0:0:
109,192,61811,1,0,0:0:0:0:
402,192,62010,128,0,63004:0:0:0:0:
36,192,62408,1,0,0:0:0:0:
109,192,62606,1,0,0:0:0:0:
182,192,62805,1,0,0:0:0:0:
256,192,63004,1,0,0:0:0:0:
182,192,63202,1,0,0:0:0:0:
109,192,63401,1,0,0:0:0:0:
36,192,63600,1,0,0:0:0:0:
402,192,63600,1,0,0:0:0:0:
329,192,63699,1,0,0:0:0:0:
182,192,64196,128,0,64593:0:0:0:0:
182,192,64792,128,0,64990:0:0:0:0:
402,192,64990,1,0,0:0:0:0:
109,192,65189,128,0,66182:0:0:0:0:
475,192,65586,1,0,0:0:0:0:
402,192,65785,1,0,0:0:0:0:
329,192,65984,1,0,0:0:0:0:
256,192,66182,1,0,0:0:0:0:
329,192,66381,1,0,0:0:0:0:
402,192,66580,1,0,0:0:0:0:
475,192,66778,1,0,0:0:0:0:
109,192,66778,1,0,0:0:0:0:
182,192,66878,1,0,0:0:0:0:
256,192,66977,128,0,67275:0:0:0:0:
402,192,67275,1,0,0:0:0:0:
182,192,67573,128,0,67970:0:0:0:0:
475,192,67970,1,0,0:0:0:0:
402,192,68169,1,0,0:0:0:0:
329,192,68368,1,0,0:0:0:0:
256,192,68566,1,0,0:0:0:0:
109,192,68566,128,0,68864:0:0:0:0:
329,192,68864,1,0,0:0:0:0:
182,192,69162,128,0,69560:0:0:0:0:
475,192,69560,1,0,0:0:0:0:
329,192,69759,1,0,0:0:0:0:
182,192,69957,1,0,0:0:0:0:
36,192,70156,1,0,0:0:0:0:
402,192,70156,1,0,0:0:0:0:
182,192,70355,1,0,0:0:0:0:
109,192,70553,1,0,0:0:0:0:
475,192,70553,1,0,0:0:0:0:
329,192,70752,1,0,0:0:0:0:
36,192,70951,1,0,0:0:0:0:
402,192,70951,1,0,0:0:0:0:
182,192,71149,1,0,0:0:0:0:
329,192,71348,1,0,0:0:0:0:
109,192,71348,1,0,0:0:0:0:
256,192,71547,1,0,0:0:0:0:
36,192,71745,1,0,0:0:0:0:
402,192,71745,1,0,0:0:0:0:
182,192,71944,1,0,0:0:0:0:
109,192,72143,1,0,0:0:0:0:
475,192,72143,1,0,0:0:0:0:
329,192,72341,1,0,0:0:0:0:
182,192,72540,1,0,0:0:0:0:
36,192,72540,1,0,0:0:0:0:
475,192,72739,1,0,0:0:0:0:
402,192,72838,1,0,0:0:0:0:
329,192,72937,1,0,0:0:0:0:
256,192,73037,1,0,0:0:0:0:
182,192,73136,1,0,0:0:0:0:
109,192,73235,1,0,0:0:0:0:
36,192,73335,1,0,0:0:0:0:
475,192,73335,1,0,0:0:0:0:
36,192,73633,1,0,0:0:0:0:
475,192,73633,1,0,0:0:0:0:
36,192,73931,1,0,0:0:0:0:
475,192,73931,1,0,0:0:0:0:
182,192,74328,1,0,0:0:0:0:
329,192,74328,1,0,0:0:0:0:
402,192,74527,1,0,0:0:0:0:
109,192,74527,1,0,0:0:0:0:
36,192,74725,1,0,0:0:0:0:
475,192,74725,1,0,0:0:0:0:
182,192,75123,1,0,0:0:0:0:
329,192,75123,1,0,0:0:0:0:
182,192,75321,1,0,0:0:0:0:
329,192,75321,1,0,0:0:0:0:
36,192,76513,1,0,0:0:0:0:
475,192,76513,1,0,0:0:0:0:
109,192,76911,1,0,0:0:0:0:
329,192,76911,1,0,0:0:0:0:
256,192,77110,1,0,0:0:0:0:
36,192,77308,1,0,0:0:0:0:
402,192,77308,1,0,0:0:0:0:
256,192,77507,1,0,0:0:0:0:
109,192,77706,1,0,0:0:0:0:
475,192,77706,1,0,0:0:0:0:
109,192,78103,1,0,0:0:0:0:
475,192,78103,1,0,0:0:0:0:
329,192,78302,1,0,0:0:0:0:
36,192,78500,1,0,0:0:0:0:
182,192,78500,1,0,0:0:0:0:
36,192,78898,1,0,0:0:0:0:
402,192,78898,1,0,0:0:0:0:
182,192,79096,1,0,0:0:0:0:
329,192,79295,1,0,0:0:0:0:
475,192,79295,1,0,0:0:0:0:
36,192,79692,1,0,0:0:0:0:
475,192,79692,1,0,0:0:0:0:
182,192,80090,1,0,0:0:0:0:
402,192,80090,1,0,0:0:0:0:
256,192,80288,1,0,0:0:0:0:
36,192,80487,1,0,0:0:0:0:
475,192,80487,1,0,0:0:0:0:
109,192,80884,1,0,0:0:0:0:
329,192,80884,1,0,0:0:0:0:
256,192,81083,1,0,0:0:0:0:
36,192,81282,1,0,0:0:0:0:
475,192,81282,1,0,0:0:0:0:
256,192,81480,1,0,0:0:0:0:
402,192,81679,1,0,0:0:0:0:
109,192,81679,1,0,0:0:0:0:
36,192,82076,1,0,0:0:0:0:
475,192,82076,1,0,0:0:0:0:
109,192,82275,1,0,0:0:0:0:
402,192,82275,1,0,0:0:0:0:
329,192,82474,1,0,0:0:0:0:
182,192,82474,1,0,0:0:0:0:
256,192,82672,1,0,0:0:0:0:
36,192,82871,1,0,0:0:0:0:
475,192,82871,1,0,0:0:0:0:
402,192,83268,1,0,0:0:0:0:
256,192,83268,1,0,0:0:0:0:
109,192,83467,1,0,0:0:0:0:
182,192,83864,1,0,0:0:0:0:
329,192,84063,1,0,0:0:0:0:
475,192,84063,1,0,0:0:0:0:
182,192,84262,1,0,0:0:0:0:
402,192,84461,1,0,0:0:0:0:
36,192,84461,1,0,0:0:0:0:
256,192,84858,1,0,0:0:0:0:
475,192,84858,1,0,0:0:0:0:
109,192,85057,1,0,0:0:0:0:
36,192,85454,1,0,0:0:0:0:
182,192,85653,1,0,0:0:0:0:
402,192,85653,1,0,0:0:0:0:
329,192,85851,1,0,0:0:0:0:
256,192,86050,1,0,0:0:0:0:
36,192,86050,1,0,0:0:0:0:
109,192,86348,1,0,0:0:0:0:
329,192,86348,1,0,0:0:0:0:
256,192,86646,1,0,0:0:0:0:
475,192,86646,1,0,0:0:0:0:
182,192,86845,1,0,0:0:0:0:
402,192,86845,1,0,0:0:0:0:
109,192,87143,1,0,0:0:0:0:
329,192,87143,1,0,0:0:0:0:
256,192,87441,1,0,0:0:0:0:
36,192,87441,1,0,0:0:0:0:
182,192,87639,1,0,0:0:0:0:
329,192,87639,1,0,0:0:0:0:
329,192,87937,1,0,0:0:0:0:
182,192,87937,1,0,0:0:0:0:
36,192,88235,1,0,0:0:0:0:
475,192,88235,1,0,0:0:0:0:
36,192,88633,1,0,0:0:0:0:
475,192,88633,1,0,0:0:0:0:
109,192,88831,1,0,0:0:0:0:
402,192,88831,1,0,0:0:0:0:
182,192,89030,1,0,0:0:0:0:
329,192,89030,1,0,0:0:0:0:
36,192,89229,1,0,0:0:0:0:
475,192,89229,1,0,0:0:0:0:
109,192,89626,1,0,0:0:0:0:
256,192,89626,1,0,0:0:0:0:
329,192,89825,1,0,0:0:0:0:
36,192,90023,1,0,0:0:0:0:
402,192,90023,1,0,0:0:0:0:
182,192,90222,1,0,0:0:0:0:
329,192,90421,1,0,0:0:0:0:
475,192,90421,1,0,0:0:0:0:
182,192,90818,1,0,0:0:0:0:
36,192,90818,1,0,0:0:0:0:
329,192,91017,1,0,0:0:0:0:
475,192,91215,1,0,0:0:0:0:
182,192,91215,1,0,0:0:0:0:
329,192,91613,1,0,0:0:0:0:
475,192,91613,1,0,0:0:0:0:
182,192,91811,1,0,0:0:0:0:
329,192,92010,1,0,0:0:0:0:
36,192,92010,1,0,0:0:0:0:
36,192,92408,1,0,0:0:0:0:
475,192,92408,1,0,0:0:0:0:
109,192,92805,1,0,0:0:0:0:
402,192,92805,1,0,0:0:0:0:
256,192,93004,1,0,0:0:0:0:
36,192,93202,1,0,0:0:0:0:
475,192,93202,1,0,0:0:0:0:
109,192,93600,1,0,0:0:0:0:
402,192,93600,1,0,0:0:0:0:
182,192,93798,1,0,0:0:0:0:
256,192,93997,1,0,0:0:0:0:
475,192,93997,1,0,0:0:0:0:
182,192,94196,1,0,0:0:0:0:
402,192,94394,1,0,0:0:0:0:
109,192,94394,1,0,0:0:0:0:
256,192,94593,1,0,0:0:0:0:
36,192,94792,1,0,0:0:0:0:
475,192,94792,1,0,0:0:0:0:
402,192,94990,1,0,0:0:0:0:
329,192,95189,1,0,0:0:0:0:
182,192,95189,1,0,0:0:0:0:
36,192,95586,1,0,0:0:0:0:
475,192,95586,1,0,0:0:0:0:
329,192,95884,1,0,0:0:0:0:
256,192,96182,1,0,0:0:0:0:
109,192,96182,1,0,0:0:0:0:
182,192,96580,1,0,0:0:0:0:
329,192,96778,1,0,0:0:0:0:
182,192,96977,1,0,0:0:0:0:
402,192,97176,1,0,0:0:0:0:
36,192,97176,1,0,0:0:0:0:
256,192,97474,1,0,0:0:0:0:
475,192,97772,1,0,0:0:0:0:
36,192,97772,1,0,0:0:0:0:
182,192,98169,1,0,0:0:0:0:
402,192,98368,1,0,0:0:0:0:
109,192,98566,1,0,0:0:0:0:
329,192,98765,1,0,0:0:0:0:
109,192,98964,1,0,0:0:0:0:
402,192,99162,1,0,0:0:0:0:
182,192,99361,1,0,0:0:0:0:
402,192,99560,128,0,99957:0:0:0:0:
256,192,99957,1,0,0:0:0:0:
109,192,99957,128,0,100355:0:0:0:0:
182,192,100355,1,0,0:0:0:0:
329,192,100355,1,0,0:0:0:0:
182,192,100553,1,0,0:0:0:0:
329,192,100553,1,0,0:0:0:0:
182,192,101944,5,0,0:0:0:0:
402,192,101944,1,0,0:0:0:0:
109,192,102540,1,0,0:0:0:0:
402,192,102739,1,0,0:0:0:0:
182,192,102937,1,0,0:0:0:0:
329,192,103335,1,0,0:0:0:0:
329,192,103732,1,0,0:0:0:0:
109,192,103931,1,0,0:0:0:0:
475,192,104129,1,0,0:0:0:0:
402,192,104229,1,0,0:0:0:0:
329,192,104328,1,0,0:0:0:0:
36,192,104527,1,0,0:0:0:0:
182,192,104725,1,0,0:0:0:0:
329,192,104924,1,0,0:0:0:0:
475,192,105123,1,0,0:0:0:0:
36,192,105123,1,0,0:0:0:0:
109,192,105719,5,0,0:0:0:0:
402,192,105719,1,0,0:0:0:0:
182,192,106116,1,0,0:0:0:0:
329,192,106116,1,0,0:0:0:0:
256,192,106513,1,0,0:0:0:0:
36,192,106712,5,0,0:0:0:0:
475,192,106712,1,0,0:0:0:0:
329,192,106911,1,0,0:0:0:0:
402,192,107110,1,0,0:0:0:0:
182,192,107110,1,0,0:0:0:0:
109,192,107507,1,0,0:0:0:0:
329,192,107507,1,0,0:0:0:0:
475,192,107706,1,0,0:0:0:0:
36,192,107904,1,0,0:0:0:0:
256,192,107904,1,0,0:0:0:0:
402,192,108302,1,0,0:0:0:0:
109,192,108302,1,0,0:0:0:0:
182,192,108500,1,0,0:0:0:0:
329,192,108699,1,0,0:0:0:0:
36,192,108699,1,0,0:0:0:0:
402,192,109096,1,0,0:0:0:0:
256,192,109096,1,0,0:0:0:0:
109,192,109295,1,0,0:0:0:0:
329,192,109494,1,0,0:0:0:0:
329,192,109692,1,0,0:0:0:0:
36,192,109891,1,0,0:0:0:0:
475,192,109891,1,0,0:0:0:0:
182,192,110090,1,0,0:0:0:0:
402,192,110288,1,0,0:0:0:0:
109,192,110288,1,0,0:0:0:0:
329,192,110686,1,0,0:0:0:0:
36,192,110686,1,0,0:0:0:0:
256,192,110884,1,0,0:0:0:0:
109,192,111083,1,0,0:0:0:0:
402,192,111083,1,0,0:0:0:0:
182,192,111480,128,0,111878:0:0:0:0:
329,192,111480,128,0,111878:0:0:0:0:
36,192,111878,1,0,0:0:0:0:
475,192,111878,1,0,0:0:0:0:
182,192,112275,1,0,0:0:0:0:
329,192,112275,1,0,0:0:0:0:
109,192,112672,1,0,0:0:0:0:
402,192,112672,1,0,0:0:0:0:
36,192,113070,1,0,0:0:0:0:
475,192,113070,1,0,0:0:0:0:
182,192,113268,1,0,0:0:0:0:
402,192,113467,1,0,0:0:0:0:
109,192,113467,1,0,0:0:0:0:
329,192,113864,1,0,0:0:0:0:
36,192,113864,1,0,0:0:0:0:
256,192,114063,1,0,0:0:0:0:
109,192,114262,1,0,0:0:0:0:
402,192,114262,1,0,0:0:0:0:
182,192,114659,1,0,0:0:0:0:
475,192,114659,1,0,0:0:0:0:
36,192,114858,1,0,0:0:0:0:
109,192,115057,1,0,0:0:0:0:
402,192,115057,1,0,0:0:0:0:
256,192,115454,1,0,0:0:0:0:
36,192,115454,1,0,0:0:0:0:
475,192,115653,1,0,0:0:0:0:
329,192,115851,1,0,0:0:0:0:
109,192,115851,1,0,0:0:0:0:
36,192,116249,1,0,0:0:0:0:
329,192,116249,1,0,0:0:0:0:
182,192,116447,1,0,0:0:0:0:
475,192,116447,1,0,0:0:0:0:
182,192,116845,1,0,0:0:0:0:
475,192,116845,1,0,0:0:0:0:
329,192,117043,1,0,0:0:0:0:
36,192,117043,1,0,0:0:0:0:
329,192,117441,1,0,0:0:0:0:
182,192,117441,1,0,0:0:0:0:
36,192,117639,1,0,0:0:0:0:
475,192,117639,1,0,0:0:0:0:
475,192,119427,1,0,0:0:0:0:
182,192,119427,1,0,0:0:0:0:
402,192,120023,1,0,0:0:0:0:
109,192,120023,1,0,0:0:0:0:
256,192,120421,1,0,0:0:0:0:
36,192,120818,1,0,0:0:0:0:
182,192,121017,1,0,0:0:0:0:
402,192,121017,1,0,0:0:0:0:
109,192,121613,1,0,0:0:0:0:
329,192,121613,1,0,0:0:0:0:
256,192,122010,1,0,0:0:0:0:
36,192,122408,1,0,0:0:0:0:
182,192,122606,1,0,0:0:0:0:
402,192,122606,1,0,0:0:0:0:
109,192,123202,1,0,0:0:0:0:
329,192,123202,1,0,0:0:0:0:
256,192,123600,1,0,0:0:0:0:
182,192,123997,1,0,0:0:0:0:
36,192,124196,1,0,0:0:0:0:
329,192,124196,1,0,0:0:0:0:
475,192,124792,1,0,0:0:0:0:
182,192,124792,1,0,0:0:0:0:
36,192,124990,1,0,0:0:0:0:
329,192,124990,1,0,0:0:0:0:
402,192,125388,1,0,0:0:0:0:
109,192,125388,1,0,0:0:0:0:
475,192,125785,1,0,0:0:0:0:
36,192,125785,1,0,0:0:0:0:
256,192,125785,1,0,0:0:0:0:
402,192,126381,1,0,0:0:0:0:
109,192,126381,1,0,0:0:0:0:
256,192,126778,1,0,0:0:0:0:
182,192,127176,1,0,0:0:0:0:
329,192,127374,1,0,0:0:0:0:
36,192,127374,1,0,0:0:0:0:
402,192,127970,1,0,0:0:0:0:
109,192,127970,1,0,0:0:0:0:
182,192,128368,1,0,0:0:0:0:
329,192,128566,1,0,0:0:0:0:
109,192,128964,128,0,129361:0:0:0:0:
402,192,128964,128,0,129361:0:0:0:0:
256,192,129361,1,0,0:0:0:0:
475,192,129560,128,0,129957:0:0:0:0:
182,192,129560,128,0,129957:0:0:0:0:
329,192,129957,1,0,0:0:0:0:
256,192,130156,1,0,0:0:0:0:
182,192,130355,1,0,0:0:0:0:
402,192,130355,128,0,130752:0:0:0:0:
109,192,130752,1,0,0:0:0:0:
256,192,130951,1,0,0:0:0:0:
402,192,131149,1,0,0:0:0:0:
36,192,131348,1,0,0:0:0:0:
182,192,131547,1,0,0:0:0:0:
329,192,131745,1,0,0:0:0:0:
475,192,131944,1,0,0:0:0:0:
182,192,132540,128,0,132937:0:0:0:0:
182,192,133136,128,0,133335:0:0:0:0:
402,192,133335,1,0,0:0:0:0:
109,192,133533,128,0,134527:0:0:0:0:
475,192,133931,1,0,0:0:0:0:
402,192,134129,1,0,0:0:0:0:
329,192,134328,1,0,0:0:0:0:
256,192,134527,1,0,0:0:0:0:
329,192,134725,1,0,0:0:0:0:
402,192,134924,1,0,0:0:0:0:
475,192,135123,1,0,0:0:0:0:
109,192,135123,1,0,0:0:0:0:
182,192,135222,1,0,0:0:0:0:
329,192,135719,128,0,136116:0:0:0:0:
329,192,136315,128,0,136513:0:0:0:0:
109,192,136513,1,0,0:0:0:0:
402,192,136712,128,0,137706:0:0:0:0:
36,192,137110,1,0,0:0:0:0:
109,192,137308,1,0,0:0:0:0:
182,192,137507,1,0,0:0:0:0:
256,192,137706,1,0,0:0:0:0:
182,192,137904,1,0,0:0:0:0:
109,192,138103,1,0,0:0:0:0:
36,192,138302,1,0,0:0:0:0:
402,192,138302,1,0,0:0:0:0:
329,192,138401,1,0,0:0:0:0:
256,192,138500,128,0,138798:0:0:0:0:
109,192,138798,1,0,0:0:0:0:
329,192,139096,128,0,139494:0:0:0:0:
36,192,139494,1,0,0:0:0:0:
109,192,139692,1,0,0:0:0:0:
182,192,139891,1,0,0:0:0:0:
256,192,140090,1,0,0:0:0:0:
402,192,140090,128,0,140388:0:0:0:0:
182,192,140388,1,0,0:0:0:0:
329,192,140686,128,0,141083:0:0:0:0:
36,192,141083,1,0,0:0:0:0:
182,192,141282,1,0,0:0:0:0:
329,192,141480,1,0,0:0:0:0:
475,192,141679,1,0,0:0:0:0:
109,192,141679,1,0,0:0:0:0:
329,192,141878,1,0,0:0:0:0:
402,192,142076,1,0,0:0:0:0:
36,192,142076,1,0,0:0:0:0:
182,192,142275,1,0,0:0:0:0:
475,192,142474,1,0,0:0:0:0:
109,192,142474,1,0,0:0:0:0:
329,192,142672,1,0,0:0:0:0:
182,192,142871,1,0,0:0:0:0:
402,192,142871,1,0,0:0:0:0:
256,192,143070,1,0,0:0:0:0:
475,192,143268,1,0,0:0:0:0:
109,192,143268,1,0,0:0:0:0:
329,192,143467,1,0,0:0:0:0:
402,192,143666,1,0,0:0:0:0:
36,192,143666,1,0,0:0:0:0:
182,192,143864,1,0,0:0:0:0:
329,192,144063,1,0,0:0:0:0:
475,192,144063,1,0,0:0:0:0:
36,192,144262,1,0,0:0:0:0:
109,192,144361,1,0,0:0:0:0:
182,192,144461,1,0,0:0:0:0:
256,192,144560,1,0,0:0:0:0:
329,192,144659,1,0,0:0:0:0:
402,192,144759,1,0,0:0:0:0:
475,192,144858,1,0,0:0:0:0:
36,192,144858,1,0,0:0:0:0:
36,192,145156,1,0,0:0:0:0:
475,192,145156,1,0,0:0:0:0:
36,192,145454,1,0,0:0:0:0:
475,192,145454,1,0,0:0:0:0:
182,192,145851,1,0,0:0:0:0:
329,192,145851,1,0,0:0:0:0:
402,192,146050,1,0,0:0:0:0:
109,192,146050,1,0,0:0:0:0:
36,192,146249,1,0,0:0:0:0:
475,192,146249,1,0,0:0:0:0:
182,192,146646,1,0,0:0:0:0:
329,192,146646,1,0,0:0:0:0:
182,192,146845,1,0,0:0:0:0:
329,192,146845,1,0,0:0:0:0:
475,192,148037,1,0,0:0:0:0:
36,192,148037,1,0,0:0:0:0:
402,192,148434,1,0,0:0:0:0:
182,192,148434,1,0,0:0:0:0:
256,192,148633,1,0,0:0:0:0:
475,192,148831,1,0,0:0:0:0:
109,192,148831,1,0,0:0:0:0:
256,192,149030,1,0,0:0:0:0:
402,192,149229,1,0,0:0:0:0:
36,192,149229,1,0,0:0:0:0:
402,192,149626,1,0,0:0:0:0:
36,192,149626,1,0,0:0:0:0:
182,192,149825,1,0,0:0:0:0:
475,192,150023,1,0,0:0:0:0:
329,192,150023,1,0,0:0:0:0:
475,192,150421,1,0,0:0:0:0:
109,192,150421,1,0,0:0:0:0:
329,192,150619,1,0,0:0:0:0:
182,192,150818,1,0,0:0:0:0:
36,192,150818,1,0,0:0:0:0:
475,192,151215,1,0,0:0:0:0:
36,192,151215,1,0,0:0:0:0:
329,192,151613,1,0,0:0:0:0:
109,192,151613,1,0,0:0:0:0:
256,192,151811,1,0,0:0:0:0:
475,192,152010,1,0,0:0:0:0:
36,192,152010,1,0,0:0:0:0:
402,192,152408,1,0,0:0:0:0:
182,192,152408,1,0,0:0:0:0:
256,192,152606,1,0,0:0:0:0:
475,192,152805,1,0,0:0:0:0:
36,192,152805,1,0,0:0:0:0:
256,192,153004,1,0,0:0:0:0:
109,192,153202,1,0,0:0:0:0:
402,192,153202,1,0,0:0:0:0:
475,192,153600,1,0,0:0:0:0:
36,192,153600,1,0,0:0:0:0:
402,192,153798,1,0,0:0:0:0:
109,192,153798,1,0,0:0:0:0:
182,192,153997,1,0,0:0:0:0:
329,192,153997,1,0,0:0:0:0:
256,192,154196,1,0,0:0:0:0:
475,192,154394,1,0,0:0:0:0:
36,192,154394,1,0,0:0:0:0:
109,192,154792,1,0,0:0:0:0:
256,192,154792,1,0,0:0:0:0:
402,192,154990,1,0,0:0:0:0:
329,192,155388,1,0,0:0:0:0:
182,192,155586,1,0,0:0:0:0:
36,192,155586,1,0,0:0:0:0:
329,192,155785,1,0,0:0:0:0:
109,192,155984,1,0,0:0:0:0:
475,192,155984,1,0,0:0:0:0:
256,192,156381,1,0,0:0:0:0:
36,192,156381,1,0,0:0:0:0:
402,192,156580,1,0,0:0:0:0:
475,192,156977,1,0,0:0:0:0:
329,192,157176,1,0,0:0:0:0:
109,192,157176,1,0,0:0:0:0:
182,192,157374,1,0,0:0:0:0:
256,192,157573,1,0,0:0:0:0:
475,192,157573,1,0,0:0:0:0:
402,192,157871,1,0,0:0:0:0:
182,192,157871,1,0,0:0:0:0:
256,192,158169,1,0,0:0:0:0:
36,192,158169,1,0,0:0:0:0:
329,192,158368,1,0,0:0:0:0:
109,192,158368,1,0,0:0:0:0:
402,192,158666,1,0,0:0:0:0:
182,192,158666,1,0,0:0:0:0:
256,192,158964,1,0,0:0:0:0:
475,192,158964,1,0,0:0:0:0:
329,192,159162,1,0,0:0:0:0:
182,192,159162,1,0,0:0:0:0:
182,192,159461,1,0,0:0:0:0:
329,192,159461,1,0,0:0:0:0:
402,192,159759,1,0,0:0:0:0:
109,192,159759,1,0,0:0:0:0:
475,192,160156,1,0,0:0:0:0:
36,192,160156,1,0,0:0:0:0:
402,192,160355,1,0,0:0:0:0:
109,192,160355,1,0,0:0:0:0:
329,192,160553,1,0,0:0:0:0:
182,192,160553,1,0,0:0:0:0:
475,192,160752,1,0,0:0:0:0:
36,192,160752,1,0,0:0:0:0:
402,192,161149,1,0,0:0:0:0:
256,192,161149,1,0,0:0:0:0:
182,192,161348,1,0,0:0:0:0:
475,192,161547,1,0,0:0:0:0:
109,192,161547,1,0,0:0:0:0:
329,192,161745,1,0,0:0:0:0:
182,192,161944,1,0,0:0:0:0:
36,192,161944,1,0,0:0:0:0:
329,192,162341,1,0,0:0:0:0:
475,192,162341,1,0,0:0:0:0:
182,192,162540,1,0,0:0:0:0:
36,192,162739,1,0,0:0:0:0:
329,192,162739,1,0,0:0:0:0:
182,192,163136,1,0,0:0:0:0:
36,192,163136,1,0,0:0:0:0:
329,192,163335,1,0,0:0:0:0:
182,192,163533,1,0,0:0:0:0:
475,192,163533,1,0,0:0:0:0:
475,192,163931,1,0,0:0:0:0:
36,192,163931,1,0,0:0:0:0:
402,192,164328,1,0,0:0:0:0:
109,192,164328,1,0,0:0:0:0:
256,192,164527,1,0,0:0:0:0:
475,192,164725,1,0,0:0:0:0:
36,192,164725,1,0,0:0:0:0:
402,192,165123,1,0,0:0:0:0:
109,192,165123,1,0,0:0:0:0:
329,192,165321,1,0,0:0:0:0:
256,192,165520,1,0,0:0:0:0:
36,192,165520,1,0,0:0:0:0:
329,192,165719,1,0,0:0:0:0:
109,192,165917,1,0,0:0:0:0:
402,192,165917,1,0,0:0:0:0:
256,192,166116,1,0,0:0:0:0:
475,192,166315,1,0,0:0:0:0:
36,192,166315,1,0,0:0:0:0:
109,192,166513,1,0,0:0:0:0:
182,192,166712,1,0,0:0:0:0:
329,192,166712,1,0,0:0:0:0:
475,192,167110,1,0,0:0:0:0:
36,192,167110,1,0,0:0:0:0:
182,192,167408,1,0,0:0:0:0:
256,192,167706,1,0,0:0:0:0:
402,192,167706,1,0,0:0:0:0:
329,192,168103,1,0,0:0:0:0:
182,192,168302,1,0,0:0:0:0:
329,192,168500,1,0,0:0:0:0:
109,192,168699,1,0,0:0:0:0:
475,192,168699,1,0,0:0:0:0:
256,192,168997,1,0,0:0:0:0:
36,192,169295,1,0,0:0:0:0:
475,192,169295,1,0,0:0:0:0:
329,192,169692,1,0,0:0:0:0:
109,192,169891,1,0,0:0:0:0:
402,192,170090,1,0,0:0:0:0:
182,192,170288,1,0,0:0:0:0:
402,192,170487,1,0,0:0:0:0:
109,192,170686,1,0,0:0:0:0:
329,192,170884,1,0,0:0:0:0:
109,192,171083,128,0,171480:0:0:0:0:
256,192,171480,1,0,0:0:0:0:
402,192,171480,128,0,171878:0:0:0:0:
329,192,171878,5,0,0:0:0:0:
182,192,171878,1,0,0:0:0:0:
329,192,172076,1,0,0:0:0:0:
182,192,172076,1,0,0:0:0:0:
329,192,173070,128,0,173467:0:0:0:0:
109,192,173467,1,0,0:0:0:0:
329,192,174461,1,0,0:0:0:0:
329,192,174659,1,0,0:0:0:0:
329,192,174858,1,0,0:0:0:0:
182,192,175454,1,0,0:0:0:0:
109,192,175851,1,0,0:0:0:0:
36,192,176249,1,0,0:0:0:0:
402,192,176646,1,0,0:0:0:0:
182,192,178037,1,0,0:0:0:0:
36,192,178633,1,0,0:0:0:0:
329,192,179030,1,0,0:0:0:0:
402,192,179229,1,0,0:0:0:0:
109,192,179626,1,0,0:0:0:0:
329,192,179725,1,0,0:0:0:0:
182,192,179825,1,0,0:0:0:0:
182,192,180818,1,0,0:0:0:0:
36,192,181215,1,0,0:0:0:0:
329,192,182209,1,0,0:0:0:0:
109,192,183004,1,0,0:0:0:0:
402,192,183004,1,0,0:0:0:0:
329,192,183600,1,0,0:0:0:0:
109,192,183997,1,0,0:0:0:0:
475,192,184394,128,0,184990:0:0:0:0:
256,192,184990,128,0,185388:0:0:0:0:
36,192,185388,128,0,185785:0:0:0:0:
329,192,185785,1,0,0:0:0:0:
475,192,186182,1,0,0:0:0:0:
36,192,186182,1,0,0:0:0:0:
329,192,186580,1,0,0:0:0:0:
402,192,186977,1,0,0:0:0:0:
109,192,186977,1,0,0:0:0:0:
329,192,187176,1,0,0:0:0:0:
256,192,187374,1,0,0:0:0:0:
36,192,187573,1,0,0:0:0:0:
182,192,187772,1,0,0:0:0:0:
402,192,187772,1,0,0:0:0:0:
329,192,187970,1,0,0:0:0:0:
256,192,188169,1,0,0:0:0:0:
109,192,188368,1,0,0:0:0:0:
475,192,188566,1,0,0:0:0:0:
329,192,188566,1,0,0:0:0:0:
182,192,188964,1,0,0:0:0:0:
329,192,188964,1,0,0:0:0:0:
182,192,189361,1,0,0:0:0:0:
36,192,189361,1,0,0:0:0:0:
402,192,189361,1,0,0:0:0:0:
329,192,189560,1,0,0:0:0:0:
256,192,189759,1,0,0:0:0:0:
475,192,189957,1,0,0:0:0:0:
329,192,190156,1,0,0:0:0:0:
109,192,190156,1,0,0:0:0:0:
182,192,190355,1,0,0:0:0:0:
256,192,190553,1,0,0:0:0:0:
36,192,190752,1,0,0:0:0:0:
402,192,190951,1,0,0:0:0:0:
182,192,190951,1,0,0:0:0:0:
329,192,191149,1,0,0:0:0:0:
256,192,191348,1,0,0:0:0:0:
182,192,191745,1,0,0:0:0:0:
109,192,192143,1,0,0:0:0:0:
402,192,192143,1,0,0:0:0:0:
36,192,192540,1,0,0:0:0:0:
475,192,192540,1,0,0:0:0:0:
329,192,192937,1,0,0:0:0:0:
256,192,193136,1,0,0:0:0:0:
182,192,193335,1,0,0:0:0:0:
475,192,193335,1,0,0:0:0:0:
329,192,193732,1,0,0:0:0:0:
36,192,194129,1,0,0:0:0:0:
475,192,194129,1,0,0:0:0:0:
182,192,194527,1,0,0:0:0:0:
256,192,194725,1,0,0:0:0:0:
329,192,194924,1,0,0:0:0:0:
182,192,195321,1,0,0:0:0:0:
36,192,195719,1,0,0:0:0:0:
402,192,195719,128,0,196116:0:0:0:0:
182,192,196116,128,0,196513:0:0:0:0:
475,192,196513,128,0,196911:0:0:0:0:
109,192,196911,128,0,197308:0:0:0:0:
329,192,197308,128,0,197706:0:0:0:0:
36,192,197706,128,0,198103:0:0:0:0:
402,192,198103,128,0,198500:0:0:0:0:
182,192,198500,128,0,198898:0:0:0:0:
36,192,198898,1,0,0:0:0:0:
475,192,198898,1,0,0:0:0:0:
329,192,199096,1,0,0:0:0:0:
182,192,199295,1,0,0:0:0:0:
329,192,199494,1,0,0:0:0:0:
475,192,199692,1,0,0:0:0:0:
36,192,199692,1,0,0:0:0:0:
109,192,199990,1,0,0:0:0:0:
402,192,199990,1,0,0:0:0:0:
182,192,200288,1,0,0:0:0:0:
329,192,200288,1,0,0:0:0:0:
182,192,200884,128,0,202076:0:0:0:0:
329,192,200884,128,0,202076:0:0:0:0:
36,192,202076,1,0,0:0:0:0:
475,192,202076,1,0,0:0:0:0:
329,192,202374,1,0,0:0:0:0:
109,192,202672,1,0,0:0:0:0:
402,192,202871,1,0,0:0:0:0:
182,192,203070,1,0,0:0:0:0:
36,192,203467,1,0,0:0:0:0:
475,192,203467,1,0,0:0:0:0:
182,192,203864,1,0,0:0:0:0:
402,192,204063,1,0,0:0:0:0:
329,192,204461,1,0,0:0:0:0:
182,192,204858,1,0,0:0:0:0:
36,192,205255,1,0,0:0:0:0:
475,192,205255,1,0,0:0:0:0:
36,192,206050,1,0,0:0:0:0:
475,192,206050,1,0,0:0:0:0:
329,192,206348,1,0,0:0:0:0:
182,192,206646,1,0,0:0:0:0:
36,192,206845,1,0,0:0:0:0:
475,192,206845,1,0,0:0:0:0:
36,192,207143,1,0,0:0:0:0:
475,192,207143,1,0,0:0:0:0:
36,192,207441,1,0,0:0:0:0:
475,192,207441,1,0,0:0:0:0:
329,192,208434,1,0,0:0:0:0:
475,192,208434,1,0,0:0:0:0:
109,192,208732,1,0,0:0:0:0:
329,192,209030,1,0,0:0:0:0:
182,192,209229,1,0,0:0:0:0:
36,192,209229,1,0,0:0:0:0:
329,192,209427,1,0,0:0:0:0:
109,192,209825,1,0,0:0:0:0:
402,192,210023,1,0,0:0:0:0:
256,192,210023,1,0,0:0:0:0:
109,192,210321,1,0,0:0:0:0:
329,192,210619,1,0,0:0:0:0:
182,192,210818,1,0,0:0:0:0:
36,192,210818,1,0,0:0:0:0:
329,192,211017,1,0,0:0:0:0:
402,192,211414,1,0,0:0:0:0:
256,192,211613,1,0,0:0:0:0:
36,192,211613,1,0,0:0:0:0:
109,192,211911,1,0,0:0:0:0:
329,192,211911,1,0,0:0:0:0:
256,192,212209,1,0,0:0:0:0:
475,192,212209,1,0,0:0:0:0:
182,192,212408,1,0,0:0:0:0:
402,192,212408,1,0,0:0:0:0:
109,192,212706,1,0,0:0:0:0:
329,192,212706,1,0,0:0:0:0:
256,192,213004,1,0,0:0:0:0:
36,192,213004,1,0,0:0:0:0:
182,192,213202,1,0,0:0:0:0:
329,192,213202,1,0,0:0:0:0:
329,192,213500,1,0,0:0:0:0:
182,192,213500,1,0,0:0:0:0:
475,192,213798,1,0,0:0:0:0:
36,192,213798,1,0,0:0:0:0:
475,192,215189,5,0,0:0:0:0:
109,192,215189,1,0,0:0:0:0:
256,192,215388,1,0,0:0:0:0:
402,192,215586,1,0,0:0:0:0:
36,192,215586,1,0,0:0:0:0:
182,192,215785,1,0,0:0:0:0:
475,192,215984,1,0,0:0:0:0:
329,192,215984,1,0,0:0:0:0:
36,192,216381,1,0,0:0:0:0:
182,192,216381,1,0,0:0:0:0:
329,192,216580,1,0,0:0:0:0:
182,192,216778,1,0,0:0:0:0:
475,192,216778,1,0,0:0:0:0:
475,192,217176,1,0,0:0:0:0:
329,192,217176,1,0,0:0:0:0:
182,192,217374,1,0,0:0:0:0:
36,192,217573,1,0,0:0:0:0:
329,192,217573,1,0,0:0:0:0:
475,192,217970,1,0,0:0:0:0:
36,192,217970,1,0,0:0:0:0:
402,192,218368,1,0,0:0:0:0:
109,192,218368,1,0,0:0:0:0:
256,192,218566,1,0,0:0:0:0:
475,192,218765,1,0,0:0:0:0:
36,192,218765,1,0,0:0:0:0:
402,192,219162,1,0,0:0:0:0:
109,192,219162,1,0,0:0:0:0:
182,192,219361,1,0,0:0:0:0:
475,192,219560,1,0,0:0:0:0:
256,192,219560,1,0,0:0:0:0:
182,192,219759,1,0,0:0:0:0:
109,192,219957,1,0,0:0:0:0:
402,192,219957,1,0,0:0:0:0:
256,192,220156,1,0,0:0:0:0:
475,192,220355,1,0,0:0:0:0:
36,192,220355,1,0,0:0:0:0:
402,192,220553,1,0,0:0:0:0:
182,192,220752,1,0,0:0:0:0:
329,192,220752,1,0,0:0:0:0:
475,192,221149,1,0,0:0:0:0:
36,192,221149,1,0,0:0:0:0:
402,192,221547,1,0,0:0:0:0:
109,192,221745,1,0,0:0:0:0:
256,192,221745,1,0,0:0:0:0:
182,192,222143,1,0,0:0:0:0:
329,192,222341,1,0,0:0:0:0:
182,192,222540,1,0,0:0:0:0:
36,192,222739,1,0,0:0:0:0:
402,192,222739,1,0,0:0:0:0:
256,192,223136,1,0,0:0:0:0:
109,192,223335,1,0,0:0:0:0:
402,192,223335,1,0,0:0:0:0:
36,192,223732,1,0,0:0:0:0:
402,192,223931,1,0,0:0:0:0:
109,192,224129,1,0,0:0:0:0:
402,192,224328,128,0,224725:0:0:0:0:
109,192,224725,128,0,225123:0:0:0:0:
256,192,225123,128,0,225520:0:0:0:0:
475,192,225520,1,0,0:0:0:0:
36,192,225520,1,0,0:0:0:0:
256,192,225719,1,0,0:0:0:0:
329,192,226116,1,0,0:0:0:0:
182,192,226116,1,0,0:0:0:0:
182,192,226315,1,0,0:0:0:0:
329,192,226315,1,0,0:0:0:0:
329,192,227507,1,0,0:0:0:0:
36,192,227507,1,0,0:0:0:0:
182,192,227904,1,0,0:0:0:0:
402,192,227904,1,0,0:0:0:0:
475,192,228302,1,0,0:0:0:0:
109,192,228302,1,0,0:0:0:0:
256,192,228500,1,0,0:0:0:0:
402,192,228699,1,0,0:0:0:0:
36,192,228699,1,0,0:0:0:0:
36,192,229096,1,0,0:0:0:0:
329,192,229096,1,0,0:0:0:0:
182,192,229295,1,0,0:0:0:0:
475,192,229494,1,0,0:0:0:0:
329,192,229494,1,0,0:0:0:0:
475,192,229891,1,0,0:0:0:0:
109,192,229891,1,0,0:0:0:0:
329,192,230090,1,0,0:0:0:0:
182,192,230288,1,0,0:0:0:0:
36,192,230288,1,0,0:0:0:0:
109,192,230686,1,0,0:0:0:0:
329,192,230686,1,0,0:0:0:0:
402,192,231083,1,0,0:0:0:0:
182,192,231083,1,0,0:0:0:0:
36,192,231480,1,0,0:0:0:0:
402,192,231679,1,0,0:0:0:0:
109,192,231878,1,0,0:0:0:0:
329,192,231878,1,0,0:0:0:0:
256,192,232076,1,0,0:0:0:0:
475,192,232275,1,0,0:0:0:0:
36,192,232275,1,0,0:0:0:0:
109,192,232672,1,0,0:0:0:0:
402,192,232672,1,0,0:0:0:0:
256,192,232871,1,0,0:0:0:0:
475,192,233070,1,0,0:0:0:0:
36,192,233070,1,0,0:0:0:0:
402,192,233268,1,0,0:0:0:0:
109,192,233268,1,0,0:0:0:0:
182,192,233467,1,0,0:0:0:0:
329,192,233467,1,0,0:0:0:0:
256,192,233666,1,0,0:0:0:0:
475,192,233864,1,0,0:0:0:0:
36,192,233864,1,0,0:0:0:0:
109,192,234262,1,0,0:0:0:0:
256,192,234262,1,0,0:0:0:0:
402,192,234461,1,0,0:0:0:0:
329,192,234858,1,0,0:0:0:0:
182,192,235057,1,0,0:0:0:0:
36,192,235057,1,0,0:0:0:0:
329,192,235255,1,0,0:0:0:0:
109,192,235454,1,0,0:0:0:0:
475,192,235454,1,0,0:0:0:0:
256,192,235851,1,0,0:0:0:0:
36,192,235851,1,0,0:0:0:0:
402,192,236050,1,0,0:0:0:0:
475,192,236447,1,0,0:0:0:0:
329,192,236646,1,0,0:0:0:0:
109,192,236646,1,0,0:0:0:0:
182,192,236845,1,0,0:0:0:0:
256,192,237043,1,0,0:0:0:0:
475,192,237043,1,0,0:0:0:0:
402,192,237341,1,0,0:0:0:0:
182,192,237341,1,0,0:0:0:0:
256,192,237639,1,0,0:0:0:0:
36,192,237639,1,0,0:0:0:0:
329,192,237838,1,0,0:0:0:0:
109,192,237838,1,0,0:0:0:0:
402,192,238136,1,0,0:0:0:0:
182,192,238136,1,0,0:0:0:0:
256,192,238434,1,0,0:0:0:0:
475,192,238434,1,0,0:0:0:0:
329,192,238633,1,0,0:0:0:0:
182,192,238633,1,0,0:0:0:0:
182,192,238931,1,0,0:0:0:0:
329,192,238931,1,0,0:0:0:0:
109,192,239229,1,0,0:0:0:0:
402,192,239229,1,0,0:0:0:0:
475,192,239626,1,0,0:0:0:0:
36,192,239626,1,0,0:0:0:0:
402,192,239825,1,0,0:0:0:0:
109,192,239825,1,0,0:0:0:0:
329,192,240023,1,0,0:0:0:0:
182,192,240023,1,0,0:0:0:0:
36,192,240222,1,0,0:0:0:0:
475,192,240222,1,0,0:0:0:0:
109,192,240619,1,0,0:0:0:0:
256,192,240619,1,0,0:0:0:0:
329,192,240818,1,0,0:0:0:0:
36,192,241017,1,0,0:0:0:0:
402,192,241017,1,0,0:0:0:0:
182,192,241215,1,0,0:0:0:0:
329,192,241414,1,0,0:0:0:0:
475,192,241414,1,0,0:0:0:0:
182,192,241811,1,0,0:0:0:0:
36,192,241811,1,0,0:0:0:0:
329,192,242010,1,0,0:0:0:0:
475,192,242209,1,0,0:0:0:0:
182,192,242209,1,0,0:0:0:0:
329,192,242606,1,0,0:0:0:0:
475,192,242606,1,0,0:0:0:0:
182,192,242805,1,0,0:0:0:0:
329,192,243004,1,0,0:0:0:0:
36,192,243004,1,0,0:0:0:0:
36,192,243401,1,0,0:0:0:0:
475,192,243401,1,0,0:0:0:0:
109,192,243798,1,0,0:0:0:0:
329,192,243798,1,0,0:0:0:0:
475,192,243997,1,0,0:0:0:0:
36,192,244196,1,0,0:0:0:0:
256,192,244196,1,0,0:0:0:0:
402,192,244593,1,0,0:0:0:0:
182,192,244593,1,0,0:0:0:0:
36,192,244792,1,0,0:0:0:0:
475,192,244990,1,0,0:0:0:0:
256,192,244990,1,0,0:0:0:0:
36,192,245388,1,0,0:0:0:0:
475,192,245388,1,0,0:0:0:0:
109,192,245586,1,0,0:0:0:0:
402,192,245586,1,0,0:0:0:0:
182,192,245785,1,0,0:0:0:0:
329,192,245785,1,0,0:0:0:0:
256,192,245984,1,0,0:0:0:0:
475,192,246182,1,0,0:0:0:0:
36,192,246182,1,0,0:0:0:0:
402,192,246580,1,0,0:0:0:0:
182,192,246580,1,0,0:0:0:0:
329,192,246878,1,0,0:0:0:0:
256,192,247176,1,0,0:0:0:0:
109,192,247176,1,0,0:0:0:0:
182,192,247573,1,0,0:0:0:0:
329,192,247772,1,0,0:0:0:0:
182,192,247970,1,0,0:0:0:0:
402,192,248169,1,0,0:0:0:0:
36,192,248169,1,0,0:0:0:0:
109,192,248467,1,0,0:0:0:0:
182,192,248765,1,0,0:0:0:0:
475,192,248765,1,0,0:0:0:0:
182,192,249162,1,0,0:0:0:0:
402,192,249361,1,0,0:0:0:0:
109,192,249560,1,0,0:0:0:0:
329,192,249759,1,0,0:0:0:0:
109,192,249957,1,0,0:0:0:0:
402,192,250156,1,0,0:0:0:0:
182,192,250355,1,0,0:0:0:0:
402,192,250553,128,0,250951:0:0:0:0:
109,192,250951,128,0,251348:0:0:0:0:
182,192,251348,5,0,0:0:0:0:
329,192,251348,1,0,0:0:0:0:
182,192,251547,1,0,0:0:0:0:
329,192,251547,1,0,0:0:0:0:
109,192,252937,5,0,0:0:0:0:
402,192,252937,1,0,0:0:0:0:
109,192,253533,1,0,0:0:0:0:
402,192,253732,1,0,0:0:0:0:
182,192,253931,1,0,0:0:0:0:
329,192,254328,1,0,0:0:0:0:
329,192,254725,1,0,0:0:0:0:
109,192,254924,1,0,0:0:0:0:
475,192,255123,1,0,0:0:0:0:
402,192,255222,1,0,0:0:0:0:
329,192,255321,1,0,0:0:0:0:
182,192,255520,1,0,0:0:0:0:
329,192,255917,1,0,0:0:0:0:
475,192,256116,1,0,0:0:0:0:
36,192,256116,1,0,0:0:0:0:
109,192,256712,5,0,0:0:0:0:
402,192,256712,1,0,0:0:0:0:
182,192,257110,1,0,0:0:0:0:
329,192,257110,1,0,0:0:0:0:
36,192,257507,128,0,264063:0:0:0:0:
475,192,257507,128,0,264063:0:0:0:0:
