osu file format v14

[General]
AudioFilename: audio.mp3
AudioLeadIn: 0
PreviewTime: -1
Countdown: 0
SampleSet: Drum
StackLeniency: 0.7
Mode: 3
LetterboxInBreaks: 0
SpecialStyle: 0
WidescreenStoryboard: 0

[Editor]
DistanceSpacing: 1.4
BeatDivisor: 4
GridSize: 32
TimelineZoom: 1.5

[Metadata]
Title:Presenter
TitleUnicode:Presenter
Artist:Horie Yui
ArtistUnicode:Horie Yui
Creator:Huuks
Version:Lvl 10
Source:
Tags:
BeatmapID:1034497
BeatmapSetID:485064

[Difficulty]
HPDrainRate:5
CircleSize:4
OverallDifficulty:6
ApproachRate:5
SliderMultiplier:1.4
SliderTickRate:1

[Events]
//Background and Video events
0,0,"Presenter WP.jpg",0,0
//Break Periods
//Storyboard Layer 0 (Background)
//Storyboard Layer 1 (Fail)
//Storyboard Layer 2 (Pass)
//Storyboard Layer 3 (Foreground)
//Storyboard Layer 4 (Overlay)
//Storyboard Sound Samples

[TimingPoints]
816,397.350993377483,4,3,0,20,1,0

[HitObjects]
64,192,120,128,0,816:0:0:0:0:
192,192,418,1,0,0:0:0:0:
448,192,816,1,0,0:0:0:0:
320,192,816,1,0,0:0:0:0:
192,192,816,1,0,0:0:0:0:
320,192,1014,1,0,0:0:0:0:
192,192,1213,1,0,0:0:0:0:
64,192,1412,1,0,0:0:0:0:
448,192,1610,1,0,0:0:0:0:
320,192,1809,1,0,0:0:0:0:
192,192,1908,1,0,0:0:0:0:
64,192,2008,1,0,0:0:0:0:
192,192,2206,1,0,0:0:0:0:
448,192,2405,1,0,0:0:0:0:
192,192,2604,1,0,0:0:0:0:
320,192,2703,1,0,0:0:0:0:
64,192,2802,1,0,0:0:0:0:
320,192,3001,1,0,0:0:0:0:
64,192,3200,1,0,0:0:0:0:
192,192,3200,1,0,0:0:0:0:
192,192,3498,1,0,0:0:0:0:
448,192,3498,1,0,0:0:0:0:
64,192,3796,1,0,0:0:0:0:
448,192,3796,1,0,0:0:0:0:
192,192,3994,1,0,0:0:0:0:
320,192,3994,1,0,0:0:0:0:
448,192,3994,128,0,5385:0:0:0:0:
64,192,4193,1,0,0:0:0:0:
192,192,4292,1,0,0:0:0:0:
320,192,4392,1,0,0:0:0:0:
192,192,4590,1,0,0:0:0:0:
320,192,4789,1,0,0:0:0:0:
192,192,4888,1,0,0:0:0:0:
64,192,5087,1,0,0:0:0:0:
64,192,5286,1,0,0:0:0:0:
192,192,5385,1,0,0:0:0:0:
320,192,5484,1,0,0:0:0:0:
448,192,5584,1,0,0:0:0:0:
64,192,5782,1,0,0:0:0:0:
192,192,5981,1,0,0:0:0:0:
64,192,6180,1,0,0:0:0:0:
320,192,6279,1,0,0:0:0:0:
448,192,6279,1,0,0:0:0:0:
64,192,6378,1,0,0:0:0:0:
192,192,6378,1,0,0:0:0:0:
320,192,6577,1,0,0:0:0:0:
448,192,6577,1,0,0:0:0:0:
64,192,6776,1,0,0:0:0:0:
320,192,6776,1,0,0:0:0:0:
192,192,6974,1,0,0:0:0:0:
320,192,6974,1,0,0:0:0:0:
448,192,7173,1,0,0:0:0:0:
320,192,7173,1,0,0:0:0:0:
64,192,7173,1,0,0:0:0:0:
192,192,7372,1,0,0:0:0:0:
320,192,7372,128,0,7570:0:0:0:0:
64,192,7570,1,0,0:0:0:0:
192,192,7570,128,0,7769:0:0:0:0:
320,192,7769,1,0,0:0:0:0:
448,192,7769,128,0,7968:0:0:0:0:
192,192,7968,1,0,0:0:0:0:
64,192,7968,128,0,8166:0:0:0:0:
192,192,8266,1,0,0:0:0:0:
320,192,8365,1,0,0:0:0:0:
64,192,8564,1,0,0:0:0:0:
192,192,8564,1,0,0:0:0:0:
320,192,8663,1,0,0:0:0:0:
192,192,8763,1,0,0:0:0:0:
448,192,8763,1,0,0:0:0:0:
64,192,8763,1,0,0:0:0:0:
320,192,8961,1,0,0:0:0:0:
192,192,9061,1,0,0:0:0:0:
64,192,9160,1,0,0:0:0:0:
64,192,9359,1,0,0:0:0:0:
192,192,9359,1,0,0:0:0:0:
448,192,9359,1,0,0:0:0:0:
320,192,9557,1,0,0:0:0:0:
64,192,9756,1,0,0:0:0:0:
192,192,9955,1,0,0:0:0:0:
320,192,10153,1,0,0:0:0:0:
448,192,10153,1,0,0:0:0:0:
64,192,10153,1,0,0:0:0:0:
192,192,10352,1,0,0:0:0:0:
320,192,10451,1,0,0:0:0:0:
448,192,10551,1,0,0:0:0:0:
192,192,10650,1,0,0:0:0:0:
64,192,10749,1,0,0:0:0:0:
320,192,10749,1,0,0:0:0:0:
192,192,10849,1,0,0:0:0:0:
320,192,10948,1,0,0:0:0:0:
448,192,10948,1,0,0:0:0:0:
64,192,10948,1,0,0:0:0:0:
192,192,11047,1,0,0:0:0:0:
64,192,11147,1,0,0:0:0:0:
448,192,11246,1,0,0:0:0:0:
192,192,11345,1,0,0:0:0:0:
320,192,11445,1,0,0:0:0:0:
192,192,11544,1,0,0:0:0:0:
64,192,11544,1,0,0:0:0:0:
448,192,11643,1,0,0:0:0:0:
64,192,11743,1,0,0:0:0:0:
192,192,11743,1,0,0:0:0:0:
320,192,11743,1,0,0:0:0:0:
448,192,11842,1,0,0:0:0:0:
320,192,11941,1,0,0:0:0:0:
192,192,12041,1,0,0:0:0:0:
448,192,12140,1,0,0:0:0:0:
64,192,12239,1,0,0:0:0:0:
320,192,12339,1,0,0:0:0:0:
448,192,12339,1,0,0:0:0:0:
192,192,12438,1,0,0:0:0:0:
64,192,12537,1,0,0:0:0:0:
320,192,12537,1,0,0:0:0:0:
448,192,12537,1,0,0:0:0:0:
192,192,12637,1,0,0:0:0:0:
320,192,12736,1,0,0:0:0:0:
448,192,12835,1,0,0:0:0:0:
320,192,12935,1,0,0:0:0:0:
448,192,13034,1,0,0:0:0:0:
64,192,13133,1,0,0:0:0:0:
320,192,13133,1,0,0:0:0:0:
192,192,13233,1,0,0:0:0:0:
64,192,13332,1,0,0:0:0:0:
448,192,13332,1,0,0:0:0:0:
320,192,13332,1,0,0:0:0:0:
192,192,13431,1,0,0:0:0:0:
320,192,13531,1,0,0:0:0:0:
448,192,13630,1,0,0:0:0:0:
64,192,13729,1,0,0:0:0:0:
320,192,13829,1,0,0:0:0:0:
192,192,13928,1,0,0:0:0:0:
320,192,14027,1,0,0:0:0:0:
64,192,14127,1,0,0:0:0:0:
448,192,14226,1,0,0:0:0:0:
320,192,14325,1,0,0:0:0:0:
192,192,14325,1,0,0:0:0:0:
64,192,14425,1,0,0:0:0:0:
192,192,14524,1,0,0:0:0:0:
320,192,14623,1,0,0:0:0:0:
448,192,14723,1,0,0:0:0:0:
64,192,14723,1,0,0:0:0:0:
192,192,14822,1,0,0:0:0:0:
320,192,14921,1,0,0:0:0:0:
64,192,15021,1,0,0:0:0:0:
192,192,15120,1,0,0:0:0:0:
320,192,15120,1,0,0:0:0:0:
448,192,15219,1,0,0:0:0:0:
320,192,15319,1,0,0:0:0:0:
64,192,15319,1,0,0:0:0:0:
192,192,15418,1,0,0:0:0:0:
64,192,15517,1,0,0:0:0:0:
448,192,15517,1,0,0:0:0:0:
192,192,15617,1,0,0:0:0:0:
320,192,15716,1,0,0:0:0:0:
64,192,15716,1,0,0:0:0:0:
448,192,15815,1,0,0:0:0:0:
320,192,15915,1,0,0:0:0:0:
192,192,15915,1,0,0:0:0:0:
64,192,15981,1,0,0:0:0:0:
192,192,16047,1,0,0:0:0:0:
320,192,16114,1,0,0:0:0:0:
448,192,16180,1,0,0:0:0:0:
64,192,16246,1,0,0:0:0:0:
192,192,16312,1,0,0:0:0:0:
320,192,16378,1,0,0:0:0:0:
448,192,16445,1,0,0:0:0:0:
64,192,16511,1,0,0:0:0:0:
192,192,16577,1,0,0:0:0:0:
320,192,16643,1,0,0:0:0:0:
448,192,16710,1,0,0:0:0:0:
64,192,16710,1,0,0:0:0:0:
192,192,16908,1,0,0:0:0:0:
320,192,16908,1,0,0:0:0:0:
64,192,17107,1,0,0:0:0:0:
320,192,17107,1,0,0:0:0:0:
192,192,17306,128,0,17703:0:0:0:0:
448,192,17504,1,0,0:0:0:0:
320,192,17504,1,0,0:0:0:0:
320,192,17703,128,0,18100:0:0:0:0:
448,192,17902,1,0,0:0:0:0:
192,192,17902,1,0,0:0:0:0:
64,192,18001,1,0,0:0:0:0:
448,192,18100,128,0,18498:0:0:0:0:
192,192,18200,1,0,0:0:0:0:
320,192,18299,1,0,0:0:0:0:
64,192,18299,1,0,0:0:0:0:
192,192,18398,1,0,0:0:0:0:
64,192,18498,128,0,18696:0:0:0:0:
320,192,18696,128,0,18895:0:0:0:0:
448,192,18696,1,0,0:0:0:0:
192,192,18895,128,0,19888:0:0:0:0:
448,192,18994,1,0,0:0:0:0:
64,192,19094,1,0,0:0:0:0:
320,192,19094,1,0,0:0:0:0:
448,192,19193,1,0,0:0:0:0:
64,192,19292,1,0,0:0:0:0:
320,192,19392,1,0,0:0:0:0:
448,192,19491,1,0,0:0:0:0:
64,192,19491,1,0,0:0:0:0:
320,192,19590,1,0,0:0:0:0:
448,192,19690,1,0,0:0:0:0:
64,192,19690,1,0,0:0:0:0:
320,192,19789,1,0,0:0:0:0:
64,192,19888,1,0,0:0:0:0:
448,192,19888,128,0,20286:0:0:0:0:
192,192,20087,1,0,0:0:0:0:
64,192,20286,1,0,0:0:0:0:
192,192,20286,1,0,0:0:0:0:
192,192,20484,128,0,21080:0:0:0:0:
320,192,20484,1,0,0:0:0:0:
448,192,20683,1,0,0:0:0:0:
64,192,20683,1,0,0:0:0:0:
320,192,20782,1,0,0:0:0:0:
448,192,20882,1,0,0:0:0:0:
320,192,21080,1,0,0:0:0:0:
448,192,21080,1,0,0:0:0:0:
64,192,21180,1,0,0:0:0:0:
192,192,21279,1,0,0:0:0:0:
320,192,21279,1,0,0:0:0:0:
448,192,21378,1,0,0:0:0:0:
192,192,21478,1,0,0:0:0:0:
64,192,21478,128,0,22074:0:0:0:0:
448,192,21676,1,0,0:0:0:0:
192,192,21875,1,0,0:0:0:0:
320,192,21875,1,0,0:0:0:0:
448,192,22074,1,0,0:0:0:0:
320,192,22074,1,0,0:0:0:0:
192,192,22173,1,0,0:0:0:0:
64,192,22173,1,0,0:0:0:0:
448,192,22272,1,0,0:0:0:0:
320,192,22272,1,0,0:0:0:0:
64,192,22471,1,0,0:0:0:0:
192,192,22670,1,0,0:0:0:0:
320,192,22670,1,0,0:0:0:0:
448,192,22670,128,0,23067:0:0:0:0:
64,192,22868,1,0,0:0:0:0:
192,192,22868,1,0,0:0:0:0:
320,192,23067,1,0,0:0:0:0:
64,192,23067,128,0,23266:0:0:0:0:
192,192,23266,128,0,23465:0:0:0:0:
320,192,23266,1,0,0:0:0:0:
448,192,23465,128,0,23663:0:0:0:0:
64,192,23465,1,0,0:0:0:0:
64,192,23663,128,0,24061:0:0:0:0:
192,192,23663,1,0,0:0:0:0:
192,192,23862,1,0,0:0:0:0:
320,192,23862,1,0,0:0:0:0:
320,192,24061,128,0,24458:0:0:0:0:
448,192,24061,1,0,0:0:0:0:
192,192,24259,1,0,0:0:0:0:
64,192,24259,1,0,0:0:0:0:
448,192,24458,128,0,24855:0:0:0:0:
192,192,24458,1,0,0:0:0:0:
64,192,24657,1,0,0:0:0:0:
320,192,24657,1,0,0:0:0:0:
192,192,24855,128,0,25054:0:0:0:0:
64,192,24855,1,0,0:0:0:0:
320,192,25054,128,0,25253:0:0:0:0:
448,192,25054,1,0,0:0:0:0:
64,192,25253,128,0,26246:0:0:0:0:
192,192,25253,1,0,0:0:0:0:
448,192,25451,1,0,0:0:0:0:
320,192,25451,1,0,0:0:0:0:
192,192,25650,1,0,0:0:0:0:
320,192,25749,1,0,0:0:0:0:
448,192,25849,1,0,0:0:0:0:
192,192,25948,1,0,0:0:0:0:
320,192,26047,1,0,0:0:0:0:
448,192,26147,1,0,0:0:0:0:
192,192,26246,128,0,26544:0:0:0:0:
320,192,26246,1,0,0:0:0:0:
320,192,26544,1,0,0:0:0:0:
448,192,26544,128,0,26842:0:0:0:0:
192,192,26842,1,0,0:0:0:0:
64,192,26842,128,0,27041:0:0:0:0:
320,192,27041,128,0,27438:0:0:0:0:
448,192,27041,1,0,0:0:0:0:
192,192,27438,128,0,27637:0:0:0:0:
64,192,27438,1,0,0:0:0:0:
448,192,27637,128,0,31014:0:0:0:0:
320,192,27637,128,0,28431:0:0:0:0:
64,192,28431,1,0,0:0:0:0:
192,192,28630,1,0,0:0:0:0:
64,192,28829,1,0,0:0:0:0:
192,192,29027,1,0,0:0:0:0:
320,192,29226,1,0,0:0:0:0:
64,192,29425,1,0,0:0:0:0:
320,192,30021,1,0,0:0:0:0:
192,192,30219,1,0,0:0:0:0:
320,192,30418,1,0,0:0:0:0:
192,192,30617,1,0,0:0:0:0:
64,192,30815,1,0,0:0:0:0:
192,192,31014,128,0,31412:0:0:0:0:
320,192,31610,128,0,32008:0:0:0:0:
64,192,32206,1,0,0:0:0:0:
320,192,32405,1,0,0:0:0:0:
448,192,32604,128,0,33001:0:0:0:0:
192,192,32802,1,0,0:0:0:0:
64,192,33001,1,0,0:0:0:0:
192,192,33200,128,0,33597:0:0:0:0:
320,192,33597,1,0,0:0:0:0:
448,192,33796,1,0,0:0:0:0:
192,192,33994,1,0,0:0:0:0:
64,192,34193,128,0,34590:0:0:0:0:
320,192,34392,1,0,0:0:0:0:
192,192,34590,1,0,0:0:0:0:
448,192,34789,128,0,35186:0:0:0:0:
64,192,35186,1,0,0:0:0:0:
192,192,35385,1,0,0:0:0:0:
448,192,35584,1,0,0:0:0:0:
320,192,35782,128,0,36180:0:0:0:0:
64,192,35981,1,0,0:0:0:0:
192,192,36180,1,0,0:0:0:0:
448,192,36378,1,0,0:0:0:0:
320,192,36478,1,0,0:0:0:0:
64,192,36577,128,0,36974:0:0:0:0:
192,192,36776,1,0,0:0:0:0:
448,192,36974,1,0,0:0:0:0:
192,192,37173,1,0,0:0:0:0:
64,192,37372,1,0,0:0:0:0:
320,192,37372,1,0,0:0:0:0:
448,192,37372,1,0,0:0:0:0:
192,192,37570,1,0,0:0:0:0:
320,192,37769,1,0,0:0:0:0:
448,192,37769,1,0,0:0:0:0:
64,192,37968,1,0,0:0:0:0:
192,192,37968,1,0,0:0:0:0:
320,192,38067,1,0,0:0:0:0:
448,192,38067,1,0,0:0:0:0:
64,192,38365,1,0,0:0:0:0:
192,192,38365,1,0,0:0:0:0:
192,192,38564,1,0,0:0:0:0:
448,192,38564,1,0,0:0:0:0:
64,192,38763,1,0,0:0:0:0:
320,192,38763,1,0,0:0:0:0:
192,192,38961,1,0,0:0:0:0:
320,192,38961,1,0,0:0:0:0:
448,192,39160,1,0,0:0:0:0:
192,192,39359,1,0,0:0:0:0:
64,192,39359,1,0,0:0:0:0:
64,192,39557,1,0,0:0:0:0:
448,192,39557,1,0,0:0:0:0:
192,192,39657,1,0,0:0:0:0:
320,192,39657,1,0,0:0:0:0:
64,192,39955,1,0,0:0:0:0:
192,192,39955,1,0,0:0:0:0:
192,192,40153,1,0,0:0:0:0:
448,192,40153,1,0,0:0:0:0:
64,192,40352,128,0,40749:0:0:0:0:
448,192,40551,1,0,0:0:0:0:
320,192,40551,128,0,40749:0:0:0:0:
192,192,40749,128,0,40948:0:0:0:0:
320,192,40948,128,0,41147:0:0:0:0:
448,192,41147,128,0,41544:0:0:0:0:
64,192,41147,1,0,0:0:0:0:
320,192,41544,128,0,41743:0:0:0:0:
192,192,41743,128,0,41941:0:0:0:0:
64,192,41941,128,0,42339:0:0:0:0:
448,192,41941,1,0,0:0:0:0:
448,192,42339,1,0,0:0:0:0:
320,192,42339,1,0,0:0:0:0:
192,192,42405,1,0,0:0:0:0:
320,192,42471,1,0,0:0:0:0:
448,192,42537,5,0,0:0:0:0:
64,192,42537,1,0,0:0:0:0:
192,192,42736,1,0,0:0:0:0:
448,192,42835,1,0,0:0:0:0:
320,192,42835,1,0,0:0:0:0:
192,192,42935,1,0,0:0:0:0:
64,192,42935,1,0,0:0:0:0:
448,192,43034,1,0,0:0:0:0:
320,192,43133,1,0,0:0:0:0:
192,192,43133,1,0,0:0:0:0:
448,192,43233,1,0,0:0:0:0:
64,192,43332,1,0,0:0:0:0:
320,192,43431,1,0,0:0:0:0:
192,192,43531,1,0,0:0:0:0:
448,192,43531,1,0,0:0:0:0:
64,192,43729,128,0,44127:0:0:0:0:
192,192,44127,128,0,44524:0:0:0:0:
320,192,44127,128,0,44524:0:0:0:0:
192,192,44723,128,0,44921:0:0:0:0:
448,192,44723,128,0,44921:0:0:0:0:
64,192,45120,128,0,45716:0:0:0:0:
192,192,45120,128,0,45716:0:0:0:0:
448,192,45517,1,0,0:0:0:0:
320,192,45716,1,0,0:0:0:0:
192,192,45915,1,0,0:0:0:0:
64,192,46114,1,0,0:0:0:0:
448,192,46114,1,0,0:0:0:0:
192,192,46312,1,0,0:0:0:0:
320,192,46312,1,0,0:0:0:0:
448,192,46511,1,0,0:0:0:0:
320,192,46610,1,0,0:0:0:0:
192,192,46710,1,0,0:0:0:0:
448,192,46809,1,0,0:0:0:0:
320,192,46809,1,0,0:0:0:0:
64,192,46908,128,0,47306:0:0:0:0:
320,192,47206,1,0,0:0:0:0:
448,192,47306,128,0,47703:0:0:0:0:
192,192,47306,128,0,47703:0:0:0:0:
192,192,47902,128,0,48100:0:0:0:0:
64,192,47902,128,0,48100:0:0:0:0:
320,192,48100,1,0,0:0:0:0:
448,192,48299,128,0,48895:0:0:0:0:
64,192,48299,128,0,48895:0:0:0:0:
192,192,48696,1,0,0:0:0:0:
320,192,48696,1,0,0:0:0:0:
192,192,48895,1,0,0:0:0:0:
448,192,49094,1,0,0:0:0:0:
320,192,49292,1,0,0:0:0:0:
192,192,49491,1,0,0:0:0:0:
64,192,49690,1,0,0:0:0:0:
448,192,49789,1,0,0:0:0:0:
192,192,49888,1,0,0:0:0:0:
320,192,49988,1,0,0:0:0:0:
64,192,50087,1,0,0:0:0:0:
192,192,50087,1,0,0:0:0:0:
448,192,50385,1,0,0:0:0:0:
320,192,50385,1,0,0:0:0:0:
192,192,50484,1,0,0:0:0:0:
64,192,50484,1,0,0:0:0:0:
320,192,50683,1,0,0:0:0:0:
448,192,50683,128,0,51080:0:0:0:0:
64,192,51080,1,0,0:0:0:0:
320,192,51080,1,0,0:0:0:0:
448,192,51279,1,0,0:0:0:0:
192,192,51478,1,0,0:0:0:0:
64,192,51478,1,0,0:0:0:0:
192,192,51676,1,0,0:0:0:0:
320,192,51676,1,0,0:0:0:0:
448,192,51676,128,0,52272:0:0:0:0:
320,192,51974,1,0,0:0:0:0:
64,192,51974,1,0,0:0:0:0:
192,192,52272,1,0,0:0:0:0:
320,192,52272,1,0,0:0:0:0:
64,192,52272,128,0,52670:0:0:0:0:
192,192,52670,1,0,0:0:0:0:
448,192,52868,1,0,0:0:0:0:
320,192,53067,1,0,0:0:0:0:
64,192,53266,1,0,0:0:0:0:
192,192,53266,1,0,0:0:0:0:
448,192,53266,1,0,0:0:0:0:
320,192,53365,1,0,0:0:0:0:
448,192,53465,1,0,0:0:0:0:
192,192,53564,1,0,0:0:0:0:
64,192,53663,1,0,0:0:0:0:
448,192,53663,1,0,0:0:0:0:
192,192,53763,1,0,0:0:0:0:
448,192,53862,1,0,0:0:0:0:
192,192,53961,1,0,0:0:0:0:
320,192,54061,1,0,0:0:0:0:
64,192,54061,1,0,0:0:0:0:
448,192,54160,1,0,0:0:0:0:
192,192,54259,1,0,0:0:0:0:
64,192,54359,1,0,0:0:0:0:
320,192,54458,1,0,0:0:0:0:
192,192,54458,1,0,0:0:0:0:
448,192,54557,1,0,0:0:0:0:
320,192,54657,1,0,0:0:0:0:
192,192,54756,1,0,0:0:0:0:
448,192,54855,1,0,0:0:0:0:
64,192,54855,1,0,0:0:0:0:
320,192,54955,1,0,0:0:0:0:
64,192,55054,1,0,0:0:0:0:
448,192,55054,1,0,0:0:0:0:
192,192,55153,1,0,0:0:0:0:
448,192,55253,1,0,0:0:0:0:
64,192,55253,1,0,0:0:0:0:
320,192,55352,1,0,0:0:0:0:
192,192,55451,1,0,0:0:0:0:
448,192,55451,1,0,0:0:0:0:
320,192,55551,1,0,0:0:0:0:
64,192,55650,1,0,0:0:0:0:
192,192,55650,1,0,0:0:0:0:
320,192,55749,1,0,0:0:0:0:
448,192,55849,1,0,0:0:0:0:
320,192,55948,1,0,0:0:0:0:
192,192,56047,1,0,0:0:0:0:
64,192,56147,1,0,0:0:0:0:
192,192,56246,1,0,0:0:0:0:
320,192,56345,1,0,0:0:0:0:
448,192,56445,1,0,0:0:0:0:
64,192,56445,1,0,0:0:0:0:
192,192,56544,1,0,0:0:0:0:
448,192,56643,1,0,0:0:0:0:
64,192,56743,1,0,0:0:0:0:
320,192,56743,1,0,0:0:0:0:
192,192,56842,1,0,0:0:0:0:
64,192,56941,1,0,0:0:0:0:
192,192,57041,1,0,0:0:0:0:
320,192,57041,1,0,0:0:0:0:
448,192,57140,1,0,0:0:0:0:
64,192,57239,1,0,0:0:0:0:
192,192,57306,1,0,0:0:0:0:
320,192,57372,1,0,0:0:0:0:
448,192,57438,1,0,0:0:0:0:
64,192,57504,1,0,0:0:0:0:
192,192,57570,1,0,0:0:0:0:
320,192,57637,1,0,0:0:0:0:
448,192,57703,1,0,0:0:0:0:
64,192,57769,1,0,0:0:0:0:
320,192,57835,1,0,0:0:0:0:
192,192,57835,1,0,0:0:0:0:
320,192,58233,1,0,0:0:0:0:
448,192,58233,1,0,0:0:0:0:
64,192,58233,1,0,0:0:0:0:
192,192,58431,1,0,0:0:0:0:
320,192,58431,1,0,0:0:0:0:
64,192,58431,128,0,59623:0:0:0:0:
192,192,58630,1,0,0:0:0:0:
448,192,58829,1,0,0:0:0:0:
320,192,59027,1,0,0:0:0:0:
192,192,59226,1,0,0:0:0:0:
320,192,59425,1,0,0:0:0:0:
192,192,59623,1,0,0:0:0:0:
320,192,59623,1,0,0:0:0:0:
448,192,59623,1,0,0:0:0:0:
448,192,59822,1,0,0:0:0:0:
320,192,59921,1,0,0:0:0:0:
64,192,60021,1,0,0:0:0:0:
192,192,60021,1,0,0:0:0:0:
448,192,60021,1,0,0:0:0:0:
320,192,60219,1,0,0:0:0:0:
192,192,60418,1,0,0:0:0:0:
448,192,60418,1,0,0:0:0:0:
192,192,60617,1,0,0:0:0:0:
64,192,60716,1,0,0:0:0:0:
192,192,60815,1,0,0:0:0:0:
320,192,60815,1,0,0:0:0:0:
448,192,60815,1,0,0:0:0:0:
320,192,61014,1,0,0:0:0:0:
192,192,61213,1,0,0:0:0:0:
320,192,61213,1,0,0:0:0:0:
320,192,61412,1,0,0:0:0:0:
448,192,61511,1,0,0:0:0:0:
320,192,61610,1,0,0:0:0:0:
64,192,61610,1,0,0:0:0:0:
192,192,61610,1,0,0:0:0:0:
448,192,61710,1,0,0:0:0:0:
320,192,61809,1,0,0:0:0:0:
192,192,61908,1,0,0:0:0:0:
64,192,62008,1,0,0:0:0:0:
192,192,62107,1,0,0:0:0:0:
320,192,62206,1,0,0:0:0:0:
448,192,62306,1,0,0:0:0:0:
320,192,62405,1,0,0:0:0:0:
192,192,62504,1,0,0:0:0:0:
64,192,62604,1,0,0:0:0:0:
192,192,62703,1,0,0:0:0:0:
320,192,62802,1,0,0:0:0:0:
448,192,62802,1,0,0:0:0:0:
192,192,63001,1,0,0:0:0:0:
320,192,63100,1,0,0:0:0:0:
64,192,63200,1,0,0:0:0:0:
192,192,63200,1,0,0:0:0:0:
448,192,63200,1,0,0:0:0:0:
320,192,63398,1,0,0:0:0:0:
192,192,63597,1,0,0:0:0:0:
320,192,63597,1,0,0:0:0:0:
192,192,63796,1,0,0:0:0:0:
64,192,63895,1,0,0:0:0:0:
192,192,63994,1,0,0:0:0:0:
320,192,63994,1,0,0:0:0:0:
448,192,63994,1,0,0:0:0:0:
448,192,64193,1,0,0:0:0:0:
64,192,64392,1,0,0:0:0:0:
320,192,64392,1,0,0:0:0:0:
192,192,64590,1,0,0:0:0:0:
320,192,64690,1,0,0:0:0:0:
64,192,64789,1,0,0:0:0:0:
192,192,64789,1,0,0:0:0:0:
448,192,64789,1,0,0:0:0:0:
320,192,64988,1,0,0:0:0:0:
64,192,65186,1,0,0:0:0:0:
448,192,65186,1,0,0:0:0:0:
192,192,65385,1,0,0:0:0:0:
320,192,65385,1,0,0:0:0:0:
64,192,65584,1,0,0:0:0:0:
192,192,65584,1,0,0:0:0:0:
448,192,65584,1,0,0:0:0:0:
320,192,65782,1,0,0:0:0:0:
448,192,65782,1,0,0:0:0:0:
64,192,65981,1,0,0:0:0:0:
320,192,65981,1,0,0:0:0:0:
192,192,66180,1,0,0:0:0:0:
64,192,66279,1,0,0:0:0:0:
192,192,66378,1,0,0:0:0:0:
320,192,66378,1,0,0:0:0:0:
448,192,66378,1,0,0:0:0:0:
192,192,66577,1,0,0:0:0:0:
320,192,66577,1,0,0:0:0:0:
64,192,66676,1,0,0:0:0:0:
192,192,66776,1,0,0:0:0:0:
320,192,66875,1,0,0:0:0:0:
448,192,66974,1,0,0:0:0:0:
192,192,66974,1,0,0:0:0:0:
320,192,67074,1,0,0:0:0:0:
64,192,67173,1,0,0:0:0:0:
192,192,67173,1,0,0:0:0:0:
448,192,67173,1,0,0:0:0:0:
320,192,67272,1,0,0:0:0:0:
192,192,67372,1,0,0:0:0:0:
448,192,67372,1,0,0:0:0:0:
64,192,67471,1,0,0:0:0:0:
448,192,67570,1,0,0:0:0:0:
320,192,67570,1,0,0:0:0:0:
192,192,67769,1,0,0:0:0:0:
64,192,67769,1,0,0:0:0:0:
320,192,67868,1,0,0:0:0:0:
64,192,67968,1,0,0:0:0:0:
192,192,67968,1,0,0:0:0:0:
448,192,67968,1,0,0:0:0:0:
320,192,68166,1,0,0:0:0:0:
448,192,68166,1,0,0:0:0:0:
192,192,68365,1,0,0:0:0:0:
320,192,68465,1,0,0:0:0:0:
64,192,68564,1,0,0:0:0:0:
192,192,68564,1,0,0:0:0:0:
192,192,68763,1,0,0:0:0:0:
320,192,68763,1,0,0:0:0:0:
448,192,68763,1,0,0:0:0:0:
64,192,68961,1,0,0:0:0:0:
320,192,68961,1,0,0:0:0:0:
320,192,69160,1,0,0:0:0:0:
448,192,69160,1,0,0:0:0:0:
192,192,69259,1,0,0:0:0:0:
64,192,69359,1,0,0:0:0:0:
448,192,69458,1,0,0:0:0:0:
320,192,69458,1,0,0:0:0:0:
192,192,69557,1,0,0:0:0:0:
320,192,69657,1,0,0:0:0:0:
448,192,69756,1,0,0:0:0:0:
64,192,69756,1,0,0:0:0:0:
192,192,69855,1,0,0:0:0:0:
320,192,69955,1,0,0:0:0:0:
448,192,69955,1,0,0:0:0:0:
64,192,70054,1,0,0:0:0:0:
448,192,70153,1,0,0:0:0:0:
320,192,70253,1,0,0:0:0:0:
64,192,70253,1,0,0:0:0:0:
192,192,70352,1,0,0:0:0:0:
320,192,70451,1,0,0:0:0:0:
64,192,70551,1,0,0:0:0:0:
448,192,70551,1,0,0:0:0:0:
192,192,70650,1,0,0:0:0:0:
320,192,70749,1,0,0:0:0:0:
64,192,70749,1,0,0:0:0:0:
448,192,70849,1,0,0:0:0:0:
192,192,70948,1,0,0:0:0:0:
320,192,71047,1,0,0:0:0:0:
448,192,71047,1,0,0:0:0:0:
64,192,71147,1,0,0:0:0:0:
192,192,71246,1,0,0:0:0:0:
320,192,71345,1,0,0:0:0:0:
64,192,71345,1,0,0:0:0:0:
448,192,71445,1,0,0:0:0:0:
64,192,71544,1,0,0:0:0:0:
192,192,71610,1,0,0:0:0:0:
320,192,71676,1,0,0:0:0:0:
448,192,71743,1,0,0:0:0:0:
64,192,71809,1,0,0:0:0:0:
192,192,71875,1,0,0:0:0:0:
320,192,71941,1,0,0:0:0:0:
448,192,72008,1,0,0:0:0:0:
64,192,72074,1,0,0:0:0:0:
192,192,72140,1,0,0:0:0:0:
320,192,72206,1,0,0:0:0:0:
448,192,72272,1,0,0:0:0:0:
64,192,72339,1,0,0:0:0:0:
192,192,72339,1,0,0:0:0:0:
192,192,72537,1,0,0:0:0:0:
64,192,72637,1,0,0:0:0:0:
192,192,72736,1,0,0:0:0:0:
320,192,72736,1,0,0:0:0:0:
448,192,72736,1,0,0:0:0:0:
64,192,72935,1,0,0:0:0:0:
192,192,73133,1,0,0:0:0:0:
320,192,73133,1,0,0:0:0:0:
448,192,73332,1,0,0:0:0:0:
320,192,73431,1,0,0:0:0:0:
64,192,73531,1,0,0:0:0:0:
192,192,73531,1,0,0:0:0:0:
448,192,73531,1,0,0:0:0:0:
192,192,73729,1,0,0:0:0:0:
64,192,73928,1,0,0:0:0:0:
320,192,73928,1,0,0:0:0:0:
192,192,74127,1,0,0:0:0:0:
320,192,74226,1,0,0:0:0:0:
448,192,74325,1,0,0:0:0:0:
320,192,74425,1,0,0:0:0:0:
192,192,74524,1,0,0:0:0:0:
64,192,74623,1,0,0:0:0:0:
192,192,74723,1,0,0:0:0:0:
320,192,74822,1,0,0:0:0:0:
448,192,74921,1,0,0:0:0:0:
320,192,75021,1,0,0:0:0:0:
192,192,75120,1,0,0:0:0:0:
64,192,75219,1,0,0:0:0:0:
192,192,75319,1,0,0:0:0:0:
320,192,75418,1,0,0:0:0:0:
448,192,75517,1,0,0:0:0:0:
64,192,75517,1,0,0:0:0:0:
192,192,75716,1,0,0:0:0:0:
320,192,75815,1,0,0:0:0:0:
64,192,75915,1,0,0:0:0:0:
192,192,75915,1,0,0:0:0:0:
448,192,75915,1,0,0:0:0:0:
320,192,76114,1,0,0:0:0:0:
320,192,76312,1,0,0:0:0:0:
448,192,76312,1,0,0:0:0:0:
192,192,76511,1,0,0:0:0:0:
64,192,76610,1,0,0:0:0:0:
448,192,76710,1,0,0:0:0:0:
320,192,76710,1,0,0:0:0:0:
192,192,76710,1,0,0:0:0:0:
448,192,76908,1,0,0:0:0:0:
64,192,77107,1,0,0:0:0:0:
320,192,77107,1,0,0:0:0:0:
320,192,77306,1,0,0:0:0:0:
448,192,77405,1,0,0:0:0:0:
64,192,77504,1,0,0:0:0:0:
192,192,77504,1,0,0:0:0:0:
320,192,77504,1,0,0:0:0:0:
64,192,77703,1,0,0:0:0:0:
192,192,77902,1,0,0:0:0:0:
448,192,77902,1,0,0:0:0:0:
320,192,78100,1,0,0:0:0:0:
192,192,78200,1,0,0:0:0:0:
64,192,78299,1,0,0:0:0:0:
320,192,78299,1,0,0:0:0:0:
448,192,78299,1,0,0:0:0:0:
192,192,78498,1,0,0:0:0:0:
320,192,78597,1,0,0:0:0:0:
448,192,78597,1,0,0:0:0:0:
192,192,78696,1,0,0:0:0:0:
64,192,78696,128,0,78994:0:0:0:0:
192,192,78994,1,0,0:0:0:0:
320,192,79094,1,0,0:0:0:0:
448,192,79094,1,0,0:0:0:0:
320,192,79292,128,0,79690:0:0:0:0:
64,192,79292,1,0,0:0:0:0:
192,192,79690,1,0,0:0:0:0:
64,192,79690,1,0,0:0:0:0:
448,192,79888,1,0,0:0:0:0:
448,192,80087,1,0,0:0:0:0:
192,192,80087,1,0,0:0:0:0:
64,192,80286,1,0,0:0:0:0:
192,192,80286,1,0,0:0:0:0:
192,192,80584,1,0,0:0:0:0:
64,192,80584,1,0,0:0:0:0:
448,192,80683,1,0,0:0:0:0:
192,192,80882,1,0,0:0:0:0:
320,192,80882,1,0,0:0:0:0:
448,192,81080,1,0,0:0:0:0:
64,192,81279,1,0,0:0:0:0:
192,192,81279,1,0,0:0:0:0:
192,192,81478,1,0,0:0:0:0:
320,192,81478,1,0,0:0:0:0:
448,192,81478,1,0,0:0:0:0:
320,192,81676,1,0,0:0:0:0:
192,192,81676,1,0,0:0:0:0:
192,192,81875,1,0,0:0:0:0:
64,192,81875,1,0,0:0:0:0:
192,192,82074,1,0,0:0:0:0:
448,192,82074,1,0,0:0:0:0:
448,192,82272,1,0,0:0:0:0:
64,192,82272,1,0,0:0:0:0:
64,192,82471,1,0,0:0:0:0:
192,192,82471,1,0,0:0:0:0:
64,192,82670,1,0,0:0:0:0:
192,192,82736,1,0,0:0:0:0:
320,192,82802,1,0,0:0:0:0:
64,192,82868,1,0,0:0:0:0:
192,192,82868,1,0,0:0:0:0:
448,192,82968,1,0,0:0:0:0:
320,192,82968,1,0,0:0:0:0:
64,192,83067,1,0,0:0:0:0:
192,192,83067,1,0,0:0:0:0:
320,192,83166,1,0,0:0:0:0:
448,192,83166,1,0,0:0:0:0:
192,192,83266,1,0,0:0:0:0:
64,192,83266,1,0,0:0:0:0:
320,192,83332,1,0,0:0:0:0:
448,192,83398,1,0,0:0:0:0:
192,192,83465,1,0,0:0:0:0:
64,192,83465,1,0,0:0:0:0:
320,192,83465,1,0,0:0:0:0:
192,192,83663,1,0,0:0:0:0:
320,192,83663,1,0,0:0:0:0:
448,192,83663,1,0,0:0:0:0:
192,192,84061,1,0,0:0:0:0:
192,192,84259,128,0,85054:0:0:0:0:
320,192,84657,1,0,0:0:0:0:
64,192,85054,1,0,0:0:0:0:
320,192,85054,1,0,0:0:0:0:
448,192,85054,128,0,85849:0:0:0:0:
320,192,85451,1,0,0:0:0:0:
192,192,85650,1,0,0:0:0:0:
64,192,85650,1,0,0:0:0:0:
320,192,85849,128,0,86246:0:0:0:0:
192,192,85849,1,0,0:0:0:0:
192,192,86246,128,0,86643:0:0:0:0:
64,192,86643,128,0,87438:0:0:0:0:
320,192,87041,1,0,0:0:0:0:
448,192,87041,1,0,0:0:0:0:
192,192,87239,1,0,0:0:0:0:
448,192,87239,1,0,0:0:0:0:
320,192,87339,1,0,0:0:0:0:
192,192,87438,1,0,0:0:0:0:
448,192,87438,1,0,0:0:0:0:
64,192,87835,1,0,0:0:0:0:
320,192,87835,1,0,0:0:0:0:
192,192,88034,1,0,0:0:0:0:
64,192,88233,1,0,0:0:0:0:
320,192,88233,1,0,0:0:0:0:
448,192,88233,1,0,0:0:0:0:
64,192,88531,1,0,0:0:0:0:
192,192,88630,1,0,0:0:0:0:
320,192,88829,1,0,0:0:0:0:
448,192,88829,1,0,0:0:0:0:
64,192,88829,1,0,0:0:0:0:
192,192,89226,1,0,0:0:0:0:
64,192,89226,1,0,0:0:0:0:
320,192,89226,1,0,0:0:0:0:
448,192,89623,128,0,92604:0:0:0:0:
64,192,89623,128,0,91412:0:0:0:0:
