osu file format v14

[General]
AudioFilename: audio.mp3
AudioLeadIn: 0
PreviewTime: 54285
Countdown: 0
SampleSet: Soft
StackLeniency: 0.7
Mode: 2
LetterboxInBreaks: 0
WidescreenStoryboard: 1

[Editor]
Bookmarks: 7142,13999,27713,41427,48285,51713,55142,85999
DistanceSpacing: 1.7
BeatDivisor: 4
GridSize: 8
TimelineZoom: 1

[Metadata]
Title:Niji ga Kakaru made no Hanashi (TV Size)
TitleUnicode:虹が架かるまでの話 (TV Size)
Artist:Horie Yui
ArtistUnicode:堀江由衣
Creator:Secre
Version:Platter
Source:先輩がうざい後輩の話
Tags:chickenbible nokashi rew0825 anime japanese pop jpop ed ending My Senpai Is Annoying Juniors The Story of the Rainbow ga Uzai Kouhai
BeatmapID:3362851
BeatmapSetID:1606584

[Difficulty]
HPDrainRate:4
CircleSize:3.4
OverallDifficulty:7.7
ApproachRate:7.7
SliderMultiplier:2.06
SliderTickRate:2

[Events]
//Background and Video events
0,0,"ina senpai is not annoying.jpg",0,0
//Break Periods
//Storyboard Layer 0 (Background)
//Storyboard Layer 1 (Fail)
//Storyboard Layer 2 (Pass)
//Storyboard Layer 3 (Foreground)
//Storyboard Layer 4 (Overlay)
//Storyboard Sound Samples

[TimingPoints]
285,428.571428571429,4,2,1,60,1,0
7142,-100,4,2,1,65,0,0
13999,-100,4,2,1,55,0,0
27713,-100,4,2,1,60,0,0
41427,-100,4,2,1,65,0,0
51713,-100,4,2,1,55,0,0
53642,-100,4,2,1,65,0,0
55142,-100,4,2,1,70,0,1
84392,-100,4,2,1,65,0,1
85999,-100,4,2,1,30,0,0
86856,-100,4,2,1,25,0,0
87713,-100,4,2,1,20,0,0

[Colours]
Combo1 : 242,141,113
Combo2 : 1,89,254
Combo3 : 70,147,0

[HitObjects]
346,212,285,6,0,L|131:209,1,206,2|0,0:0|0:0,0:0:0:0:
336,181,1142,2,0,L|335:67,1,103,2|2,0:0|0:0,0:0:0:0:
236,71,1570,1,2,0:0:0:0:
334,65,1785,1,2,0:0:0:0:
165,166,1999,5,0,0:0:0:0:
165,166,2427,1,2,0:0:0:0:
330,167,2642,2,0,L|329:53,1,103,2|0,0:0|0:0,0:0:0:0:
232,62,3070,2,0,L|20:63,1,206,2|2,0:0|0:0,0:0:0:0:
232,62,3713,6,0,P|354:97|377:191,1,206,2|2,0:0|0:0,0:0:0:0:
270,192,4356,2,0,L|476:196,1,206,2|2,0:0|0:0,0:0:0:0:
475,195,4999,1,2,0:0:0:0:
167,185,5427,6,0,L|159:76,1,103,2|0,0:0|0:0,0:0:0:0:
256,83,5856,2,0,L|365:81,1,103,0|2,0:0|0:0,0:0:0:0:
158,61,6285,1,2,0:0:0:0:
69,101,6499,1,2,1:2:0:0:
69,197,6713,1,8,0:1:0:0:
157,234,6927,1,2,0:0:0:0:
458,235,7142,6,0,L|233:325,1,206,6|8,1:2|1:2,0:0:0:0:
371,221,7785,2,0,P|421:196|358:101,1,206,2|0,3:2|3:2,0:0:0:0:
254,106,8427,2,0,L|375:100,1,103,10|0,1:2|3:2,0:0:0:0:
159,250,8856,6,0,P|98:234|173:159,1,206,2|8,1:2|1:2,0:0:0:0:
257,184,9499,2,0,L|40:186,1,206,2|0,3:2|3:2,0:0:0:0:
151,249,10142,2,0,L|43:245,1,103,10|0,1:2|3:2,0:0:0:0:
244,171,10570,6,0,L|459:172,2,206,2|8|0,1:2|1:2|1:2,0:0:0:0:
151,145,11642,1,2,3:2:0:0:
249,114,11856,2,0,L|256:228,1,103,10|2,1:2|3:2,0:0:0:0:
61,236,12285,6,0,L|186:245,2,103,2|8|8,1:2|3:2|1:2,0:0:0:0:
244,220,13142,2,0,L|244:110,1,103,0|8,1:2|3:2,0:0:0:0:
146,136,13570,2,0,L|143:29,1,103,0|8,1:2|3:2,0:0:0:0:
431,45,13999,6,0,P|488:67|426:168,1,206,4|2,1:2|0:0,0:0:0:0:
255,182,14856,1,0,0:0:0:0:
357,176,15070,1,2,3:2:0:0:
460,170,15284,1,2,0:0:0:0:
357,176,15499,1,2,3:2:0:0:
165,151,15713,6,0,L|11:209,2,154.5,2|2|2,0:0|0:0|3:2,0:0:0:0:
268,170,16570,2,0,L|273:59,1,103,0|0,0:0|3:2,0:0:0:0:
170,60,16999,1,0,0:0:0:0:
480,209,17427,5,0,0:0:0:0:
300,163,17856,2,0,L|300:53,1,103,2|2,0:0|3:2,0:0:0:0:
392,45,18285,1,0,0:0:0:0:
300,52,18499,1,2,3:2:0:0:
392,45,18713,2,0,L|396:164,1,103,2|2,0:0|3:2,0:0:0:0:
206,204,19142,6,0,L|398:217,2,154.5,2|2|2,0:0|0:0|3:2,0:0:0:0:
302,165,19999,2,0,L|300:49,1,103,0|0,0:0|3:2,0:0:0:0:
198,30,20427,2,0,L|198:145,1,103,0|0,0:0|3:2,0:0:0:0:
381,178,20856,5,0,0:0:0:0:
237,136,21285,2,0,L|238:25,1,103,2|2,0:0|3:2,0:0:0:0:
422,114,21713,2,0,L|247:143,2,154.5,2|2|2,0:0|0:0|3:2,0:0:0:0:
332,236,22570,6,0,L|334:127,1,103,2|2,0:0|3:2,0:0:0:0:
421,157,22999,2,0,L|425:39,1,103,2|2,0:0|3:2,0:0:0:0:
245,189,23427,2,0,L|397:248,2,154.5,2|2|2,0:0|0:0|3:2,0:0:0:0:
435,184,24285,6,0,L|436:70,1,103,0|2,0:0|3:2,0:0:0:0:
342,69,24713,1,2,0:0:0:0:
164,156,24927,2,0,P|159:84|290:39,1,206,2|0,3:2|3:2,0:0:0:0:
354,45,25570,1,0,0:0:0:0:
174,146,25785,6,0,P|92:127|42:13,1,206,2|2,3:2|3:2,0:0:0:0:
136,19,26427,1,2,0:0:0:0:
331,37,26642,2,0,P|418:50|476:153,1,206,2|0,3:2|3:2,0:0:0:0:
369,144,27285,2,0,L|483:140,1,103,8|0,0:1|0:0,0:0:0:0:
166,223,27713,6,0,P|114:207|179:113,1,206,6|2,1:2|1:2,0:0:0:0:
263,98,28356,2,0,L|264:212,1,103,2|0,3:2|1:2,0:0:0:0:
159,218,28785,2,0,L|291:224,2,103,2|2|2,3:2|1:2|3:2,0:0:0:0:
363,158,29427,6,0,L|511:268,2,154.5,2|2|2,1:2|0:0|3:2,0:0:0:0:
266,143,30285,2,0,L|265:29,1,103,0|0,1:2|3:2,0:0:0:0:
361,22,30713,2,0,L|364:144,1,103,0|0,1:2|3:2,0:0:0:0:
72,237,31142,6,0,P|12:212|86:124,1,206,0|2,1:2|1:2,0:0:0:0:
166,109,31785,2,0,L|279:110,1,103,2|0,3:2|1:2,0:0:0:0:
166,109,32213,2,0,L|57:110,2,103,2|2|2,3:2|1:2|3:2,0:0:0:0:
362,232,32856,6,0,L|195:237,2,154.5,2|2|2,1:2|0:0|3:2,0:0:0:0:
459,209,33713,2,0,L|464:323,1,103,0|0,1:2|3:2,0:0:0:0:
360,312,34142,2,0,L|469:311,1,103,0|0,1:2|3:2,0:0:0:0:
171,233,34570,6,0,P|169:172|312:115,1,206,0|2,1:2|1:2,0:0:0:0:
375,112,35213,1,2,3:2:0:0:
276,120,35427,2,0,L|111:119,2,154.5,2|2|2,1:2|0:0|3:2,0:0:0:0:
179,196,36285,6,0,L|177:77,1,103,0|2,1:2|3:2,0:0:0:0:
276,101,36713,2,0,L|275:-15,1,103,2|0,1:2|3:2,0:0:0:0:
385,21,37142,2,0,P|441:42|383:138,1,206,2|0,1:2|1:2,0:0:0:0:
297,147,37785,1,2,3:2:0:0:
17,199,37999,6,0,L|151:270,2,103,0|2|2,1:2|3:2|1:2,0:0:0:0:
217,208,38642,2,0,P|275:188|198:100,1,206,2|0,3:2|3:2,0:0:0:0:
128,92,39285,1,0,1:2:0:0:
221,91,39499,1,2,3:2:0:0:
413,93,39713,6,0,L|417:231,1,103,0|2,1:2|3:2,0:0:0:0:
315,219,40142,2,0,L|205:215,1,103,10|2,1:3|3:2,0:0:0:0:
411,128,40570,2,0,L|413:241,1,103,0|10,1:2|3:3,0:0:0:0:
219,236,40999,2,0,L|99:234,1,103,2|10,1:2|3:3,0:0:0:0:
420,282,41427,6,0,P|482:258|407:177,1,206,6|10,1:2|0:0,0:0:0:0:
214,183,42070,2,0,P|154:162|232:81,1,206,4|10,1:2|0:0,0:0:0:0:
496,123,42713,6,0,L|262:194,1,206,4|0,1:2|0:0,0:0:0:0:
397,86,43356,1,8,0:0:0:0:
495,72,43570,2,0,L|496:188,1,103,8|2,0:0|3:2,0:0:0:0:
300,174,43999,2,0,L|195:173,1,103,0|2,3:2|1:2,0:0:0:0:
300,174,44427,2,0,L|433:183,1,103,8|2,0:0|1:2,0:0:0:0:
100,278,44856,6,0,P|46:267|118:180,1,206,6|10,1:2|0:0,0:0:0:0:
294,185,45499,2,0,P|366:153|278:100,1,206,6|10,1:2|0:0,0:0:0:0:
18,120,46142,6,0,L|224:215,1,206,6|0,1:2|0:0,0:0:0:0:
109,192,46785,1,8,0:0:0:0:
201,162,46999,2,0,L|201:49,1,103,8|0,0:0|3:2,0:0:0:0:
109,192,47427,1,0,3:2:0:0:
300,141,47642,2,0,L|301:33,1,103,2|10,1:2|0:0,0:0:0:0:
200,32,48070,1,2,1:2:0:0:
483,218,48285,6,0,L|276:294,2,206,6|2|2,1:2|1:2|1:2,0:0:0:0:
285,151,49570,2,0,L|174:151,1,103,2|2,1:2|3:2,0:0:0:0:
383,93,49999,6,0,L|382:305,1,206,0|2,1:2|1:2,0:0:0:0:
193,296,50856,2,0,L|409:290,1,206,0|0,1:2|1:2,0:0:0:0:
63,177,51713,5,2,0:0:0:0:
256,192,51927,12,2,53213,0:0:0:0:
146,154,53642,5,4,1:3:0:0:
348,126,53856,2,0,L|354:241,1,103,4|10,1:3|0:3,0:0:0:0:
146,154,54285,2,0,L|34:154,1,103,6|6,1:3|1:3,0:0:0:0:
334,95,54713,2,0,L|454:96,1,103,10|2,0:3|1:2,0:0:0:0:
136,254,55142,6,0,P|75:234|147:156,1,206,6|8,1:2|1:2,0:0:0:0:
236,143,55785,1,2,3:2:0:0:
430,136,55999,2,0,L|431:273,1,103,2|2,1:2|3:2,0:0:0:0:
327,241,56427,1,10,1:2:0:0:
430,136,56642,1,2,3:2:0:0:
236,184,56856,6,0,L|233:68,1,103,0|2,1:2|3:2,0:0:0:0:
339,55,57285,1,8,1:2:0:0:
151,254,57499,2,0,L|274:255,2,103,2|2|2,3:2|1:2|3:2,0:0:0:0:
53,225,58142,1,10,1:2:0:0:
155,181,58356,1,2,3:2:0:0:
353,133,58570,6,0,L|360:255,1,103,0|2,1:2|3:2,0:0:0:0:
262,250,58999,2,0,L|141:249,1,103,8|2,1:2|3:2,0:0:0:0:
260,172,59427,2,0,L|381:174,2,103,0|2|8,1:2|3:2|1:2,0:0:0:0:
158,149,60070,1,2,3:2:0:0:
358,119,60285,6,0,L|361:-25,1,103,2|2,1:2|3:2,0:0:0:0:
257,133,60713,2,0,L|131:134,1,103,8|2,1:2|3:2,0:0:0:0:
356,19,61142,1,2,1:2:0:0:
450,36,61356,1,2,3:2:0:0:
456,131,61570,1,10,1:2:0:0:
365,160,61784,1,2,3:2:0:0:
161,233,61999,6,0,P|98:170|169:97,1,206,0|8,1:2|1:2,0:0:0:0:
264,93,62642,1,2,3:2:0:0:
363,88,62856,2,0,L|362:218,1,103,0|2,1:2|3:2,0:0:0:0:
263,208,63285,2,0,L|391:206,1,103,8|2,1:2|3:2,0:0:0:0:
168,255,63713,6,0,P|98:245|33:126,1,206,0|10,1:2|1:2,0:0:0:0:
134,113,64356,1,2,3:2:0:0:
46,119,64570,1,0,1:2:0:0:
240,155,64785,2,0,L|361:155,2,103,2|10|10,3:2|1:2|3:2,0:0:0:0:
430,228,65427,6,0,L|247:235,2,154.5,2|2|2,1:2|0:0|3:2,0:0:0:0:
238,176,66285,2,0,L|421:183,2,154.5,2|2|2,1:2|0:0|3:2,0:0:0:0:
51,173,67142,6,0,L|48:43,1,103,2|2,1:2|3:2,0:0:0:0:
151,68,67570,2,0,L|32:70,1,103,8|2,1:2|3:2,0:0:0:0:
240,159,67999,2,0,L|357:155,2,103,2|2|8,1:2|3:2|1:1,0:0:0:0:
140,145,68642,1,10,3:2:0:0:
434,87,68856,6,0,P|483:103|422:201,1,206,6|8,1:2|1:2,0:0:0:0:
327,192,69499,1,2,3:2:0:0:
126,119,69713,2,0,L|13:122,2,103,2|2|10,1:2|3:2|1:2,0:0:0:0:
223,107,70356,1,2,3:2:0:0:
421,94,70570,6,0,L|424:215,1,103,0|2,1:2|3:2,0:0:0:0:
320,202,70999,2,0,L|440:196,1,103,8|2,1:2|3:2,0:0:0:0:
220,130,71427,2,0,L|108:125,1,103,2|2,1:2|3:2,0:0:0:0:
220,130,71856,2,0,L|335:135,1,103,10|2,1:2|3:2,0:0:0:0:
116,255,72285,6,0,L|116:30,1,206,0|10,1:2|1:2,0:0:0:0:
216,35,72927,1,2,3:2:0:0:
425,217,73142,2,0,L|191:215,1,206,0|10,1:2|1:2,0:0:0:0:
219,215,73785,1,2,3:2:0:0:
418,217,73999,6,0,P|466:199|395:103,1,206,0|8,1:2|1:2,0:0:0:0:
312,103,74642,1,2,3:2:0:0:
116,187,74856,2,0,L|116:69,1,103,0|2,1:2|3:2,0:0:0:0:
218,67,75285,2,0,L|347:68,1,103,10|2,1:2|3:2,0:0:0:0:
126,234,75713,6,0,P|62:210|136:132,1,206,0|8,1:2|1:2,0:0:0:0:
219,129,76356,1,2,3:2:0:0:
419,135,76570,1,2,1:2:0:0:
333,124,76785,2,0,L|329:9,1,103,2|8,3:2|1:2,0:0:0:0:
419,135,77213,1,2,3:2:0:0:
209,179,77427,6,0,P|101:187|51:293,1,206,0|10,1:2|1:2,0:0:0:0:
151,267,78070,1,2,3:2:0:0:
355,245,78285,2,0,L|355:122,1,103,0|2,1:2|3:2,0:0:0:0:
250,126,78713,2,0,L|119:127,1,103,10|10,1:2|3:2,0:0:0:0:
344,218,79142,6,0,L|505:217,2,154.5,2|2|2,1:2|0:0|3:2,0:0:0:0:
156,265,79999,2,0,L|317:264,2,154.5,2|2|2,1:2|0:0|3:2,0:0:0:0:
352,206,80856,6,0,L|351:36,1,154.5,2|2,1:2|0:0,0:0:0:0:
202,42,81499,1,2,3:2:0:0:
391,206,81713,2,0,L|198:201,2,154.5,0|0|10,1:2|0:0|3:2,0:0:0:0:
186,233,82570,6,0,L|186:55,1,154.5,2|2,1:2|0:0,0:0:0:0:
340,51,83213,1,2,3:2:0:0:
148,166,83427,2,0,L|305:166,2,154.5,2|2|2,1:2|0:0|3:2,0:0:0:0:
438,258,84285,6,0,P|489:239|417:137,1,206,6|8,1:2|0:2,0:0:0:0:
345,135,84927,1,2,0:2:0:0:
151,179,85142,2,0,L|151:51,1,103,2|0,0:2|0:0,0:0:0:0:
337,52,85570,2,0,L|472:51,1,103,8|2,0:2|0:2,0:0:0:0:
129,229,85999,5,0,0:0:0:0:
256,192,86213,12,0,88142,0:0:0:0:
