osu file format v14

[General]
AudioFilename: audio.mp3
AudioLeadIn: 0
PreviewTime: 54285
Countdown: 0
SampleSet: Soft
StackLeniency: 0.7
Mode: 2
LetterboxInBreaks: 0
WidescreenStoryboard: 1

[Editor]
Bookmarks: 7142,13999,27713,41427,48285,51713,55142,85999
DistanceSpacing: 1.7
BeatDivisor: 4
GridSize: 8
TimelineZoom: 1

[Metadata]
Title:Niji ga Kakaru made no Hanashi (TV Size)
TitleUnicode:虹が架かるまでの話 (TV Size)
Artist:Horie Yui
ArtistUnicode:堀江由衣
Creator:Secre
Version:Cup
Source:先輩がうざい後輩の話
Tags:chickenbible nokashi rew0825 anime japanese pop jpop ed ending My Senpai Is Annoying Juniors The Story of the Rainbow ga Uzai Kouhai
BeatmapID:3315659
BeatmapSetID:1606584

[Difficulty]
HPDrainRate:2
CircleSize:2.5
OverallDifficulty:5.7
ApproachRate:5.7
SliderMultiplier:1.65
SliderTickRate:1

[Events]
//Background and Video events
0,0,"ina senpai is not annoying.jpg",0,0
//Break Periods
//Storyboard Layer 0 (Background)
//Storyboard Layer 1 (Fail)
//Storyboard Layer 2 (Pass)
//Storyboard Layer 3 (Foreground)
//Storyboard Layer 4 (Overlay)
//Storyboard Sound Samples

[TimingPoints]
285,428.571428571429,4,2,1,60,1,0
7142,-100,4,2,1,65,0,0
13999,-100,4,2,1,55,0,0
27713,-100,4,2,1,60,0,0
41427,-100,4,2,1,65,0,0
51713,-100,4,2,1,55,0,0
53642,-100,4,2,1,65,0,0
55142,-100,4,2,1,70,0,1
84392,-100,4,2,1,65,0,1
85999,-100,4,2,1,30,0,0
86856,-100,4,2,1,25,0,0
87713,-100,4,2,1,20,0,0

[Colours]
Combo1 : 242,141,113
Combo2 : 1,89,254
Combo3 : 70,147,0

[HitObjects]
329,219,285,6,0,P|378:195|326:120,1,165,2|0,0:0|0:0,0:0:0:0:
173,151,1142,2,0,L|169:59,1,82.5,2|2,0:0|0:0,0:0:0:0:
251,50,1570,1,2,0:0:0:0:
332,46,1785,1,2,0:0:0:0:
103,164,2427,6,0,L|99:77,1,82.5,2|2,0:0|0:0,0:0:0:0:
261,97,3070,1,2,0:0:0:0:
96,222,3498,1,2,0:0:0:0:
96,222,3713,5,2,0:0:0:0:
253,133,4142,2,0,L|343:130,1,82.5,2|2,0:0|0:0,0:0:0:0:
175,63,4785,2,0,L|83:64,1,82.5,2|2,0:0|0:0,0:0:0:0:
261,65,5427,5,2,0:0:0:0:
336,73,5641,1,0,0:0:0:0:
336,150,5855,1,0,0:0:0:0:
262,169,6069,1,2,0:0:0:0:
177,169,6285,1,2,0:0:0:0:
333,158,6713,1,8,0:1:0:0:
334,75,6927,1,2,0:0:0:0:
249,65,7142,6,0,L|76:64,1,165,6|8,1:2|1:2,0:0:0:0:
171,141,7785,1,2,3:2:0:0:
344,96,8213,2,0,L|343:207,1,82.5,0|10,3:2|1:2,0:0:0:0:
177,242,8856,6,0,L|342:239,1,165,2|8,1:2|1:2,0:0:0:0:
257,164,9499,2,0,L|61:161,1,165,2|0,3:2|3:2,0:0:0:0:
176,233,10142,1,10,1:2:0:0:
353,199,10570,6,0,L|356:27,1,165,2|8,1:2|1:2,0:0:0:0:
196,127,11427,2,0,L|195:17,1,82.5,0|2,1:2|3:2,0:0:0:0:
277,49,11856,2,0,L|279:-58,1,82.5,10|2,1:2|3:2,0:0:0:0:
196,43,12285,6,0,L|96:43,2,82.5,2|8|8,1:2|3:2|1:2,0:0:0:0:
358,90,13142,2,0,L|356:187,1,82.5,0|8,1:2|3:2,0:0:0:0:
276,185,13570,2,0,L|274:87,1,82.5,0|8,1:2|3:2,0:0:0:0:
366,70,13999,5,4,1:2:0:0:
213,86,14427,1,2,0:0:0:0:
130,86,14641,1,2,3:2:0:0:
48,87,14855,1,0,0:0:0:0:
213,86,15285,2,0,L|306:87,1,82.5,2|2,0:0|3:2,0:0:0:0:
213,86,15713,6,0,L|58:89,2,123.75,2|2|2,0:0|0:0|3:2,0:0:0:0:
306,79,16570,2,0,L|313:250,1,165
147,234,17427,5,0,0:0:0:0:
301,173,17856,2,0,L|301:72,1,82.5,2|2,0:0|3:2,0:0:0:0:
219,83,18285,1,0,0:0:0:0:
67,130,18713,2,0,L|61:25,1,82.5,2|2,0:0|3:2,0:0:0:0:
146,40,19142,6,0,L|307:37,2,123.75,2|2|2,0:0|0:0|3:2,0:0:0:0:
58,177,19999,2,0,L|55:8,1,165
226,81,20856,6,0,L|406:84,1,165,0|2,0:0|0:0,0:0:0:0:
311,162,21499,1,2,3:2:0:0:
231,155,21713,2,0,L|229:22,1,123.75,2|2,0:0|0:0,0:0:0:0:
348,4,22356,1,2,3:2:0:0:
426,19,22570,6,0,L|425:141,1,82.5,2|2,0:0|3:2,0:0:0:0:
340,128,22999,2,0,L|220:125,1,82.5,2|2,0:0|3:2,0:0:0:0:
340,128,23427,2,0,L|485:125,1,123.75,2|2,0:0|0:0,0:0:0:0:
346,214,24070,1,2,3:2:0:0:
262,167,24285,6,0,L|263:52,1,82.5,0|2,0:0|3:2,0:0:0:0:
345,66,24713,1,2,0:0:0:0:
430,69,24927,2,0,P|478:79|419:141,1,165,2|0,3:2|3:2,0:0:0:0:
266,188,25785,6,0,L|80:186,1,165,2|2,3:2|3:2,0:0:0:0:
186,117,26427,1,2,0:0:0:0:
270,125,26642,2,0,P|271:84|170:20,1,165,2|0,3:2|3:2,0:0:0:0:
96,17,27285,1,8,0:1:0:0:
270,32,27713,6,0,L|442:35,1,165,6|2,1:2|1:2,0:0:0:0:
275,42,28570,2,0,L|274:135,1,82.5,0|2,1:2|3:2,0:0:0:0:
353,131,28999,1,2,1:2:0:0:
434,131,29213,1,2,3:2:0:0:
353,131,29427,6,0,L|198:129,2,123.75,2|2|2,1:2|0:0|3:2,0:0:0:0:
436,120,30285,2,0,L|441:299,1,165,0|0,1:2|1:2,0:0:0:0:
260,291,31142,6,0,L|76:294,1,165,0|2,1:2|1:2,0:0:0:0:
180,222,31785,1,2,3:2:0:0:
268,192,31999,2,0,L|271:86,1,82.5,0|2,1:2|3:2,0:0:0:0:
181,108,32427,2,0,L|180:-14,1,82.5,2|2,1:2|3:2,0:0:0:0:
269,24,32856,6,0,L|406:27,2,123.75,2|2|2,1:2|0:0|3:2,0:0:0:0:
182,65,33713,2,0,L|177:249,1,165,0|0,1:2|1:2,0:0:0:0:
349,242,34570,6,0,L|516:238,1,165,0|2,1:2|1:2,0:0:0:0:
427,171,35213,1,2,3:2:0:0:
342,165,35427,2,0,L|197:163,1,123.75,2|2,1:2|0:0,0:0:0:0:
91,151,36070,1,2,3:2:0:0:
11,92,36285,6,0,L|9:-4,1,82.5,0|2,1:2|3:2,0:0:0:0:
91,25,36713,2,0,L|186:25,1,82.5,2|0,1:2|3:2,0:0:0:0:
256,32,37142,2,0,P|329:86|327:128,1,123.75,2|2,1:2|0:0,0:0:0:0:
182,170,37785,5,2,3:2:0:0:
87,173,37999,2,0,L|84:62,1,82.5,0|2,1:2|3:2,0:0:0:0:
171,73,38427,1,2,1:2:0:0:
255,72,38642,1,2,3:2:0:0:
411,65,39070,2,0,L|417:158,1,82.5,0|0,3:2|1:2,0:0:0:0:
336,175,39499,6,0,L|166:174,1,165,2|2,3:2|3:2,0:0:0:0:
253,103,40142,1,10,1:3:0:0:
414,118,40570,2,0,L|415:18,1,82.5,0|10,1:2|3:3,0:0:0:0:
333,26,40999,2,0,L|233:22,1,82.5,2|10,1:2|3:3,0:0:0:0:
164,83,41427,6,0,L|162:261,1,165,6|10,1:2|0:0,0:0:0:0:
245,247,42070,1,4,1:2:0:0:
411,142,42499,1,10,0:0:0:0:
326,145,42713,6,0,L|122:142,1,165,4|0,1:2|0:0,0:0:0:0:
241,71,43356,1,8,0:0:0:0:
328,132,43570,1,8,0:0:0:0:
406,136,43785,1,2,3:2:0:0:
246,237,44213,2,0,L|241:140,1,82.5,2|8,1:2|0:0,0:0:0:0:
324,122,44642,1,2,1:2:0:0:
408,120,44856,6,0,P|451:132|392:211,1,165,6|10,1:2|0:0,0:0:0:0:
335,220,45499,2,0,L|142:217,1,165,6|10,1:2|0:0,0:0:0:0:
251,151,46142,1,6,1:2:0:0:
413,150,46570,6,0,L|417:46,1,82.5,0|8,0:0|0:0,0:0:0:0:
330,57,46999,1,8,0:0:0:0:
250,50,47213,2,0,P|243:116|347:146,1,165,0|2,3:2|1:2,0:0:0:0:
405,146,47856,2,0,L|501:146,1,82.5,10|2,0:0|1:2,0:0:0:0:
405,146,48285,6,0,L|203:143,1,165,6|2,1:2|1:2,0:0:0:0:
396,152,49142,2,0,P|447:171|377:229,1,165,2|2,1:2|1:2,0:0:0:0:
319,241,49785,1,2,3:2:0:0:
240,238,49999,5,0,1:2:0:0:
81,170,50427,2,0,L|77:71,1,82.5,2|2,1:2|3:2,0:0:0:0:
162,78,50856,2,0,L|338:78,1,165,0|0,1:2|1:2,0:0:0:0:
136,154,51713,5,2,0:0:0:0:
256,192,52142,12,2,53213,0:0:0:0:
227,144,53642,6,0,L|133:142,1,82.5,4|4,1:3|1:3,0:0:0:0:
316,198,54285,2,0,L|400:199,1,82.5,6|6,1:3|1:3,0:0:0:0:
316,198,54713,2,0,L|215:196,1,82.5,10|2,0:3|1:2,0:0:0:0:
316,198,55142,6,0,L|319:81,1,82.5,6|2,1:2|3:2,0:0:0:0:
235,92,55570,1,8,1:2:0:0:
75,139,55999,2,0,L|70:37,1,82.5,2|2,1:2|3:2,0:0:0:0:
151,34,56427,1,10,1:2:0:0:
231,34,56642,1,2,3:2:0:0:
315,35,56856,6,0,L|318:140,1,82.5,0|2,1:2|3:2,0:0:0:0:
235,122,57285,1,8,1:2:0:0:
76,189,57713,2,0,L|261:187,1,165,2|10,1:2|1:2,0:0:0:0:
79,121,58570,6,0,L|78:9,1,82.5,0|2,1:2|3:2,0:0:0:0:
164,31,58999,1,8,1:2:0:0:
325,130,59427,2,0,L|325:28,1,82.5,0|2,1:2|3:2,0:0:0:0:
241,57,59856,2,0,L|239:-38,1,82.5,8|2,1:2|3:2,0:0:0:0:
325,34,60285,6,0,L|494:37,1,165,2|8,1:2|1:2,0:0:0:0:
320,165,61142,2,0,L|124:161,1,165,2|10,1:2|1:2,0:0:0:0:
236,97,61785,1,2,3:2:0:0:
316,97,61999,5,0,1:2:0:0:
404,98,62213,2,0,L|406:197,1,82.5,2|8,3:2|1:2,0:0:0:0:
326,163,62642,1,2,3:2:0:0:
163,187,63070,1,2,3:2:0:0:
247,222,63285,2,0,L|353:219,1,82.5,8|2,1:2|3:2,0:0:0:0:
247,222,63713,6,0,P|207:197|258:117,1,165,0|10,1:2|1:2,0:0:0:0:
419,128,64570,2,0,L|428:28,1,82.5,0|2,1:2|3:2,0:0:0:0:
341,43,64999,2,0,L|239:45,1,82.5,10|10,1:2|3:2,0:0:0:0:
341,43,65427,6,0,L|479:42,2,123.75,2|2|2,1:2|0:0|3:2,0:0:0:0:
257,161,66285,2,0,L|118:160,2,123.75,2|2|2,1:2|0:0|3:2,0:0:0:0:
341,152,67142,6,0,L|342:64,1,82.5,2|2,1:2|3:2,0:0:0:0:
259,58,67570,1,8,1:2:0:0:
99,103,67999,2,0,L|8:103,2,82.5,2|2|8,1:2|3:2|1:1,0:0:0:0:
271,99,68856,6,0,L|268:209,1,82.5,6|2,1:2|3:2,0:0:0:0:
185,202,69285,1,8,1:2:0:0:
340,137,69713,2,0,L|437:139,2,82.5,2|2|10,1:2|3:2|1:2,0:0:0:0:
254,130,70356,6,0,L|252:30,1,82.5,2|0,3:2|1:2,0:0:0:0:
338,33,70785,1,2,3:2:0:0:
423,30,70999,1,8,1:2:0:0:
270,122,71427,1,2,1:2:0:0:
187,120,71641,1,2,3:2:0:0:
105,119,71855,1,10,1:2:0:0:
270,122,72285,6,0,L|269:18,1,82.5,0|2,1:2|3:2,0:0:0:0:
187,120,72713,1,10,1:2:0:0:
104,131,72927,2,0,P|64:112|121:37,1,165,2|2,3:2|3:2,0:0:0:0:
200,42,73570,1,10,1:2:0:0:
280,41,73785,1,2,3:2:0:0:
200,42,73999,6,0,L|25:46,1,165,0|8,1:2|1:2,0:0:0:0:
202,162,74856,2,0,L|382:163,1,165,0|10,1:2|1:2,0:0:0:0:
281,96,75499,1,2,3:2:0:0:
195,108,75713,6,0,P|148:87|212:19,1,165,0|8,1:2|1:2,0:0:0:0:
275,15,76356,1,2,3:2:0:0:
195,108,76570,2,0,L|88:107,1,82.5,2|2,1:2|3:2,0:0:0:0:
112,107,76999,1,8,1:2:0:0:
275,122,77427,6,0,L|446:126,1,165,0|10,1:2|1:2,0:0:0:0:
275,122,78285,2,0,L|186:121,1,82.5,0|2,1:2|3:2,0:0:0:0:
275,122,78713,2,0,L|386:117,1,82.5,10|10,1:2|3:2,0:0:0:0:
275,122,79142,6,0,L|143:118,2,123.75,2|2|2,1:2|0:0|3:2,0:0:0:0:
357,118,79999,2,0,L|480:114,2,123.75,2|2|2,1:2|0:0|3:2,0:0:0:0:
278,120,80856,5,2,1:2:0:0:
157,117,81177,1,2,0:0:0:0:
38,115,81499,1,2,3:2:0:0:
118,176,81713,1,0,1:2:0:0:
239,173,82034,1,0,0:0:0:0:
358,171,82356,1,10,3:2:0:0:
273,210,82570,6,0,L|139:207,2,123.75,2|2|2,1:2|0:0|3:2,0:0:0:0:
356,178,83427,2,0,L|490:175,2,123.75,2|2|2,1:2|0:0|3:2,0:0:0:0:
268,192,84285,6,0,P|218:162|271:86,1,165,6|8,1:2|0:2,0:0:0:0:
339,79,84927,1,2,0:2:0:0:
420,80,85142,2,0,L|421:176,1,82.5,2|0,0:2|0:0,0:0:0:0:
339,161,85570,2,0,L|339:59,1,82.5,8|2,0:2|0:2,0:0:0:0:
425,75,85999,5,0,0:0:0:0:
256,192,86427,12,0,88142,0:0:0:0:
