osu file format v14

[General]
AudioFilename: 1.mp3
AudioLeadIn: 1500
PreviewTime: 200054
Countdown: 0
SampleSet: Soft
StackLeniency: 0.7
Mode: 0
LetterboxInBreaks: 1
EpilepsyWarning: 1
WidescreenStoryboard: 1

[Editor]
Bookmarks: 34054,42054,49804,50054,66054,82054,96054,102554,107304,111304,122054,142804,155554,162054,178054,199804,216054,232054,244804,252184
DistanceSpacing: 1
BeatDivisor: 4
GridSize: 4
TimelineZoom: 2.2

[Metadata]
Title:Kitto Koi o Shiteiru
TitleUnicode:きっと恋をしている
Artist:Horie Yui
ArtistUnicode:堀江由衣
Creator:moonlightleaf
Version:Suki
Source:DOG DAYS
Tags:millhioref biscotti shinku izumi ricotta elmar leonmitchelli galette des rois eclair martinozzi brioche d'arquien yukikaze panettone
BeatmapID:1839835
BeatmapSetID:340060

[Difficulty]
HPDrainRate:6
CircleSize:4
OverallDifficulty:7
ApproachRate:8.3
SliderMultiplier:1.8
SliderTickRate:1

[Events]
//Background and Video events
0,0,"bg.jpg",0,0
//Break Periods
2,82254,97304
2,162254,177304
//Storyboard Layer 0 (Background)
//Storyboard Layer 1 (Fail)
//Storyboard Layer 2 (Pass)
//Storyboard Layer 3 (Foreground)
//Storyboard Sound Samples

[TimingPoints]
54,500,4,2,1,40,1,0
2054,-100,4,2,1,60,0,0
18804,-100,4,2,1,40,0,0
49679,-100,4,2,1,5,0,0
49804,-100,4,2,1,40,0,0
50054,-100,4,2,1,75,0,1
70679,-100,4,2,1,5,0,1
70804,-100,4,2,1,75,0,1
82054,-100,4,2,1,75,0,0
96054,-100,4,2,1,40,0,0
98804,-100,4,2,1,60,0,0
130054,-100,4,2,1,75,0,1
162054,-100,4,2,1,75,0,0
178054,-128.571428571429,4,2,1,60,0,0
178304,-128.571428571429,4,2,1,40,0,0
193679,-100,4,2,1,50,0,0
194054,-100,4,2,1,60,0,0
196054,-100,4,2,1,5,0,0
196179,-100,4,2,1,50,0,0
198054,-100,4,2,1,60,0,0
200054,-100,4,2,1,70,0,0
215679,-100,4,2,1,5,0,0
215804,-100,4,2,1,70,0,0
216054,-100,4,2,1,75,0,1
248065,521.739130434783,4,2,1,60,1,0
250151,508.474576271186,4,2,1,60,1,0
252184,500,4,2,1,45,1,0
268184,-100,4,2,1,55,0,0
282184,504.201680672269,4,2,1,60,1,0
283696,545.454545454546,4,2,1,60,1,0
284241,606.060606060606,4,2,1,30,1,0
285756,-100,4,2,1,25,0,0
286362,652.173913043478,4,2,1,15,1,0
286362,-125,4,2,1,15,0,0
287666,731.707317073171,4,2,1,10,1,0
288031,-178.571428571429,4,2,1,10,0,0
288214,-178.571428571429,4,2,1,5,0,0

[Colours]
Combo1 : 255,128,192
Combo2 : 147,198,236
Combo3 : 255,193,132
Combo4 : 203,151,255
SliderBorder : 255,255,255

[HitObjects]
256,192,1054,5,0,0:1:0:0:
114,158,1304,1,0,0:1:0:0:
154,293,1554,1,8,0:0:0:0:
206,123,1804,1,0,0:0:0:0:
206,123,1929,1,0,0:0:0:0:
206,122,2054,6,0,P|248:108|292:114,1,90,6|0,0:0|0:0,0:0:0:0:
306,262,2554,2,0,P|272:232|255:191,1,90,8|0,0:0|0:0,0:0:0:0:
376,104,3054,2,0,P|367:147|340:183,1,90,0|0,0:0|0:0,0:0:0:0:
206,122,3554,1,8,0:0:0:0:
148,307,3804,1,0,0:0:0:0:
148,307,3929,1,0,0:0:0:0:
148,307,4054,6,0,L|116:222,1,90,0|0,0:0|0:0,0:0:0:0:
80,56,4554,2,0,L|48:140,1,90,8|0,0:0|0:0,0:0:0:0:
28,280,5054,1,0,0:0:0:0:
132,144,5304,1,0,0:0:0:0:
4,204,5554,1,8,0:0:0:0:
208,272,5804,1,0,0:0:0:0:
208,272,5929,1,0,0:0:0:0:
208,272,6054,6,0,P|251:281|295:270,1,90,0|0,0:0|0:0,0:0:0:0:
412,148,6554,2,0,P|368:137|324:146,1,90,8|0,0:0|0:0,0:0:0:0:
369,315,7054,2,0,P|378:271|368:228,1,90,0|0,0:0|0:0,0:0:0:0:
246,100,7554,2,0,P|237:144|248:188,1,90,8|0,0:0|0:0,0:0:0:0:
272,228,7929,1,0,0:0:0:0:
272,228,8054,6,0,P|282:271|273:315,1,90,0|0,0:0|0:0,0:0:0:0:
112,272,8554,2,0,P|155:261|199:270,1,90,8|0,0:0|0:0,0:0:0:0:
352,348,9054,1,0,0:0:0:0:
388,240,9304,1,0,0:0:0:0:
280,236,9554,1,8,0:0:0:0:
459,326,9804,1,0,0:0:0:0:
459,326,9929,1,0,0:0:0:0:
459,326,10054,6,0,L|467:236,1,90,4|0,0:0|0:0,0:0:0:0:
324,96,10554,2,0,L|332:185,1,90,8|0,0:0|0:0,0:0:0:0:
404,71,11054,2,0,P|378:35|339:13,1,90,0|0,0:0|0:0,0:0:0:0:
256,216,11554,2,0,P|281:252|320:274,1,90,8|0,0:0|0:0,0:0:0:0:
320,274,11929,1,0,0:0:0:0:
320,274,12054,5,0,0:0:0:0:
368,160,12304,1,0,0:0:0:0:
236,132,12554,2,0,P|197:155|172:191,1,90,8|0,0:0|0:0,0:0:0:0:
236,344,13054,1,0,0:0:0:0:
276,236,13304,1,0,0:0:0:0:
139,296,13554,1,8,0:0:0:0:
109,307,13679,1,0,0:0:0:0:
78,308,13804,1,0,0:0:0:0:
48,298,13929,1,0,0:0:0:0:
23,280,14054,6,0,L|-2:193,1,90,4|0,0:0|0:0,0:0:0:0:
144,51,14554,1,8,0:0:0:0:
116,191,14804,1,0,0:0:0:0:
0,91,15054,2,0,L|86:114,1,90,0|0,0:0|0:0,0:0:0:0:
248,151,15554,1,8,0:0:0:0:
353,46,15804,1,0,0:0:0:0:
353,46,15929,1,0,0:0:0:0:
353,46,16054,5,4,0:0:0:0:
382,181,16304,1,0,0:0:0:0:
408,301,16554,1,8,0:0:0:0:
385,279,16679,1,0,0:0:0:0:
356,269,16804,1,0,0:0:0:0:
325,273,16929,1,0,0:0:0:0:
298,289,17054,1,8,0:0:0:0:
275,310,17179,1,0,0:0:0:0:
245,319,17304,1,8,0:0:0:0:
213,312,17429,1,0,0:0:0:0:
191,291,17554,1,8,0:0:0:0:
162,281,17679,1,0,0:0:0:0:
131,285,17804,1,8,0:0:0:0:
28,120,18054,5,4,0:0:0:0:
131,285,18304,1,4,0:0:0:0:
222,126,18554,1,2,0:0:0:0:
131,285,18804,2,0,P|88:299|44:293,2,90,0|0|0,0:0|0:0|0:0,0:0:0:0:
248,252,19554,2,0,L|304:321,1,90,8|0,0:0|0:0,0:0:0:0:
416,256,20054,6,0,L|416:166,1,90,0|0,0:0|0:0,0:0:0:0:
348,56,20554,1,8,0:0:0:0:
472,72,20804,1,0,0:0:0:0:
304,176,21054,1,0,0:0:0:0:
512,200,21304,1,0,0:0:0:0:
404,152,21554,1,8,0:0:0:0:
404,264,21804,1,0,0:0:0:0:
288,100,22054,5,4,0:0:0:0:
471,210,22304,1,4,0:0:0:0:
288,279,22554,2,0,P|243:277|204:256,2,90,2|0|0,0:0|0:0|0:0,0:0:0:0:
376,240,23304,1,0,0:0:0:0:
204,256,23554,1,10,0:0:0:0:
328,352,23804,1,0,0:0:0:0:
188,176,24054,6,0,P|148:195|123:233,2,90,0|0|8,0:0|0:0|0:0,0:0:0:0:
292,264,24804,1,0,0:0:0:0:
464,256,25054,1,0,0:0:0:0:
264,336,25304,1,0,0:0:0:0:
353,182,25554,2,0,L|361:230,1,45,8|0,0:0|0:0,0:0:0:0:
370,359,25804,2,0,L|396:298,1,45,0|0,0:0|0:0,0:0:0:0:
429,180,26054,5,0,0:0:0:0:
262,223,26304,1,4,0:0:0:0:
370,359,26554,1,2,0:0:0:0:
429,180,26804,2,0,P|466:157|511:153,2,90,0|0|0,0:0|0:0|0:0,0:0:0:0:
268,252,27554,1,8,0:0:0:0:
128,144,27804,1,0,0:0:0:0:
111,296,28054,6,0,P|146:268|172:232,1,90,0|0,0:0|0:0,0:0:0:0:
232,100,28554,1,8,0:0:0:0:
268,252,28804,1,0,0:0:0:0:
411,165,29054,2,0,P|368:153|324:160,1,90,0|0,0:0|0:0,0:0:0:0:
288,344,29554,1,8,0:0:0:0:
360,260,29804,1,0,0:0:0:0:
111,296,30054,5,0,0:0:0:0:
384,348,30304,1,0,0:0:0:0:
249,154,30554,2,0,P|216:213|212:280,1,135,8|0,0:0|0:0,0:0:0:0:
220,316,31054,1,0,0:0:0:0:
492,220,31304,5,4,0:0:0:0:
420,176,31804,5,4,0:0:0:0:
496,124,32054,1,0,0:0:0:0:
420,256,32304,1,0,0:0:0:0:
364,108,32554,1,0,0:0:0:0:
496,124,32804,1,4,0:0:0:0:
327,26,33054,5,8,0:0:0:0:
291,52,33179,1,0,0:0:0:0:
273,93,33304,1,8,0:0:0:0:
278,137,33429,1,0,0:0:0:0:
303,173,33554,1,8,0:0:0:0:
333,205,33679,1,0,0:0:0:0:
343,248,33804,1,0,0:0:0:0:
331,291,33929,1,0,0:0:0:0:
298,323,34054,6,0,P|259:343|215:339,1,90,4|0,0:0|0:0,0:0:0:0:
129,262,34554,1,8,0:0:0:0:
155,82,34804,2,0,P|150:127|168:168,1,90
32,271,35304,2,0,P|53:232|57:188,1,90,0|8,0:0|0:0,0:0:0:0:
60,32,35804,1,0,0:0:0:0:
168,168,36054,5,0,0:0:0:0:
12,108,36304,1,0,0:0:0:0:
229,51,36554,1,8,0:0:0:0:
168,168,36804,2,0,P|159:211|165:256,1,90,8|0,0:0|0:0,0:0:0:0:
356,175,37304,2,0,P|348:220|352:264,1,90
444,112,37804,1,0,0:0:0:0:
268,200,38054,6,0,P|204:200|152:172,1,90,2|0,0:0|0:0,0:0:0:0:
96,128,38554,1,8,0:0:0:0:
112,260,38804,2,0,P|116:304|107:348,1,90,0|0,0:0|0:0,0:0:0:0:
20,192,39304,1,0,0:0:0:0:
180,191,39554,1,8,0:0:0:0:
16,300,39804,1,0,0:0:0:0:
204,300,40054,6,0,P|240:325|264:363,1,90,0|0,0:0|0:0,0:0:0:0:
92,212,40554,2,0,P|95:167|116:127,1,90,8|0,0:0|0:0,0:0:0:0:
220,32,41054,1,0,0:0:0:0:
304,224,41304,1,4,0:0:0:0:
356,88,41554,1,8,0:0:0:0:
216,148,41804,1,0,0:0:0:0:
379,175,42054,6,0,P|384:262|314:312,2,180,4|8|0,0:0|0:0|0:0,0:0:0:0:
249,84,43304,1,0,0:0:0:0:
151,218,43554,1,8,0:0:0:0:
304,224,43804,1,0,0:0:0:0:
163,126,44054,5,0,0:0:0:0:
136,316,44304,1,0,0:0:0:0:
234,176,44554,1,8,0:0:0:0:
67,251,44804,1,0,0:0:0:0:
71,91,45054,1,0,0:0:0:0:
159,213,45304,2,0,P|165:257|152:299,1,90,0|8,0:0|0:0,0:0:0:0:
172,126,45804,6,0,P|214:143|237:181,1,90
242,309,46304,1,0,0:0:0:0:
346,237,46554,2,0,L|433:215,1,90,8|0,0:0|0:0,0:0:0:0:
278,349,47054,2,0,L|190:327,1,90,0|0,0:0|0:0,0:0:0:0:
26,242,47554,1,8,0:0:0:0:
78,347,47804,1,0,0:0:0:0:
144,110,48054,5,4,0:0:0:0:
183,255,48304,1,0,0:0:0:0:
186,118,48554,1,8,0:0:0:0:
225,263,48804,1,0,0:0:0:0:
260,176,49054,2,0,L|305:168,1,45,8|8,0:0|0:0,0:0:0:0:
358,282,49304,2,0,L|225:263,1,135,8|0,0:0|0:0,0:0:0:0:
183,255,49804,1,0,0:0:0:0:
70,80,50054,5,4,0:0:0:0:
76,224,50304,1,0,0:0:0:0:
199,147,50554,1,8,0:0:0:0:
26,162,50804,2,0,P|1:199|0:244,1,90,0|0,0:0|0:0,0:0:0:0:
105,148,51304,2,0,P|85:108|47:85,1,90,0|8,0:0|0:0,0:0:0:0:
284,143,51804,1,0,0:0:0:0:
139,280,52054,5,0,0:0:0:0:
329,220,52304,1,0,0:0:0:0:
183,353,52554,1,8,0:0:0:0:
183,353,52804,1,0,0:0:0:0:
258,170,53054,1,0,0:0:0:0:
310,360,53304,1,0,0:0:0:0:
310,360,53554,1,8,0:0:0:0:
144,205,53804,1,0,0:0:0:0:
144,205,53929,1,0,0:0:0:0:
144,205,54054,6,0,P|105:228|77:263,1,90,2|0,0:0|0:0,0:0:0:0:
216,155,54554,1,8,0:0:0:0:
307,176,54804,6,0,P|351:169|390:148,1,90,0|0,0:0|0:0,0:0:0:0:
216,155,55304,2,0,P|188:120|150:96,1,90,0|8,0:0|0:0,0:0:0:0:
105,255,55804,1,0,0:0:0:0:
105,255,56054,5,0,0:0:0:0:
101,160,56304,1,0,0:0:0:0:
108,346,56554,1,8,0:0:0:0:
220,236,56804,1,0,0:0:0:0:
10,207,57054,1,2,0:0:0:0:
228,342,57304,1,2,0:0:0:0:
166,71,57554,1,8,0:0:0:0:
79,266,57804,1,8,0:0:0:0:
79,266,57929,1,0,0:0:0:0:
79,266,58054,5,4,0:0:0:0:
194,149,58304,1,8,0:0:0:0:
347,206,58554,1,0,0:0:0:0:
268,309,58804,2,0,P|237:277|220:236,1,90,0|0,0:0|0:0,0:0:0:0:
314,113,59304,1,0,0:0:0:0:
194,149,59554,1,8,0:0:0:0:
347,206,59804,1,0,0:0:0:0:
359,98,60054,5,0,0:0:0:0:
235,73,60304,1,0,0:0:0:0:
192,233,60554,2,0,P|234:222|267:191,1,90,8|0,0:0|0:0,0:0:0:0:
359,98,61054,1,0,0:0:0:0:
403,268,61304,1,0,0:0:0:0:
357,187,61554,1,8,0:0:0:0:
498,254,61804,2,0,L|498:299,1,45,4|0,0:0|0:0,0:0:0:0:
508,156,62054,6,0,P|463:156|422:140,1,90,2|0,0:0|0:0,0:0:0:0:
352,48,62554,1,8,0:0:0:0:
300,160,62804,2,0,P|291:203|293:248,1,90,0|0,0:0|0:0,0:0:0:0:
143,162,63304,2,0,P|167:199|200:229,1,90,0|8,0:0|0:0,0:0:0:0:
183,76,63804,6,0,P|96:79|49:151,1,180,4|8,0:0|0:0,0:0:0:0:
54,195,64429,1,0,0:0:0:0:
80,231,64554,1,8,0:0:0:0:
120,251,64679,1,8,0:0:0:0:
165,250,64804,2,0,L|213:237,1,45,8|8,0:0|0:0,0:0:0:0:
378,237,65054,2,0,L|334:224,1,45,8|0,0:0|0:0,0:0:0:0:
252,173,65304,1,8,0:0:0:0:
280,325,65554,1,8,0:0:0:0:
165,250,65804,1,8,0:0:0:0:
374,164,66054,5,4,0:0:0:0:
373,307,66304,1,0,0:0:0:0:
284,212,66554,1,8,0:0:0:0:
438,107,66804,2,0,P|459:146|456:190,1,90,0|0,0:0|0:0,0:0:0:0:
373,307,67304,1,0,0:0:0:0:
284,212,67554,2,0,P|241:204|196:209,1,90,8|0,0:0|0:0,0:0:0:0:
172,381,68054,6,0,P|207:353|232:316,1,90,0|0,0:0|0:0,0:0:0:0:
235,112,68554,1,8,0:0:0:0:
68,185,68804,1,0,0:0:0:0:
246,223,69054,1,0,0:0:0:0:
125,87,69304,1,0,0:0:0:0:
144,270,69554,1,8,0:0:0:0:
190,173,69804,1,8,0:0:0:0:
190,173,69929,1,8,0:0:0:0:
190,173,70054,5,2,0:0:0:0:
371,246,70304,1,0,0:0:0:0:
308,142,70554,1,8,0:0:0:0:
426,95,70804,2,0,L|431:185,1,90,0|0,0:0|0:0,0:0:0:0:
293,224,71304,2,0,P|254:204|231:166,1,90,0|8,0:0|0:0,0:0:0:0:
269,310,71804,1,0,0:0:0:0:
371,246,72054,5,0,0:0:0:0:
308,142,72304,1,0,0:0:0:0:
115,169,72554,2,0,P|152:193|196:206,1,90,8|0,0:0|0:0,0:0:0:0:
381,218,73054,1,2,0:0:0:0:
252,268,73304,1,2,0:0:0:0:
319,70,73554,1,12,0:0:0:0:
307,333,73804,1,8,0:0:0:0:
307,333,73929,1,8,0:0:0:0:
307,333,74054,5,12,0:0:0:0:
300,170,74304,1,0,0:0:0:0:
454,297,74554,1,0,0:0:0:0:
434,122,74804,2,0,P|402:152|389:195,1,90,8|0,0:0|0:0,0:0:0:0:
454,297,75304,1,0,0:0:0:0:
297,251,75554,1,8,0:0:0:0:
471,196,75804,1,0,0:0:0:0:
471,196,75929,1,0,0:0:0:0:
471,196,76054,5,0,0:0:0:0:
276,155,76304,1,0,0:0:0:0:
157,95,76554,1,8,0:0:0:0:
218,241,76804,1,8,0:0:0:0:
218,241,76929,1,0,0:0:0:0:
218,241,77054,1,0,0:0:0:0:
85,123,77304,1,0,0:0:0:0:
66,264,77554,1,8,0:0:0:0:
66,264,77679,1,0,0:0:0:0:
66,264,77804,1,0,0:0:0:0:
233,164,78054,5,4,0:0:0:0:
28,173,78304,1,0,0:0:0:0:
135,351,78554,1,8,0:0:0:0:
133,220,78804,2,0,L|124:130,1,90,4|0,0:0|0:0,0:0:0:0:
232,276,79304,2,0,L|223:365,1,90,0|8,0:0|0:0,0:0:0:0:
7,196,79804,6,0,B|39:165|83:176|83:176|106:121|159:125,1,180,4|0,0:0|0:0,0:0:0:0:
283,103,80554,1,8,0:0:0:0:
295,146,80679,1,0,0:0:0:0:
307,190,80804,1,8,0:0:0:0:
320,233,80929,1,0,0:0:0:0:
333,271,81054,1,8,0:0:0:0:
206,262,81304,1,8,0:0:0:0:
410,188,81554,1,8,0:0:0:0:
224,161,81804,1,8,0:0:0:0:
310,346,82054,5,4,0:0:0:0:
111,141,98054,6,0,L|200:127,1,90,4|4,0:0|0:0,0:0:0:0:
313,134,98554,1,2,0:0:0:0:
372,231,98804,1,0,0:0:0:0:
286,304,99054,2,0,P|230:310|187:293,1,90,0|2,0:0|0:0,0:0:0:0:
139,206,99554,1,8,0:0:0:0:
25,209,99804,1,0,0:0:0:0:
210,125,100054,6,0,P|236:161|246:205,1,90
91,304,100554,1,8,0:0:0:0:
77,98,100804,1,0,0:0:0:0:
139,206,101054,1,0,0:0:0:0:
271,60,101304,1,0,0:0:0:0:
267,175,101554,1,8,0:0:0:0:
164,14,101804,1,0,0:0:0:0:
51,185,102054,5,4,0:0:0:0:
352,109,102304,1,4,0:0:0:0:
243,273,102554,2,0,P|179:215|180:128,2,180,2|0|8,0:0|0:0|0:0,0:0:0:0:
364,309,103804,1,0,0:0:0:0:
412,191,104054,5,0,0:0:0:0:
316,200,104304,1,0,0:0:0:0:
452,273,104554,1,8,0:0:0:0:
454,113,104804,1,0,0:0:0:0:
316,200,105054,1,0,0:0:0:0:
412,191,105304,1,0,0:0:0:0:
229,177,105554,5,8,0:0:0:0:
197,178,105679,1,0,0:0:0:0:
167,170,105804,1,8,0:0:0:0:
139,155,105929,1,0,0:0:0:0:
117,132,106054,5,4,0:0:0:0:
135,265,106304,1,4,0:0:0:0:
229,177,106554,1,2,0:0:0:0:
32,189,106804,2,0,P|16:147|17:102,1,90,0|0,0:0|0:0,0:0:0:0:
117,132,107304,1,0,0:0:0:0:
215,272,107554,2,0,P|175:293|131:288,1,90,8|0,0:0|0:0,0:0:0:0:
236,192,108054,5,0,0:0:0:0:
250,348,108304,1,0,0:0:0:0:
160,213,108554,1,8,0:0:0:0:
316,266,108804,2,0,P|359:257|395:230,2,90,0|0|0,0:0|0:0|0:0,0:0:0:0:
312,154,109553,1,8,0:0:0:0:
375,339,109804,1,0,0:0:0:0:
473,204,110054,5,4,0:0:0:0:
217,215,110304,1,4,0:0:0:0:
394,128,110554,2,0,B|421:115|421:115|455:124|479:122,2,90,8|0|4,0:0|0:0|0:0,0:0:0:0:
147,242,111304,1,4,0:0:0:0:
117,213,111804,1,4,0:0:0:0:
198,119,112054,5,0,0:0:0:0:
87,103,112304,1,0,0:0:0:0:
210,225,112554,1,8,0:0:0:0:
26,194,112804,1,12,0:0:0:0:
104,305,113054,5,8,0:0:0:0:
138,334,113179,1,0,0:0:0:0:
182,343,113304,1,8,0:0:0:0:
224,329,113429,1,0,0:0:0:0:
253,315,113554,1,8,0:0:0:0:
295,301,113679,1,8,0:0:0:0:
338,309,113804,1,8,0:0:0:0:
372,338,113929,1,8,0:0:0:0:
389,365,114054,5,12,0:0:0:0:
430,188,114304,1,0,0:0:0:0:
408,276,114554,1,8,0:0:0:0:
255,173,114804,2,0,L|339:207,1,90,0|0,0:0|0:0,0:0:0:0:
178,357,115304,2,0,L|262:323,1,90,0|8,0:0|0:0,0:0:0:0:
338,206,115804,1,0,0:0:0:0:
186,140,116054,6,0,P|178:184|200:223,1,90
274,73,116554,1,8,0:0:0:0:
145,74,116804,2,0,B|103:73|103:73|56:61,2,90,0|0|0,0:0|0:0|0:0,0:0:0:0:
145,204,117554,2,0,B|99:216|99:216|57:217,1,90,8|0,0:0|0:0,0:0:0:0:
40,135,118054,5,0,0:0:0:0:
76,298,118304,1,0,0:0:0:0:
215,176,118554,1,8,0:0:0:0:
153,44,118804,2,0,P|134:84|136:129,1,90,0|0,0:0|0:0,0:0:0:0:
211,260,119304,1,0,0:0:0:0:
382,137,119554,2,0,P|337:131|295:145,1,90,8|0,0:0|0:0,0:0:0:0:
308,262,120054,5,0,0:0:0:0:
201,171,120304,1,0,0:0:0:0:
371,216,120554,1,8,0:0:0:0:
211,260,120804,1,4,0:0:0:0:
382,137,121054,1,0,0:0:0:0:
261,331,121304,1,4,0:0:0:0:
325,81,121554,1,8,0:0:0:0:
350,348,121804,1,8,0:0:0:0:
237,91,122054,6,0,P|151:98|113:176,2,180,4|8|0,0:0|0:0|0:0,0:0:0:0:
329,230,123304,2,0,P|333:275|317:317,1,90,0|8,0:0|0:0,0:0:0:0:
210,259,123804,1,0,0:0:0:0:
313,150,124054,5,0,0:0:0:0:
158,180,124304,1,0,0:0:0:0:
257,339,124554,1,8,0:0:0:0:
426,281,124804,2,0,L|433:191,1,90
306,61,125304,2,0,L|313:150,1,90,0|8,0:0|0:0,0:0:0:0:
276,269,125804,1,0,0:0:0:0:
73,256,126054,6,0,P|106:285|151:288,1,90,8|0,0:0|0:0,0:0:0:0:
144,130,126554,2,0,L|133:227,1,90,8|0,0:0|0:0,0:0:0:0:
85,91,127054,2,0,P|118:62|162:59,1,90,0|0,0:0|0:0,0:0:0:0:
240,118,127554,1,8,0:0:0:0:
297,227,127804,1,0,0:0:0:0:
441,126,128054,5,6,0:0:0:0:
221,195,128304,1,0,0:0:0:0:
341,65,128554,1,8,0:0:0:0:
343,303,128804,1,8,0:0:0:0:
283,128,129054,1,8,0:0:0:0:
283,128,129179,1,8,0:0:0:0:
283,128,129304,1,4,0:0:0:0:
336,208,129804,1,0,0:0:0:0:
134,317,130054,5,4,0:0:0:0:
348,299,130304,1,0,0:0:0:0:
175,195,130554,1,8,0:0:0:0:
242,325,130804,2,0,L|269:215,1,90,0|0,0:0|0:0,0:0:0:0:
234,78,131304,1,0,0:0:0:0:
358,136,131554,1,8,0:0:0:0:
148,145,131804,1,0,0:0:0:0:
326,27,132054,5,0,0:0:0:0:
313,211,132304,2,0,P|355:225|399:216,1,90,0|8,0:0|0:0,0:0:0:0:
255,118,132804,1,0,0:0:0:0:
200,252,133054,2,0,L|198:341,1,90,0|0,0:0|0:0,0:0:0:0:
50,191,133554,2,0,L|67:279,1,90,8|0,0:0|0:0,0:0:0:0:
146,128,134054,5,0,0:0:0:0:
251,167,134304,1,0,0:0:0:0:
163,241,134554,1,8,0:0:0:0:
215,96,134804,2,0,P|257:85|299:101,1,90,0|0,0:0|0:0,0:0:0:0:
345,257,135304,2,0,P|304:273|261:262,1,90,0|8,0:0|0:0,0:0:0:0:
164,160,135804,1,0,0:0:0:0:
164,160,135929,1,0,0:0:0:0:
164,160,136054,5,0,0:0:0:0:
110,304,136304,1,0,0:0:0:0:
56,163,136554,2,0,L|22:80,1,90,8|0,0:0|0:0,0:0:0:0:
209,88,137054,1,2,0:0:0:0:
116,226,137304,1,2,0:0:0:0:
117,80,137554,1,8,0:0:0:0:
258,233,137804,1,0,0:0:0:0:
390,119,138054,6,0,L|303:139,1,90,4|0,0:0|0:0,0:0:0:0:
182,162,138554,1,8,0:0:0:0:
243,353,138804,2,0,P|264:314|272:270,1,90,0|0,0:0|0:0,0:0:0:0:
226,79,139304,1,0,0:0:0:0:
338,213,139554,1,8,0:0:0:0:
185,238,139804,1,0,0:0:0:0:
185,238,139929,1,0,0:0:0:0:
185,238,140054,5,0,0:0:0:0:
343,131,140304,1,0,0:0:0:0:
161,162,140554,2,0,P|121:141|90:108,2,90,8|0|0,0:0|0:0|0:0,0:0:0:0:
274,268,141304,1,0,0:0:0:0:
343,131,141554,1,8,0:0:0:0:
233,197,141804,1,0,0:0:0:0:
236,341,142054,5,4,0:0:0:0:
329,271,142304,1,0,0:0:0:0:
143,276,142554,1,8,0:0:0:0:
432,184,142804,2,0,P|421:140|396:103,1,90,0|0,0:0|0:0,0:0:0:0:
233,197,143304,2,0,P|277:196|321:186,1,90,0|0,0:0|0:0,0:0:0:0:
214,113,143804,1,0,0:0:0:0:
204,306,144054,5,0,0:0:0:0:
78,198,144304,1,0,0:0:0:0:
272,269,144554,1,8,0:0:0:0:
299,253,144679,1,0,0:0:0:0:
326,237,144804,1,8,0:0:0:0:
353,221,144929,1,0,0:0:0:0:
381,206,145054,1,0,0:0:0:0:
495,237,145304,1,8,0:0:0:0:
334,132,145554,1,8,0:0:0:0:
413,317,145804,1,8,0:0:0:0:
380,66,146054,6,0,P|337:53|293:63,1,90,0|0,0:0|0:0,0:0:0:0:
197,204,146554,1,0,0:0:0:0:
349,308,146804,2,0,P|362:265|354:221,1,90,0|0,0:0|0:0,0:0:0:0:
237,121,147304,1,0,0:0:0:0:
166,287,147554,1,8,0:0:0:0:
280,204,147804,1,0,0:0:0:0:
129,206,148054,5,0,0:0:0:0:
258,283,148304,1,0,0:0:0:0:
153,127,148554,2,0,P|109:126|69:146,1,90,8|0,0:0|0:0,0:0:0:0:
210,187,149054,2,0,P|233:149|236:104,1,90,0|0,0:0|0:0,0:0:0:0:
129,206,149554,2,0,P|149:245|187:269,1,90,8|0,0:0|0:0,0:0:0:0:
187,269,149929,1,0,0:0:0:0:
187,269,150054,5,4,0:0:0:0:
343,180,150304,1,8,0:0:0:0:
315,335,150554,2,0,L|283:250,1,90,0|0,0:0|0:0,0:0:0:0:
236,111,151054,1,0,0:0:0:0:
427,155,151304,2,0,P|387:176|343:180,1,90,0|8,0:0|0:0,0:0:0:0:
237,187,151804,1,0,0:0:0:0:
357,74,152054,5,0,0:0:0:0:
343,180,152304,1,0,0:0:0:0:
254,86,152554,2,0,P|209:80|166:92,1,90,8|0,0:0|0:0,0:0:0:0:
65,184,153054,1,2,0:0:0:0:
65,77,153304,1,2,0:0:0:0:
206,267,153554,1,8,0:0:0:0:
343,220,153804,1,0,0:0:0:0:
343,220,153929,1,0,0:0:0:0:
343,220,154054,6,0,P|330:263|333:307,1,90,4|0,0:0|0:0,0:0:0:0:
385,147,154554,1,8,0:0:0:0:
509,280,154804,2,0,P|464:287|422:275,1,90,0|0,0:0|0:0,0:0:0:0:
297,165,155304,1,0,0:0:0:0:
300,291,155554,1,8,0:0:0:0:
416,161,155804,1,0,0:0:0:0:
416,161,155929,1,0,0:0:0:0:
416,161,156054,5,0,0:0:0:0:
226,226,156304,1,0,0:0:0:0:
160,139,156554,1,8,0:0:0:0:
110,322,156804,2,0,P|135:284|147:241,1,90,0|0,0:0|0:0,0:0:0:0:
263,133,157304,1,0,0:0:0:0:
263,133,157429,1,0,0:0:0:0:
263,133,157554,2,0,L|306:143,1,45,8|0,0:0|0:0,0:0:0:0:
364,209,157804,2,0,L|320:219,1,45,8|0,0:0|0:0,0:0:0:0:
384,136,158054,6,0,P|421:160|439:200,1,90,4|0,0:0|0:0,0:0:0:0:
336,304,158554,1,8,0:0:0:0:
306,143,158804,2,0,P|314:99|344:66,1,90,4|0,0:0|0:0,0:0:0:0:
320,219,159304,2,0,P|276:212|241:184,1,90,0|0,0:0|0:0,0:0:0:0:
152,55,159804,1,4,0:0:0:0:
106,84,160304,5,0,0:0:0:0:
76,183,160554,1,8,0:0:0:0:
78,228,160679,1,8,0:0:0:0:
80,273,160804,1,8,0:0:0:0:
82,318,160929,1,8,0:0:0:0:
83,363,161054,1,8,0:0:0:0:
210,208,161304,1,8,0:0:0:0:
63,112,161554,1,8,0:0:0:0:
166,270,161804,1,8,0:0:0:0:
249,95,162054,5,2,0:0:0:0:
216,144,178054,6,0,P|262:92|328:71,1,140,0|0,0:0|0:0,0:0:0:0:
409,116,178804,1,0,0:0:0:0:
368,200,179054,2,0,P|351:267|368:334,1,140,0|2,0:0|0:0,0:0:0:0:
368,334,179804,1,0,0:0:0:0:
442,168,180304,2,0,P|377:141|331:89,1,140,0|0,0:0|0:0,0:0:0:0:
256,40,181054,1,0,0:0:0:0:
167,60,181304,2,0,P|127:115|64:145,1,140,0|0,0:0|0:0,0:0:0:0:
36,232,182054,5,6,0:0:0:0:
256,340,182866,6,0,L|256:217,1,122.5,0|2,0:0|0:0,0:0:0:0:
256,36,183804,1,0,0:0:0:0:
256,128,184054,1,0,0:0:0:0:
344,144,184304,2,0,P|400:186|431:248,1,140,0|2,0:0|0:0,0:0:0:0:
256,296,185304,1,0,0:0:0:0:
168,316,185554,1,2,0:0:0:0:
80,332,185804,1,0,0:0:0:0:
80,331,186054,6,0,P|64:264|22:209,2,140,4|2|0,0:0|0:0|0:0,0:0:0:0:
168,316,187304,1,0,0:0:0:0:
256,296,187554,1,2,0:0:0:0:
324,236,187804,6,0,P|391:252|461:252,2,140,4|2|0,0:0|0:0|0:0,0:0:0:0:
324,236,189304,1,0,0:0:0:0:
244,196,189554,1,0,0:0:0:0:
164,152,189804,1,0,0:0:0:0:
164,152,190054,6,0,P|152:84|153:14,1,140,0|0,0:0|0:0,0:0:0:0:
240,115,190804,2,0,P|305:93|373:106,1,140,0|0,0:0|0:0,0:0:0:0:
360,344,191804,2,0,P|335:278|338:209,2,140,0|0|0,0:0|0:0|0:0,0:0:0:0:
188,192,193304,5,2,0:0:0:0:
258,70,193679,5,2,0:0:0:0:
328,192,194054,5,4,0:0:0:0:
256,192,194179,12,0,196054,0:0:0:0:
216,192,196304,5,0,0:0:0:0:
256,272,196554,2,0,L|256:317,3,45,8|8|0|0,0:0|0:0|0:0|0:0,0:0:0:0:
292,192,197179,1,0,0:0:0:0:
256,112,197429,2,0,L|256:67,3,45,8|8|0|0,0:0|0:0|0:0|0:0,0:0:0:0:
256,304,198054,5,2,0:0:0:0:
200,232,198304,1,0,0:0:0:0:
312,232,198554,1,8,0:0:0:0:
144,160,198804,1,2,0:0:0:0:
368,160,199054,1,0,0:0:0:0:
88,88,199304,1,8,0:0:0:0:
424,88,199554,1,8,0:0:0:0:
256,40,199804,1,0,0:0:0:0:
256,192,200054,6,0,L|256:282,1,90,4|0,0:0|0:0,0:0:0:0:
104,252,200554,1,8,0:0:0:0:
232,352,200804,1,0,0:0:0:0:
120,356,201054,1,0,0:0:0:0:
291,255,201304,2,0,P|247:248|204:258,1,90,0|8,0:0|0:0,0:0:0:0:
328,344,201804,1,0,0:0:0:0:
444,203,202054,6,0,P|401:217|370:249,1,90,0|0,0:0|0:0,0:0:0:0:
456,304,202554,1,8,0:0:0:0:
491,147,202804,2,0,B|444:104|384:160|317:138,1,180,0|0,0:0|0:0,0:0:0:0:
224,80,203554,1,8,0:0:0:0:
216,192,203804,1,0,0:0:0:0:
112,124,204054,2,0,L|8:104,1,90,0|0,0:0|0:0,0:0:0:0:
72,220,204554,1,8,0:0:0:0:
112,347,204804,2,0,P|134:309|143:265,1,90,0|0,0:0|0:0,0:0:0:0:
188,184,205304,1,0,0:0:0:0:
327,280,205554,6,0,P|283:277|241:261,2,90,8|0|0,0:0|0:0|0:0,0:0:0:0:
428,242,206304,1,0,0:0:0:0:
428,336,206554,1,8,0:0:0:0:
350,196,206804,2,0,P|348:151|360:108,1,90,4|2,0:0|0:0,0:0:0:0:
472,164,207304,1,6,0:0:0:0:
284,88,207554,1,8,0:0:0:0:
480,76,207804,1,0,0:0:0:0:
350,196,208054,6,0,B|286:232|222:196|222:196|179:211,2,180,4|8|0,0:0|0:0|0:0,0:0:0:0:
432,247,209304,2,0,P|428:292|414:335,1,90,0|8,0:0|0:0,0:0:0:0:
448,148,209804,1,0,0:0:0:0:
360,96,210054,2,0,P|338:56|331:12,1,90,0|0,0:0|0:0,0:0:0:0:
448,16,210554,1,8,0:0:0:0:
363,188,210804,2,0,P|319:182|277:166,1,90,0|0,0:0|0:0,0:0:0:0:
176,260,211304,2,0,P|182:304|175:348,2,90,8|0|0,0:0|0:0|0:0,0:0:0:0:
100,144,212054,6,0,P|56:152|18:176,1,90,0|0,0:0|0:0,0:0:0:0:
88,328,212554,2,0,P|95:283|88:239,1,90,8|0,0:0|0:0,0:0:0:0:
184,176,213054,2,0,L|273:162,1,90,0|0,0:0|0:0,0:0:0:0:
368,108,213554,1,8,0:0:0:0:
360,248,213804,1,0,0:0:0:0:
280,80,214054,5,4,0:0:0:0:
428,184,214304,1,0,0:0:0:0:
428,32,214554,1,8,0:0:0:0:
296,200,214804,1,8,0:0:0:0:
480,328,215054,1,8,0:0:0:0:
480,328,215179,1,8,0:0:0:0:
480,328,215304,2,0,L|469:193,1,135,8|0,0:0|0:0,0:0:0:0:
464,140,215804,1,0,0:0:0:0:
252,104,216054,5,4,0:0:0:0:
360,224,216304,1,0,0:0:0:0:
384,96,216554,1,8,0:0:0:0:
248,216,216804,2,0,P|234:258|233:303,1,90,0|0,0:0|0:0,0:0:0:0:
332,152,217304,1,0,0:0:0:0:
200,139,217554,2,0,P|155:134|116:112,1,90,8|0,0:0|0:0,0:0:0:0:
92,284,218054,6,0,P|64:248|52:205,1,90,0|0,0:0|0:0,0:0:0:0:
184,56,218554,1,8,0:0:0:0:
144,208,218804,1,0,0:0:0:0:
36,104,219054,1,0,0:0:0:0:
224,144,219304,1,0,0:0:0:0:
52,205,219554,1,8,0:0:0:0:
96,36,219804,1,0,0:0:0:0:
215,255,220054,6,0,P|180:284|136:289,1,90,4|0,0:0|0:0,0:0:0:0:
52,205,220554,1,8,0:0:0:0:
247,175,220804,2,0,P|284:201|303:242,1,90,0|0,0:0|0:0,0:0:0:0:
164,160,221304,2,0,P|182:119|219:93,1,90,0|8,0:0|0:0,0:0:0:0:
416,160,221804,1,0,0:0:0:0:
416,160,221929,1,0,0:0:0:0:
416,159,222054,6,0,P|403:203|399:247,1,90,0|0,0:0|0:0,0:0:0:0:
432,356,222554,1,8,0:0:0:0:
316,316,222804,1,0,0:0:0:0:
492,272,223054,1,2,0:0:0:0:
248,196,223304,1,2,0:0:0:0:
361,89,223554,2,0,P|393:120|416:159,1,90,8|0,0:0|0:0,0:0:0:0:
216,288,224054,5,4,0:0:0:0:
136,136,224304,1,0,0:0:0:0:
312,176,224554,2,0,P|240:172|184:204,1,135,8|0,0:0|0:0,0:0:0:0:
168,224,225054,1,0,0:0:0:0:
208,64,225304,1,0,0:0:0:0:
252,256,225554,1,8,0:0:0:0:
84,176,225804,1,0,0:0:0:0:
80,356,226054,6,0,P|117:331|136:291,1,90,0|0,0:0|0:0,0:0:0:0:
136,108,226554,1,8,0:0:0:0:
272,232,226804,2,0,P|315:241|357:226,1,90,0|0,0:0|0:0,0:0:0:0:
216,148,227304,1,0,0:0:0:0:
236,320,227554,1,8,0:0:0:0:
308,156,227804,1,0,0:0:0:0:
120,216,228054,5,0,0:0:0:0:
300,292,228304,1,0,0:0:0:0:
100,324,228554,1,8,0:0:0:0:
347,364,228804,2,0,P|378:331|386:287,1,90,0|0,0:0|0:0,0:0:0:0:
337,126,229304,2,0,P|293:202|299:291,1,180,0|4,0:0|0:0,0:0:0:0:
436,236,230054,5,0,0:0:0:0:
400,47,230304,2,0,L|407:91,1,45,0|0,0:0|0:0,0:0:0:0:
328,157,230554,1,8,0:0:0:0:
283,158,230679,1,0,0:0:0:0:
246,134,230804,1,8,0:0:0:0:
228,93,230929,1,0,0:0:0:0:
209,52,231054,1,8,0:0:0:0:
173,26,231179,1,0,0:0:0:0:
129,22,231304,1,2,0:0:0:0:
88,41,231429,1,0,0:0:0:0:
64,79,231554,1,8,0:0:0:0:
99,190,231804,1,2,0:0:0:0:
280,144,232054,5,4,0:0:0:0:
36,264,232304,1,0,0:0:0:0:
168,116,232554,1,8,0:0:0:0:
204,312,232804,1,0,0:0:0:0:
248,224,233054,1,0,0:0:0:0:
104,192,233304,1,0,0:0:0:0:
303,284,233554,2,0,P|328:246|330:202,1,90,0|0,0:0|0:0,0:0:0:0:
216,156,234054,5,0,0:0:0:0:
204,312,234304,1,0,0:0:0:0:
330,202,234554,1,8,0:0:0:0:
148,232,234804,1,0,0:0:0:0:
292,352,235054,1,0,0:0:0:0:
248,168,235304,1,0,0:0:0:0:
124,307,235554,2,0,P|79:307|38:289,1,90,8|0,0:0|0:0,0:0:0:0:
92,110,236054,6,0,L|104:200,1,90,2|0,0:0|0:0,0:0:0:0:
38,289,236554,1,8,0:0:0:0:
196,239,236804,2,0,B|249:205|321:273|371:235,1,180,0|0,0:0|0:0,0:0:0:0:
373,74,237554,2,0,P|344:109|332:152,1,90,8|0,0:0|0:0,0:0:0:0:
332,151,237929,1,0,0:0:0:0:
332,151,238054,5,0,0:0:0:0:
416,268,238304,1,0,0:0:0:0:
264,204,238554,1,8,0:0:0:0:
420,180,238804,1,0,0:0:0:0:
344,296,239054,1,2,0:0:0:0:
252,108,239304,1,2,0:0:0:0:
476,240,239554,1,8,0:0:0:0:
264,204,239804,1,8,0:0:0:0:
264,204,239929,1,8,0:0:0:0:
264,204,240054,6,0,P|219:198|178:180,1,90,4|0,0:0|0:0,0:0:0:0:
40,244,240554,1,8,0:0:0:0:
139,323,240804,2,0,P|182:336|225:327,1,90,0|0,0:0|0:0,0:0:0:0:
320,192,241304,1,0,0:0:0:0:
436,327,241554,2,0,P|393:341|350:332,1,90,8|0,0:0|0:0,0:0:0:0:
208,224,242055,5,0,0:0:0:0:
432,188,242304,1,0,0:0:0:0:
224,148,242554,1,8,0:0:0:0:
388,264,242804,1,0,0:0:0:0:
288,108,243054,1,0,0:0:0:0:
264,284,243304,1,0,0:0:0:0:
142,161,243554,2,0,L|108:130,1,45,8|8,0:0|0:0,0:0:0:0:
40,68,243804,1,8,0:0:0:0:
40,68,243929,1,0,0:0:0:0:
40,68,244054,5,4,0:0:0:0:
36,216,244304,1,0,0:0:0:0:
164,76,244554,1,8,0:0:0:0:
256,232,244804,2,0,P|211:229|176:202,1,90,4|0,0:0|0:0,0:0:0:0:
324,180,245304,2,0,P|343:219|338:263,1,90,8|4,0:0|0:0,0:0:0:0:
240,151,245804,6,0,P|302:92|385:113,1,180,4|0,0:0|0:0,0:0:0:0:
475,247,246554,5,8,0:0:0:0:
471,292,246679,1,8,0:0:0:0:
442,326,246804,1,8,0:0:0:0:
400,338,246929,1,0,0:0:0:0:
355,329,247054,1,8,0:0:0:0:
314,313,247179,1,0,0:0:0:0:
270,318,247304,1,8,0:0:0:0:
232,342,247429,1,8,0:0:0:0:
210,380,247554,1,8,0:0:0:0:
224,168,247804,1,8,0:0:0:0:
120,280,248065,6,0,L|224:248,1,90,4|0,0:0|0:0,0:0:0:0:
320,84,248586,1,10,0:0:0:0:
392,204,248847,5,6,0:0:0:0:
36,144,249369,5,2,0:0:0:0:
464,84,249891,5,4,0:0:0:0:
188,51,250405,5,4,0:0:0:0:
193,225,250659,1,8,0:0:0:0:
222,260,250786,1,0,0:0:0:0:
259,285,250913,1,0,0:0:0:0:
302,298,251040,1,0,0:0:0:0:
347,298,251167,1,0,0:0:0:0:
390,286,251294,1,0,0:0:0:0:
428,261,251421,1,0,0:0:0:0:
457,227,251548,1,0,0:0:0:0:
484,191,251676,1,8,0:0:0:0:
492,348,251930,1,8,0:0:0:0:
295,235,252184,6,0,P|251:240|216:267,1,90,4|0,0:0|0:0,0:0:0:0:
364,288,252684,2,0,P|382:247|376:203,1,90,0|0,0:0|0:0,0:0:0:0:
284,320,253184,2,0,P|309:356|350:373,1,90,0|0,0:0|0:0,0:0:0:0:
496,236,253684,2,0,L|409:212,1,90,0|0,0:0|0:0,0:0:0:0:
376,203,254059,1,0,0:0:0:0:
376,203,254184,5,0,0:0:0:0:
276,116,254434,1,0,0:0:0:0:
364,72,254684,1,0,0:0:0:0:
288,247,254934,2,0,L|201:222,1,90,0|0,0:0|0:0,0:0:0:0:
132,352,255434,2,0,L|218:327,1,90,0|0,0:0|0:0,0:0:0:0:
110,256,255934,6,0,L|24:232,1,90,0|0,0:0|0:0,0:0:0:0:
152,148,256434,1,0,0:0:0:0:
256,180,256684,1,0,0:0:0:0:
352,128,256934,1,0,0:0:0:0:
268,279,257184,1,0,0:0:0:0:
352,128,257434,1,0,0:0:0:0:
256,180,257684,1,0,0:0:0:0:
152,148,257934,1,0,0:0:0:0:
244,64,258184,5,0,0:0:0:0:
256,180,258434,1,0,0:0:0:0:
160,64,258684,1,0,0:0:0:0:
352,128,258934,2,0,L|438:154,1,90,0|0,0:0|0:0,0:0:0:0:
282,262,259434,2,0,L|368:235,1,90,0|0,0:0|0:0,0:0:0:0:
463,309,259934,1,0,0:0:0:0:
258,337,260184,6,0,P|222:310|204:269,1,90,0|0,0:0|0:0,0:0:0:0:
304,98,260684,2,0,P|299:142|272:178,1,90,0|0,0:0|0:0,0:0:0:0:
72,183,261184,2,0,P|113:165|158:170,1,90,0|0,0:0|0:0,0:0:0:0:
283,262,261684,1,0,0:0:0:0:
127,244,261934,1,0,0:0:0:0:
127,244,262059,1,0,0:0:0:0:
127,244,262184,5,0,0:0:0:0:
219,110,262434,1,0,0:0:0:0:
219,110,262559,1,0,0:0:0:0:
219,110,262684,1,0,0:0:0:0:
57,109,262934,2,0,L|135:152,1,90,0|0,0:0|0:0,0:0:0:0:
275,215,263434,1,0,0:0:0:0:
355,151,263684,1,0,0:0:0:0:
317,311,263934,1,0,0:0:0:0:
186,189,264184,5,0,0:0:0:0:
375,241,264434,1,0,0:0:0:0:
253,109,264684,1,0,0:0:0:0:
210,292,264934,1,0,0:0:0:0:
404,271,265184,1,0,0:0:0:0:
181,263,265434,1,0,0:0:0:0:
433,306,265684,1,0,0:0:0:0:
153,234,265934,1,0,0:0:0:0:
411,193,266184,5,0,0:0:0:0:
303,226,266434,1,0,0:0:0:0:
271,224,266559,1,0,0:0:0:0:
241,215,266684,1,0,0:0:0:0:
214,199,266809,1,0,0:0:0:0:
191,178,266934,1,0,0:0:0:0:
173,152,267059,1,0,0:0:0:0:
161,123,267184,1,0,0:0:0:0:
284,101,267434,1,0,0:0:0:0:
86,72,267684,1,8,0:0:0:0:
118,269,267934,5,0,0:0:0:0:
118,269,268059,1,0,0:0:0:0:
118,269,268184,2,0,P|162:256|206:260,1,90,4|0,0:0|0:0,0:0:0:0:
386,341,268684,2,0,P|341:344|298:332,1,90,8|0,0:0|0:0,0:0:0:0:
377,164,269184,2,0,P|389:207|385:251,1,90,2|0,0:0|0:0,0:0:0:0:
251,140,269684,2,0,P|247:95|259:52,1,90,8|0,0:0|0:0,0:0:0:0:
303,213,270184,6,0,P|240:230|182:198,1,135,0|0,0:0|0:0,0:0:0:0:
159,165,270684,1,8,0:0:0:0:
92,307,270934,2,0,L|60:205,1,90,0|0,0:0|0:0,0:0:0:0:
167,39,271434,2,0,L|159:128,1,90,0|8,0:0|0:0,0:0:0:0:
218,319,271934,6,0,P|241:281|248:237,1,90,0|0,0:0|0:0,0:0:0:0:
145,208,272434,1,0,0:0:0:0:
269,130,272684,2,0,P|309:111|354:107,1,90,8|0,0:0|0:0,0:0:0:0:
392,285,273184,1,0,0:0:0:0:
440,181,273434,2,0,L|436:136,1,45
467,249,273684,2,0,L|472:307,1,45,8|0,0:0|0:0,0:0:0:0:
394,329,273934,2,0,L|392:285,1,45
368,206,274184,6,0,P|301:212|250:254,1,135,0|0,0:0|0:0,0:0:0:0:
205,317,274684,2,0,L|138:224,1,90,8|0,0:0|0:0,0:0:0:0:
74,130,275184,1,0,0:0:0:0:
41,268,275434,1,8,0:0:0:0:
241,190,275684,1,12,0:0:0:0:
156,285,275934,2,0,L|154:329,1,45,0|0,0:0|0:0,0:0:0:0:
227,359,276184,6,0,L|228:314,1,45,4|0,0:0|0:0,0:0:0:0:
300,290,276434,2,0,L|301:334,1,45
381,243,276684,2,0,P|308:197|228:229,2,180,8|2|8,0:0|0:0|0:0,0:0:0:0:
452,343,277934,1,0,0:0:0:0:
452,343,278059,1,0,0:0:0:0:
452,343,278184,6,0,L|469:254,1,90,0|0,0:0|0:0,0:0:0:0:
383,93,278684,1,8,0:0:0:0:
475,148,278934,1,0,0:0:0:0:
381,243,279184,1,0,0:0:0:0:
469,68,279434,1,0,0:0:0:0:
333,155,279684,1,8,0:0:0:0:
303,164,279809,1,0,0:0:0:0:
271,166,279934,1,0,0:0:0:0:
240,162,280059,1,0,0:0:0:0:
211,151,280184,5,4,0:0:0:0:
244,279,280434,1,0,0:0:0:0:
297,72,280684,1,8,0:0:0:0:
146,219,280934,2,0,P|122:181|116:136,1,90,0|0,0:0|0:0,0:0:0:0:
211,151,281434,1,0,0:0:0:0:
35,86,281684,1,8,0:0:0:0:
65,311,281934,1,8,0:0:0:0:
392,278,282436,5,4,0:0:0:0:
339,207,282688,1,8,0:0:0:0:
308,239,282814,1,0,0:0:0:0:
300,282,282940,1,8,0:0:0:0:
318,323,283066,1,0,0:0:0:0:
284,294,283192,1,8,0:0:0:0:
242,278,283318,1,0,0:0:0:0:
197,277,283444,1,8,0:0:0:0:
155,292,283570,1,0,0:0:0:0:
116,308,283696,6,0,P|95:317|75:326,3,45,8|8|8|0,0:0|0:0|0:0|0:0,0:0:0:0:
12,360,284241,5,2,0:0:0:0:
53,198,284544,1,0,0:0:0:0:
146,338,284847,1,2,0:0:0:0:
250,236,285150,2,0,P|206:226|162:227,1,90,0|0,0:0|0:0,0:0:0:0:
320,301,285756,2,0,P|340:261|344:216,1,90,2|0,0:0|0:0,0:0:0:0:
344,128,286362,6,0,B|260:34|113:63|113:63|137:89,1,288,0|0,0:0|0:0,0:0:0:0:
128,172,288031,6,0,B|96:136|20:124|-28:204|-20:300|76:324|140:380|140:380|204:324|300:300|308:204|260:124|184:136|151:172,1,755.999976928712,0|0,0:0|0:0,0:0:0:0:
