osu file format v14

[General]
AudioFilename: coloring.mp3
AudioLeadIn: 0
PreviewTime: 49314
Countdown: 0
SampleSet: Soft
StackLeniency: 0.4
Mode: 0
LetterboxInBreaks: 0
WidescreenStoryboard: 0

[Editor]
Bookmarks: 148,8353,16558,24763,32968,41173,49378,57583,58609,65789,73994,82199,90148
DistanceSpacing: 1.5
BeatDivisor: 4
GridSize: 16
TimelineZoom: 1.9

[Metadata]
Title:Coloring
TitleUnicode:Coloring
Artist:Horie Yui
ArtistUnicode:堀江由衣
Creator:Karen
Version:Normal
Source:パパのいうことを聞きなさい!
Tags:Papa no Iukoto wo Kikinasai! papakiki ending Chaoslitz
BeatmapID:1158633
BeatmapSetID:532827

[Difficulty]
HPDrainRate:4
CircleSize:3
OverallDifficulty:5
ApproachRate:5
SliderMultiplier:1.3
SliderTickRate:1

[Events]
//Background and Video events
0,0,"xd.jpg",0,0
//Break Periods
//Storyboard Layer 0 (Background)
//Storyboard Layer 1 (Fail)
//Storyboard Layer 2 (Pass)
//Storyboard Layer 3 (Foreground)
//Storyboard Sound Samples

[TimingPoints]
148,512.820512820513,4,2,1,66,1,0
49378,-100,4,2,2,77,0,1
64763,-100,4,2,2,77,0,0
65789,-100,4,2,2,82,0,1
82199,-100,4,2,1,55,0,0

[Colours]
Combo1 : 255,140,198
Combo2 : 255,223,255

[HitObjects]
182,27,148,5,4,0:0:0:0:
239,97,404,2,0,L|348:88,1,97.5,2|0,0:0|0:0,0:0:0:0:
371,60,917,2,0,P|409:53|439:67,1,65,4|2,0:3|0:0,0:0:0:0:
467,146,1430,1,0,0:0:0:0:
414,220,1686,2,0,L|410:302,1,65,8|0,0:0|0:0,0:0:0:0:
374,368,2199,5,4,0:3:0:0:
320,294,2455,2,0,P|272:282|214:308,1,97.5,2|0,0:0|0:0,0:0:0:0:
196,330,2968,2,0,L|117:329,1,65,4|2,0:3|0:0,0:0:0:0:
57,275,3481,1,4,0:3:0:0:
113,203,3737,2,0,L|177:203,1,65,10|2,0:0|0:0,0:0:0:0:
244,141,4250,6,0,P|250:97|245:69,1,65,4|0,0:3|0:0,0:0:0:0:
181,13,4763,2,0,L|116:12,1,65,8|4,0:0|0:3,0:0:0:0:
38,59,5276,1,2,0:0:0:0:
38,149,5532,1,0,0:0:0:0:
113,203,5789,2,0,P|118:246|108:278,1,65,8|0,0:0|0:0,0:0:0:0:
81,352,6301,6,0,L|159:343,1,65,4|2,0:3|0:0,0:0:0:0:
186,365,6686,2,0,L|264:356,1,65,4|2,0:3|0:0,0:0:0:0:
292,376,7071,2,0,L|370:367,1,65,4|2,0:3|0:0,0:0:0:0:
413,297,7583,1,4,0:3:0:0:
495,335,7840,2,0,P|505:290|500:262,1,65,10|4,0:0|0:3,0:0:0:0:
442,203,8353,5,4,0:0:0:0:
454,112,8609,2,0,L|525:115,2,65,2|8|4,0:0|0:0|0:3,0:0:0:0:
393,43,9378,2,0,L|328:40,2,65,2|0|8,0:0|0:0|0:0,0:0:0:0:
454,112,10148,1,0,0:0:0:0:
426,198,10404,5,4,0:3:0:0:
480,270,10660,2,0,P|415:249|346:280,1,130,2|4,0:0|0:3,0:0:0:0:
318,350,11430,2,0,L|235:350,1,65,2|4,0:0|0:3,0:0:0:0:
209,270,11942,2,0,L|119:290,1,65,10|0,0:0|0:0,0:0:0:0:
76,343,12455,5,4,0:3:0:0:
3,287,12712,2,0,P|-1:252|15:203,1,65,2|8,0:0|0:0,0:0:0:0:
85,181,13224,1,4,0:3:0:0:
66,91,13481,2,0,L|-7:86,1,65,2|0,0:0|0:0,0:0:0:0:
36,2,13994,2,0,L|100:6,1,65,8|2,0:0|0:0,0:0:0:0:
159,75,14506,5,4,0:3:0:0:
237,29,14763,2,0,P|294:10|369:62,1,130,2|4,0:0|0:3,0:0:0:0:
397,118,15532,2,0,L|392:206,1,65,4|2,0:3|0:0,0:0:0:0:
484,180,16045,2,0,L|487:115,1,65,8|2,0:0|0:0,0:0:0:0:
443,35,16558,5,4,0:0:0:0:
354,38,16814,2,0,L|279:43,1,65,2|8,0:0|0:0,0:0:0:0:
220,102,17327,1,4,0:3:0:0:
269,178,17583,2,0,L|333:173,1,65,2|0,0:0|0:0,0:0:0:0:
418,139,18096,2,0,P|427:173|414:214,1,65,8|0,0:0|0:0,0:0:0:0:
352,262,18609,5,4,0:3:0:0:
399,339,18865,2,0,P|344:314|270:345,1,130,2|4,0:0|0:3,0:0:0:0:
194,364,19635,2,0,L|84:357,1,97.5,2|0,0:0|0:0,0:0:0:0:
66,323,20148,2,0,P|72:288|59:235,1,65,10|0,0:0|0:0,0:0:0:0:
17,183,20660,5,4,0:3:0:0:
76,113,20917,2,0,L|164:111,1,65,2|8,0:0|0:0,0:0:0:0:
216,61,21430,1,4,0:3:0:0:
295,104,21686,2,0,P|299:132|291:186,1,65,2|0,0:0|0:0,0:0:0:0:
223,224,22199,2,0,P|219:256|223:288,1,65,8|2,0:0|0:0,0:0:0:0:
292,348,22712,5,4,0:3:0:0:
376,315,22968,2,0,L|468:307,1,65,2|8,0:0|0:0,0:0:0:0:
462,269,23353,2,0,P|466:236|462:204,1,65,0|0,0:0|0:0,0:0:0:0:
429,174,23737,2,0,L|364:179,1,65,4|10,0:3|0:0,0:0:0:0:
353,89,24250,2,0,L|288:94,1,65,10|10,0:0|0:0,0:0:0:0:
230,165,24763,5,12,0:1:0:0:
146,129,25019,2,0,P|135:78|154:31,1,97.5,2|0,0:0|0:0,0:0:0:0:
193,23,25532,2,0,L|257:17,1,65,4|2,0:3|0:0,0:0:0:0:
342,49,26045,1,0,0:0:0:0:
427,17,26301,2,0,P|433:59|422:91,1,65,8|0,0:0|0:0,0:0:0:0:
373,154,26814,5,4,0:3:0:0:
424,228,27071,2,0,P|449:296|415:358,1,130,2|4,0:0|0:3,0:0:0:0:
357,287,27840,1,2,0:0:0:0:
294,352,28096,2,0,L|211:351,1,65,2|8,0:0|0:0,0:0:0:0:
142,379,28609,1,0,0:0:0:0:
74,317,28865,5,4,0:3:0:0:
115,235,29122,2,0,P|161:251|217:231,1,97.5,2|0,0:0|0:0,0:0:0:0:
238,205,29635,2,0,P|274:198|308:208,1,65,4|2,0:3|0:0,0:0:0:0:
360,273,30148,1,0,0:0:0:0:
428,213,30404,2,0,L|430:139,1,65,8|0,0:0|0:0,0:0:0:0:
384,68,30917,6,0,P|344:73|307:61,1,65,4|2,0:3|0:0,0:0:0:0:
289,34,31301,2,0,P|257:27|225:33,1,65,4|0,0:3|0:0,0:0:0:0:
195,68,31686,2,0,P|155:73|118:61,1,65,4|8,0:3|0:0,0:0:0:0:
69,0,32199,1,10,0:0:0:0:
9,69,32455,2,0,L|16:143,1,65,10|10,0:0|0:0,0:0:0:0:
57,214,32968,5,4,0:1:0:0:
15,294,33224,2,0,P|57:304|109:287,1,97.5,2|0,0:0|0:0,0:0:0:0:
137,252,33737,2,0,L|213:248,1,65,4|2,0:3|0:0,0:0:0:0:
269,309,34250,1,0,0:0:0:0:
336,248,34506,2,0,P|330:213|339:178,1,65,8|0,0:0|0:0,0:0:0:0:
411,133,35019,5,4,0:3:0:0:
468,62,35276,2,0,P|398:84|340:50,1,130,2|4,0:0|0:3,0:0:0:0:
275,8,36045,1,0,0:0:0:0:
210,72,36301,2,0,L|128:75,2,65,4|8|0,0:3|0:0|0:0,0:0:0:0:
258,149,37071,5,4,0:3:0:0:
201,220,37327,2,0,P|192:258|202:298,2,65,2|8|4,0:0|0:0|0:3,0:0:0:0:
258,149,38096,1,2,0:0:0:0:
314,220,38353,2,0,P|323:258|313:298,2,65,0|10|2,0:0|0:0|0:0,0:0:0:0:
258,149,39122,6,0,L|263:66,1,65,4|2,0:3|0:0,0:0:0:0:
295,53,39506,2,0,P|332:46|363:59,1,65,4|2,0:3|0:0,0:0:0:0:
392,83,39891,2,0,L|388:147,1,65,4|4,0:3|0:3,0:0:0:0:
422,232,40404,2,0,P|455:227|494:239,2,65,2|10|10,0:0|0:0|0:0,0:0:0:0:
357,305,41173,5,4,0:0:0:0:
281,242,41430,2,0,L|279:162,2,65,2|4|2,0:0|0:3|0:0,0:0:0:0:
239,330,42199,1,4,0:3:0:0:
184,249,42455,2,0,L|182:169,2,65,2|8|2,0:0|0:0|0:0,0:0:0:0:
139,334,43224,5,4,0:3:0:0:
48,296,43481,2,0,L|49:360,2,65,2|4|2,0:0|0:3|0:0,0:0:0:0:
12,204,44250,2,0,P|8:162|18:131,1,65,4|4,0:3|0:3,0:0:0:0:
98,91,44763,2,0,L|171:93,1,65,8|8,0:0|0:0,0:0:0:0:
236,156,45276,5,4,0:3:0:0:
304,87,45532,2,0,P|312:48|304:22,2,65,2|4|2,0:0|0:3|0:0,0:0:0:0:
236,156,46301,1,4,0:3:0:0:
276,244,46558,2,0,P|268:283|276:309,2,65,2|8|2,0:0|0:0|0:0,0:0:0:0:
368,276,47327,5,4,0:3:0:0:
433,204,47583,2,0,L|503:207,2,65,8|8|8,0:0|0:0|0:0,0:0:0:0:
409,107,48353,2,0,L|479:110,1,65,8|8,0:0|0:0,0:0:0:0:
497,16,48865,2,0,L|432:13,1,65,8|8,0:0|0:0,0:0:0:0:
338,39,49378,6,0,P|298:44|255:26,1,65,4|2,0:0|0:1,0:0:0:0:
180,12,49891,2,0,P|140:7|97:25,1,65,8|2,0:0|0:1,0:0:0:0:
35,68,50404,2,0,L|43:142,1,65,2|2,0:3|0:1,0:0:0:0:
65,175,50789,2,0,P|76:224|50:277,1,97.5,2|2,0:0|0:1,0:0:0:0:
7,349,51430,6,0,L|96:345,1,65,2|2,0:3|0:1,0:0:0:0:
115,367,51814,2,0,L|228:364,1,97.5,2|2,0:0|0:1,0:0:0:0:
277,291,52455,2,0,P|261:226|290:159,1,130,2|8,3:3|0:1,0:0:0:0:
377,191,53224,1,2,3:1:0:0:
443,119,53481,6,0,L|447:35,1,65,0|2,0:0|0:1,0:0:0:0:
350,35,53994,2,0,L|346:99,1,65,8|2,0:0|0:1,0:0:0:0:
377,191,54506,2,0,P|383:230|374:271,1,65,0|2,0:0|0:1,0:0:0:0:
350,294,54891,2,0,L|246:287,1,97.5,8|2,0:0|0:1,0:0:0:0:
163,327,55532,6,0,P|155:290|159:261,1,65,2|2,0:3|0:1,0:0:0:0:
185,222,55917,2,0,P|195:175|169:109,1,97.5,2|0,0:0|0:0,0:0:0:0:
96,82,56558,2,0,L|26:87,2,65,2|2|8,3:3|3:1|0:1,0:0:0:0:
178,29,57327,1,2,0:1:0:0:
262,76,57583,6,0,P|294:83|348:69,1,65,2|2,0:3|0:1,0:0:0:0:
407,25,58096,2,0,P|439:21|470:28,1,65,8|2,0:0|0:1,0:0:0:0:
431,117,58609,2,0,L|431:200,1,65,2|2,0:3|0:1,0:0:0:0:
458,222,58994,2,0,P|473:271|453:328,1,97.5,2|2,0:0|0:1,0:0:0:0:
374,358,59635,6,0,L|286:357,1,65,2|2,0:3|0:1,0:0:0:0:
268,330,60019,2,0,L|161:329,1,97.5,2|2,0:0|0:1,0:0:0:0:
86,378,60660,2,0,P|74:317|117:246,1,130,2|8,3:3|0:0,0:0:0:0:
182,201,61430,1,2,0:3:0:0:
171,104,61686,6,0,L|300:111,1,130,2|8,0:3|0:0,0:0:0:0:
373,46,62455,1,2,0:1:0:0:
456,96,62712,2,0,P|460:133|447:179,1,65,2|2,0:3|0:1,0:0:0:0:
423,196,63096,2,0,L|434:308,1,97.5,2|2,0:0|0:1,0:0:0:0:
359,358,63737,6,0,L|283:349,1,65,2|2,0:3|0:1,0:0:0:0:
220,286,64250,2,0,L|144:277,1,65,10|2,0:0|0:1,0:0:0:0:
63,311,64763,2,0,P|60:267|68:235,1,65,8|8,0:3|0:3,0:0:0:0:
141,187,65276,2,0,P|144:154|140:122,1,65,8|8,0:3|0:3,0:0:0:0:
95,35,65789,6,0,L|181:26,1,65,4|2,0:0|0:1,0:0:0:0:
231,93,66301,2,0,L|317:84,1,65,8|2,0:0|0:1,0:0:0:0:
386,50,66814,2,0,P|394:91|379:137,1,65,2|2,0:3|0:1,0:0:0:0:
370,158,67199,2,0,L|382:273,1,97.5,2|2,0:0|0:1,0:0:0:0:
476,271,67840,6,0,L|468:184,1,65,2|2,0:3|0:1,0:0:0:0:
504,172,68224,2,0,L|493:75,1,97.5,2|2,0:0|0:1,0:0:0:0:
412,21,68865,2,0,P|348:1|281:24,1,130,2|8,3:3|0:1,0:0:0:0:
239,102,69635,1,2,3:1:0:0:
147,67,69891,6,0,L|68:62,1,65,2|2,0:3|0:1,0:0:0:0:
92,160,70404,2,0,L|156:164,1,65,8|2,0:0|0:1,0:0:0:0:
224,234,70917,2,0,P|228:275|217:322,1,65,2|2,0:3|0:1,0:0:0:0:
197,338,71301,2,0,L|90:332,1,97.5,8|2,0:0|0:1,0:0:0:0:
7,298,71942,6,0,P|7:254|21:222,1,65,2|2,0:3|0:1,0:0:0:0:
52,204,72327,2,0,P|65:162|49:93,1,97.5,2|2,0:0|0:1,0:0:0:0:
5,26,72968,2,0,L|92:20,1,65,2|2,3:3|3:1,0:0:0:0:
147,80,73481,1,8,3:1:0:0:
236,41,73737,1,2,0:1:0:0:
326,76,73994,6,0,L|317:156,1,65,2|2,0:3|0:1,0:0:0:0:
234,189,74506,2,0,L|246:269,1,65,8|2,0:0|0:1,0:0:0:0:
316,318,75019,2,0,P|348:308|390:325,1,65,2|2,0:3|0:1,0:0:0:0:
420,339,75404,2,0,L|425:231,1,97.5,2|2,0:0|0:1,0:0:0:0:
376,156,76045,6,0,P|372:127|386:81,1,65,2|2,0:3|0:1,0:0:0:0:
400,48,76430,2,0,L|284:42,1,97.5,2|2,0:0|0:1,0:0:0:0:
234,112,77071,2,0,P|165:128|108:95,1,130,2|8,3:3|0:0,0:0:0:0:
58,22,77840,1,2,3:1:0:0:
24,113,78096,6,0,P|84:134|99:204,1,130,2|8,0:3|0:0,0:0:0:0:
49,275,78865,1,2,0:1:0:0:
106,353,79122,2,0,L|198:345,1,65,2|2,0:3|0:1,0:0:0:0:
212,322,79506,2,0,P|205:277|221:223,1,97.5,2|2,0:0|0:1,0:0:0:0:
300,281,80148,6,0,L|370:281,1,65,2|2,0:3|0:1,0:0:0:0:
401,190,80660,2,0,L|336:190,1,65,8|2,0:0|0:1,0:0:0:0:
266,120,81173,2,0,L|201:120,1,65,0|2,3:0|3:1,0:0:0:0:
128,185,81686,2,0,P|144:120|117:59,1,130,8|4,0:3|0:1,0:0:0:0:
50,131,82455,5,0,0:0:0:0:
39,228,82712,1,8,0:0:0:0:
119,283,82968,2,0,L|196:275,1,65,4|2,0:3|0:0,0:0:0:0:
374,318,83737,1,8,0:0:0:0:
446,137,84250,6,0,B|450:102|450:102|440:54,1,65,4|2,0:3|0:0,0:0:0:0:
361,20,84763,1,8,0:0:0:0:
287,83,85019,2,0,L|135:77,1,130,4|4,0:3|0:3,0:0:0:0:
67,38,85789,2,0,P|59:83|66:112,1,65,10|2,0:0|0:0,0:0:0:0:
131,169,86301,6,0,P|153:224|119:303,1,130,4|8,0:3|0:0,0:0:0:0:
184,372,87071,2,0,L|272:367,1,65,4|2,0:3|0:0,0:0:0:0:
442,344,87840,1,8,0:0:0:0:
323,189,88353,5,4,0:3:0:0:
379,109,88609,2,0,P|425:97|474:119,2,97.5,2|2|2,0:0|0:0|0:0,0:0:0:0:
328,297,89891,2,0,L|326:376,1,65,2|0,0:0|0:0,0:0:0:0:
