osu file format v14

[General]
AudioFilename: coloring.mp3
AudioLeadIn: 0
PreviewTime: 49314
Countdown: 0
SampleSet: Soft
StackLeniency: 0.4
Mode: 0
LetterboxInBreaks: 0
WidescreenStoryboard: 0

[Editor]
Bookmarks: 148,8353,16558,24763,32968,41173,49378,57583,65789,73994,82199,90148
DistanceSpacing: 0.8
BeatDivisor: 8
GridSize: 4
TimelineZoom: 1.9

[Metadata]
Title:Coloring
TitleUnicode:Coloring
Artist:Horie Yui
ArtistUnicode:堀江由衣
Creator:Karen
Version:Expert
Source:パパのいうことを聞きなさい!
Tags:Papa no Iukoto wo Kikinasai! papakiki ending Chaoslitz
BeatmapID:1128908
BeatmapSetID:532827

[Difficulty]
HPDrainRate:6
CircleSize:4.5
OverallDifficulty:7
ApproachRate:9
SliderMultiplier:1.8
SliderTickRate:1

[Events]
//Background and Video events
0,0,"xd.jpg",0,0
//Break Periods
//Storyboard Layer 0 (Background)
//Storyboard Layer 1 (Fail)
//Storyboard Layer 2 (Pass)
//Storyboard Layer 3 (Foreground)
//Storyboard Sound Samples

[TimingPoints]
148,512.820512820513,4,2,1,66,1,0
49378,-100,4,2,2,77,0,1
64763,-166.666666666667,4,2,2,77,0,0
64891,-166.666666666667,4,2,2,5,0,0
65019,-125,4,2,2,77,0,0
65148,-125,4,2,2,5,0,0
65276,-100,4,2,2,77,0,0
65404,-100,4,2,2,5,0,0
65532,-83.3333333333333,4,2,2,77,0,0
65660,-83.3333333333333,4,2,2,5,0,0
65789,-90.9090909090909,4,2,2,82,0,1
82199,-100,4,2,1,55,0,0

[Colours]
Combo1 : 255,140,198
Combo2 : 255,223,255

[HitObjects]
178,118,148,5,4,0:0:0:0:
131,232,404,1,2,0:0:0:0:
142,256,532,1,0,0:0:0:0:
241,195,660,1,0,0:0:0:0:
233,226,789,1,0,0:0:0:0:
332,239,917,1,4,0:3:0:0:
332,239,1173,5,2,0:0:0:0:
326,341,1430,1,0,0:0:0:0:
425,200,1686,2,0,L|421:108,1,90,8|0,0:0|0:0,0:0:0:0:
310,17,2199,6,0,L|321:68,1,45,4|0,0:3|0:0,0:0:0:0:
298,149,2455,1,2,0:0:0:0:
274,136,2583,1,0,0:0:0:0:
282,236,2712,1,8,0:0:0:0:
248,231,2840,1,0,0:0:0:0:
282,323,2968,1,4,0:3:0:0:
282,323,3224,5,2,0:0:0:0:
389,353,3481,1,4,0:3:0:0:
480,297,3737,1,10,0:0:0:0:
487,186,3994,1,2,0:0:0:0:
345,166,4250,6,0,L|359:262,1,90,4|0,0:3|0:0,0:0:0:0:
357,255,4763,1,8,0:0:0:0:
351,209,4891,1,0,0:0:0:0:
345,166,5019,1,4,0:3:0:0:
370,49,5276,5,2,0:0:0:0:
370,49,5532,1,0,0:0:0:0:
370,49,5789,1,8,0:0:0:0:
336,35,5917,1,0,0:0:0:0:
255,73,6045,1,0,0:0:0:0:
221,59,6173,1,0,0:0:0:0:
136,97,6301,5,4,0:3:0:0:
214,220,6558,1,2,0:0:0:0:
270,167,6686,2,0,L|327:160,1,45,4|0,0:3|0:0,0:0:0:0:
228,239,6942,1,2,0:0:0:0:
284,186,7070,2,0,L|341:179,1,45,4|0,0:3|0:0,0:0:0:0:
439,318,7327,6,0,P|445:269|426:216,1,90,2|4,0:0|0:3,0:0:0:0:
77,230,7840,2,0,P|66:273|72:317,1,90,10|4,0:0|0:3,0:0:0:0:
256,372,8353,5,4,0:0:0:0:
336,169,8609,1,2,0:0:0:0:
349,135,8737,1,0,0:0:0:0:
343,99,8865,1,8,0:0:0:0:
343,99,9122,5,4,0:3:0:0:
337,262,9378,1,2,0:0:0:0:
372,259,9506,1,0,0:0:0:0:
399,235,9635,1,0,0:0:0:0:
399,235,9891,5,8,0:0:0:0:
365,357,10148,1,0,0:0:0:0:
251,129,10404,5,4,0:3:0:0:
399,235,10660,1,2,0:0:0:0:
433,246,10789,1,0,0:0:0:0:
498,177,10917,1,8,0:0:0:0:
496,141,11045,1,0,0:0:0:0:
407,151,11173,1,4,0:3:0:0:
433,246,11430,5,2,0:0:0:0:
498,177,11558,1,0,0:0:0:0:
407,151,11686,1,4,0:3:0:0:
399,235,11942,5,10,0:0:0:0:
496,141,12071,1,0,0:0:0:0:
385,123,12199,1,0,0:0:0:0:
385,123,12455,5,4,0:3:0:0:
446,6,12712,1,2,0:0:0:0:
466,35,12840,1,0,0:0:0:0:
501,41,12968,1,8,0:0:0:0:
385,123,13224,5,4,0:3:0:0:
325,18,13481,1,2,0:0:0:0:
301,44,13609,1,0,0:0:0:0:
265,50,13737,1,0,0:0:0:0:
230,40,13865,1,0,0:0:0:0:
205,13,13994,5,8,0:0:0:0:
255,171,14250,1,2,0:0:0:0:
255,171,14378,1,0,0:0:0:0:
255,171,14506,5,4,0:3:0:0:
169,104,14763,1,2,0:0:0:0:
167,68,14891,1,0,0:0:0:0:
86,134,15019,1,8,0:0:0:0:
84,98,15147,1,0,0:0:0:0:
2,170,15276,1,4,0:3:0:0:
169,104,15532,5,4,0:3:0:0:
86,134,15660,1,0,0:0:0:0:
2,170,15789,1,2,0:0:0:0:
167,68,16045,5,8,0:0:0:0:
84,98,16173,1,0,0:0:0:0:
0,134,16302,1,2,0:0:0:0:
0,134,16558,5,4,0:0:0:0:
85,250,16814,1,2,0:0:0:0:
92,285,16942,1,0,0:0:0:0:
84,320,17071,1,8,0:0:0:0:
84,320,17327,5,4,0:3:0:0:
184,238,17583,1,2,0:0:0:0:
195,281,17712,1,0,0:0:0:0:
186,325,17840,1,0,0:0:0:0:
186,325,18096,5,8,0:0:0:0:
186,325,18353,1,0,0:0:0:0:
305,379,18609,5,4,0:3:0:0:
363,275,18865,1,2,0:0:0:0:
397,263,18994,1,0,0:0:0:0:
421,355,19122,1,8,0:0:0:0:
455,343,19251,1,0,0:0:0:0:
507,267,19378,1,4,0:3:0:0:
507,267,19635,5,2,0:0:0:0:
507,222,19763,1,0,0:0:0:0:
507,177,19891,1,4,0:3:0:0:
506,132,20019,1,0,0:0:0:0:
437,84,20148,5,10,0:0:0:0:
465,49,20276,1,0,0:0:0:0:
509,44,20404,1,0,0:0:0:0:
509,44,20660,5,4,0:3:0:0:
326,25,20917,1,2,0:0:0:0:
336,59,21045,1,0,0:0:0:0:
330,94,21173,1,8,0:0:0:0:
330,94,21430,5,4,0:3:0:0:
153,61,21686,1,2,0:0:0:0:
197,61,21814,1,0,0:0:0:0:
241,63,21942,1,0,0:0:0:0:
241,63,22199,5,8,0:0:0:0:
241,63,22455,5,2,0:0:0:0:
235,89,22583,1,0,0:0:0:0:
228,115,22712,1,4,0:3:0:0:
136,248,22968,6,0,P|128:192|148:152,1,90,2|8,0:0|0:0,0:0:0:0:
236,256,23353,1,0,0:0:0:0:
294,199,23481,1,2,0:0:0:0:
329,195,23609,1,0,0:0:0:0:
364,191,23737,5,4,0:3:0:0:
384,228,23994,5,10,0:0:0:0:
484,200,24250,5,10,0:0:0:0:
480,56,24506,5,10,0:0:0:0:
303,71,24763,5,12,0:1:0:0:
303,71,25019,5,2,0:0:0:0:
267,79,25148,1,0,0:0:0:0:
194,19,25276,1,8,0:0:0:0:
158,27,25405,1,0,0:0:0:0:
83,89,25532,1,4,0:3:0:0:
83,89,25789,5,2,0:0:0:0:
83,89,26045,1,0,0:0:0:0:
148,200,26301,1,8,0:0:0:0:
158,27,26558,1,0,0:0:0:0:
148,200,26814,5,4,0:3:0:0:
208,303,27071,1,2,0:0:0:0:
241,289,27199,1,0,0:0:0:0:
340,287,27327,1,8,0:0:0:0:
371,303,27455,1,0,0:0:0:0:
293,368,27583,1,4,0:3:0:0:
293,368,27840,5,2,0:0:0:0:
289,202,28096,1,2,0:0:0:0:
284,166,28224,1,0,0:0:0:0:
292,130,28353,1,8,0:0:0:0:
292,130,28609,1,0,0:0:0:0:
442,175,28865,5,4,0:3:0:0:
361,32,29122,1,2,0:0:0:0:
331,52,29250,1,0,0:0:0:0:
296,61,29378,1,8,0:0:0:0:
260,55,29506,1,0,0:0:0:0:
229,35,29635,1,4,0:3:0:0:
229,35,29891,5,2,0:0:0:0:
189,148,30148,1,0,0:0:0:0:
26,71,30404,1,8,0:0:0:0:
11,37,30532,1,0,0:0:0:0:
134,4,30660,1,0,0:0:0:0:
125,39,30789,1,0,0:0:0:0:
90,159,30917,1,4,0:3:0:0:
90,159,31173,5,2,0:0:0:0:
108,190,31301,1,4,0:3:0:0:
114,225,31430,1,10,0:0:0:0:
101,258,31558,1,0,0:0:0:0:
78,286,31686,1,4,0:3:0:0:
78,286,31942,5,8,0:0:0:0:
208,355,32199,2,0,L|262:346,1,45,10|0,0:0|0:0,0:0:0:0:
182,346,32455,2,0,L|236:337,1,45,10|0,0:0|0:0,0:0:0:0:
155,337,32712,2,0,L|209:328,1,45,10|0,0:0|0:0,0:0:0:0:
314,263,32968,5,4,0:1:0:0:
423,328,33224,1,2,0:0:0:0:
420,364,33353,1,0,0:0:0:0:
510,311,33481,1,8,0:0:0:0:
507,347,33610,1,0,0:0:0:0:
451,242,33737,1,4,0:3:0:0:
451,242,33994,5,2,0:0:0:0:
486,148,34250,1,0,0:0:0:0:
404,48,34506,1,8,0:0:0:0:
486,148,34763,1,0,0:0:0:0:
314,134,35019,5,4,0:3:0:0:
314,134,35276,1,2,0:0:0:0:
280,147,35404,1,0,0:0:0:0:
183,69,35532,1,8,0:0:0:0:
215,83,35660,1,0,0:0:0:0:
227,228,35789,1,4,0:3:0:0:
227,228,36045,5,0,0:0:0:0:
242,347,36301,1,4,0:3:0:0:
277,342,36430,1,0,0:0:0:0:
312,336,36558,1,8,0:0:0:0:
312,336,36814,1,0,0:0:0:0:
156,298,37071,5,4,0:3:0:0:
0,316,37327,1,2,0:0:0:0:
8,350,37455,1,0,0:0:0:0:
29,224,37583,1,8,0:0:0:0:
21,190,37711,1,0,0:0:0:0:
117,217,37840,1,4,0:3:0:0:
117,217,38096,5,2,0:0:0:0:
215,86,38353,1,0,0:0:0:0:
156,298,38609,1,10,0:0:0:0:
189,284,38737,1,2,0:0:0:0:
215,289,38865,1,2,0:0:0:0:
230,299,38994,1,2,0:0:0:0:
242,377,39122,5,4,0:3:0:0:
242,377,39378,1,2,0:0:0:0:
309,322,39506,2,0,L|367:306,1,45,4|8,0:3|0:0,0:0:0:0:
234,342,39763,1,2,0:0:0:0:
301,287,39891,2,0,L|359:271,1,45,4|0,0:3|0:0,0:0:0:0:
445,311,40148,1,4,0:3:0:0:
309,155,40404,5,2,0:0:0:0:
303,119,40532,1,0,0:0:0:0:
398,121,40660,1,10,0:0:0:0:
407,86,40789,1,0,0:0:0:0:
491,127,40917,1,10,0:0:0:0:
303,119,41173,5,4,0:0:0:0:
123,103,41430,5,2,0:0:0:0:
303,119,41686,1,4,0:3:0:0:
481,139,41942,1,2,0:0:0:0:
220,57,42199,5,4,0:3:0:0:
27,154,42455,1,2,0:0:0:0:
207,170,42711,1,8,0:0:0:0:
386,179,42967,1,2,0:0:0:0:
109,231,43224,5,4,0:3:0:0:
109,231,43353,1,0,0:0:0:0:
109,231,43481,1,2,0:0:0:0:
297,241,43737,1,4,0:3:0:0:
476,244,43993,1,2,0:0:0:0:
172,103,44250,5,4,0:3:0:0:
234,359,44506,1,4,0:3:0:0:
310,90,44763,1,8,0:0:0:0:
310,90,44891,1,8,0:0:0:0:
310,90,45019,1,8,0:0:0:0:
234,359,45276,5,4,0:3:0:0:
234,359,45404,1,0,0:0:0:0:
234,359,45532,1,2,0:0:0:0:
230,178,45789,1,4,0:3:0:0:
222,1,46045,1,2,0:0:0:0:
175,275,46301,5,4,0:3:0:0:
340,382,46558,1,2,0:0:0:0:
336,201,46814,1,8,0:0:0:0:
327,23,47071,1,2,0:0:0:0:
419,313,47327,5,4,0:3:0:0:
419,313,47455,1,0,0:0:0:0:
419,313,47583,1,8,0:0:0:0:
238,197,47840,1,8,0:0:0:0:
238,197,47968,1,8,0:0:0:0:
238,197,48096,1,8,0:0:0:0:
411,211,48353,5,8,2:0:0:0:
431,174,48481,1,2,2:0:0:0:
433,124,48609,1,8,2:0:0:0:
391,63,48737,1,2,2:0:0:0:
300,39,48865,1,8,2:0:0:0:
201,90,48994,1,2,2:0:0:0:
195,195,49122,2,0,L|164:210,1,22.5,8|0,2:0|2:0,2:0:0:0:
271,278,49250,1,2,2:0:0:0:
384,247,49378,6,0,L|482:241,1,90,4|2,0:0|0:1,0:0:0:0:
460,270,49763,1,0,3:0:0:0:
371,276,49891,2,0,L|469:270,1,90,8|2,0:0|0:1,0:0:0:0:
451,295,50276,1,0,3:0:0:0:
362,301,50404,2,0,L|460:295,1,90,2|2,0:3|0:1,0:0:0:0:
505,360,50789,1,2,0:0:0:0:
275,343,51045,5,0,0:0:0:0:
266,308,51173,1,2,0:1:0:0:
272,272,51301,1,2,0:0:0:0:
306,193,51430,6,0,P|266:219|212:213,1,90,2|2,0:3|0:1,0:0:0:0:
144,202,51814,2,0,L|152:256,1,45,2|8,0:0|0:0,0:0:0:0:
244,128,52071,1,0,0:0:0:0:
244,128,52199,2,0,L|240:71,1,45,2|0,0:1|0:0,0:0:0:0:
177,16,52455,1,2,3:3:0:0:
141,12,52583,1,0,3:0:0:0:
107,26,52712,1,2,3:1:0:0:
107,26,52968,5,8,0:1:0:0:
321,44,53224,1,2,3:1:0:0:
321,44,53353,1,0,3:0:0:0:
321,44,53481,6,0,L|327:142,1,90,0|2,0:0|0:1,0:0:0:0:
357,119,53865,1,0,3:0:0:0:
351,29,53994,2,0,L|357:127,1,90,8|2,0:0|0:1,0:0:0:0:
388,108,54378,1,0,3:0:0:0:
382,18,54507,2,0,L|388:116,1,90,0|2,0:0|0:1,0:0:0:0:
410,194,54891,2,0,L|460:173,1,45,8|8,0:0|0:0,0:0:0:0:
394,284,55148,5,0,0:0:0:0:
359,273,55276,1,2,0:1:0:0:
323,279,55404,1,2,0:0:0:0:
266,343,55532,6,0,P|216:356|157:334,1,90,2|2,0:3|0:1,0:0:0:0:
217,220,55917,2,0,L|219:278,1,45,2|8,0:0|0:0,0:0:0:0:
96,374,56173,2,0,P|107:329|96:279,1,90,2|0,0:0|0:0,0:0:0:0:
60,151,56558,5,2,3:3:0:0:
133,170,56686,1,0,3:0:0:0:
62,198,56814,1,2,3:1:0:0:
104,134,56942,1,2,0:3:0:0:
107,210,57071,1,8,0:1:0:0:
119,35,57327,6,0,L|170:29,1,45,2|2,0:1|0:0,0:0:0:0:
234,99,57583,6,0,P|277:112|337:88,1,90,2|2,0:3|0:1,0:0:0:0:
318,133,57968,1,0,3:0:0:0:
232,130,58096,2,0,P|274:143|318:133,1,90,8|2,0:0|0:1,0:0:0:0:
312,165,58481,1,0,3:0:0:0:
227,162,58609,2,0,P|269:175|312:165,1,90,2|2,0:3|0:1,0:0:0:0:
395,115,58994,1,2,0:0:0:0:
372,254,59250,5,0,0:0:0:0:
374,289,59378,1,2,0:1:0:0:
374,324,59506,1,2,0:0:0:0:
451,364,59635,6,0,P|497:345|514:290,1,90,2|2,0:3|0:1,0:0:0:0:
484,227,60019,2,0,L|482:178,1,45,2|8,0:0|0:0,0:0:0:0:
374,324,60276,1,0,0:0:0:0:
374,324,60404,2,0,L|372:275,1,45,2|0,0:1|0:0,0:0:0:0:
383,140,60660,1,2,3:3:0:0:
350,156,60789,1,0,3:0:0:0:
314,153,60917,1,2,3:1:0:0:
314,153,61173,5,8,0:0:0:0:
286,129,61301,1,0,3:0:0:0:
196,162,61430,1,2,0:3:0:0:
187,127,61558,1,0,3:0:0:0:
243,40,61686,6,0,P|175:99|77:68,1,180,2|8,0:3|0:0,0:0:0:0:
50,153,62327,1,0,0:0:0:0:
77,176,62455,1,2,0:1:0:0:
85,210,62583,1,0,0:0:0:0:
72,243,62712,1,2,0:3:0:0:
72,243,62968,5,2,0:1:0:0:
105,230,63096,1,2,0:0:0:0:
139,220,63224,2,0,L|134:278,1,45,8|2,0:0|0:0,0:0:0:0:
266,259,63481,2,0,L|275:187,1,45,2|2,0:1|0:0,0:0:0:0:
254,89,63737,5,2,0:3:0:0:
418,179,63994,1,2,0:1:0:0:
205,165,64250,1,10,0:0:0:0:
388,96,64506,1,2,0:1:0:0:
303,296,64763,6,0,L|310:338,1,26.9999991760254,8|0,0:3|0:0,0:0:0:0:
303,296,65019,6,0,L|310:339,1,36,8|0,0:3|0:0,0:0:0:0:
303,296,65276,6,0,L|313:348,1,45,8|0,0:3|0:0,0:0:0:0:
303,296,65532,6,0,L|314:353,1,53.9999983520508,8|0,0:3|0:0,0:0:0:0:
424,373,65789,6,0,P|473:349|493:289,1,99.0000030212403,4|2,0:0|0:1,0:0:0:0:
424,373,66173,1,0,3:0:0:0:
492,310,66301,2,0,P|495:262|457:213,1,99.0000030212403,8|2,0:0|0:1,0:0:0:0:
492,310,66686,1,0,3:0:0:0:
468,220,66814,2,0,P|418:200|372:213,1,99.0000030212403,2|2,0:3|0:1,0:0:0:0:
415,284,67199,1,2,0:0:0:0:
443,87,67455,5,0,0:0:0:0:
405,99,67583,1,2,0:1:0:0:
366,87,67712,1,2,0:0:0:0:
319,11,67840,6,0,P|268:-3|214:17,1,99.0000030212403,2|2,0:3|0:1,0:0:0:0:
180,108,68224,2,0,L|248:92,1,49.5000015106202,2|8,0:0|0:0,0:0:0:0:
293,179,68481,1,0,0:0:0:0:
293,179,68609,2,0,L|244:190,1,49.5000015106202,2|0,0:1|0:0,0:0:0:0:
101,160,68865,1,2,3:3:0:0:
115,197,68994,1,0,3:0:0:0:
107,235,69122,1,2,3:1:0:0:
107,235,69378,5,8,0:1:0:0:
165,342,69635,1,2,3:1:0:0:
165,342,69763,1,0,3:0:0:0:
165,342,69891,6,0,B|212:353|212:353|270:337,1,99.0000030212403,2|2,0:3|0:1,0:0:0:0:
165,342,70276,1,0,3:0:0:0:
260,339,70404,2,0,B|292:297|292:297|299:232,1,99.0000030212403,8|2,0:0|0:1,0:0:0:0:
260,339,70789,1,0,3:0:0:0:
296,251,70917,2,0,B|283:199|283:199|243:166,1,99.0000030212403,2|2,0:3|0:1,0:0:0:0:
168,176,71301,2,0,L|166:121,1,49.5000015106202,8|8,0:0|0:0,0:0:0:0:
238,68,71558,5,0,0:0:0:0:
275,79,71686,1,2,0:1:0:0:
313,71,71814,1,2,0:0:0:0:
379,8,71942,6,0,P|425:-2|481:19,1,99.0000030212403,2|2,0:3|0:1,0:0:0:0:
433,129,72327,2,0,L|425:73,1,49.5000015106202,2|8,0:0|0:0,0:0:0:0:
344,177,72583,1,0,0:0:0:0:
344,177,72712,2,0,L|356:238,1,49.5000015106202,2|0,0:1|0:0,0:0:0:0:
415,305,72968,5,2,3:3:0:0:
473,233,73096,1,0,3:0:0:0:
422,332,73224,1,2,3:1:0:0:
480,260,73352,1,2,3:3:0:0:
427,362,73481,1,8,3:1:0:0:
266,347,73737,5,2,0:1:0:0:
266,347,73865,1,0,0:0:0:0:
266,347,73994,6,0,P|217:323|197:263,1,99.0000030212403,2|2,0:3|0:1,0:0:0:0:
266,347,74378,1,0,3:0:0:0:
198,284,74506,2,0,P|195:236|233:187,1,99.0000030212403,8|2,0:0|0:1,0:0:0:0:
198,284,74891,1,0,3:0:0:0:
222,194,75019,2,0,P|272:174|318:187,1,99.0000030212403,2|2,0:3|0:1,0:0:0:0:
275,258,75404,1,2,0:0:0:0:
143,142,75660,5,0,0:0:0:0:
152,103,75789,1,2,0:1:0:0:
145,64,75917,1,2,0:0:0:0:
59,97,76045,6,0,L|62:224,1,99.0000030212403,2|2,0:3|0:1,0:0:0:0:
24,318,76430,2,0,L|70:286,1,49.5000015106202,2|0,0:0|0:0,0:0:0:0:
194,380,76686,1,0,0:0:0:0:
194,380,76814,2,0,L|132:367,1,49.5000015106202,2|0,0:1|0:0,0:0:0:0:
154,275,77071,1,2,3:3:0:0:
153,235,77199,1,0,3:0:0:0:
153,195,77327,1,2,3:1:0:0:
153,195,77583,5,8,0:0:0:0:
152,155,77712,1,0,3:0:0:0:
240,193,77840,1,2,3:1:0:0:
241,233,77969,1,0,3:0:0:0:
307,122,78096,6,0,P|366:85|448:175,1,198.000006042481,2|8,0:3|0:0,0:0:0:0:
400,234,78737,1,0,0:0:0:0:
385,270,78865,1,2,0:1:0:0:
387,309,78994,1,0,0:0:0:0:
407,342,79122,1,2,0:3:0:0:
407,342,79378,5,2,0:1:0:0:
372,323,79506,1,2,0:0:0:0:
334,309,79635,2,0,L|274:317,1,49.5000015106202,8|2,0:0|0:0,0:0:0:0:
282,188,79891,2,0,L|353:209,1,49.5000015106202,2|2,0:1|0:0,0:0:0:0:
467,267,80148,5,2,0:3:0:0:
424,112,80404,1,2,0:1:0:0:
424,112,80532,1,2,0:3:0:0:
424,112,80660,1,8,0:0:0:0:
467,267,80917,1,2,0:1:0:0:
472,28,81173,5,0,3:0:0:0:
434,14,81301,1,0,3:0:0:0:
394,20,81430,1,2,3:1:0:0:
472,28,81686,5,8,0:3:0:0:
434,14,81814,1,8,0:3:0:0:
394,20,81942,1,8,0:3:0:0:
363,46,82071,1,8,0:3:0:0:
424,112,82199,5,4,0:1:0:0:
232,86,82455,1,0,0:0:0:0:
232,86,82583,1,0,0:0:0:0:
232,86,82712,2,0,L|242:35,1,45,8|0,0:0|0:0,0:0:0:0:
137,95,82968,2,0,L|159:149,1,45,4|0,0:3|0:0,0:0:0:0:
172,226,83224,1,2,0:0:0:0:
180,240,83737,1,8,0:0:0:0:
189,254,84250,5,4,0:3:0:0:
159,353,84506,1,2,0:0:0:0:
159,353,84635,1,0,0:0:0:0:
159,353,84763,2,0,L|105:347,1,45,8|0,0:0|0:0,0:0:0:0:
64,278,85019,1,4,0:3:0:0:
242,328,85276,5,2,0:0:0:0:
64,278,85532,1,4,0:3:0:0:
242,328,85789,1,10,0:0:0:0:
417,299,86045,1,2,0:0:0:0:
319,148,86301,5,4,0:3:0:0:
325,177,86558,1,0,0:0:0:0:
325,177,86814,1,8,0:0:0:0:
319,148,86942,1,0,0:0:0:0:
326,112,87071,1,4,0:3:0:0:
409,42,87327,1,2,0:0:0:0:
425,59,87840,1,8,0:0:0:0:
443,76,88353,5,4,0:3:0:0:
414,182,88609,1,2,0:0:0:0:
422,216,88737,1,0,0:0:0:0:
286,145,88994,1,2,0:0:0:0:
280,180,89122,1,0,0:0:0:0:
414,182,89378,5,2,0:0:0:0:
422,216,89635,1,0,0:0:0:0:
286,145,89891,1,2,0:0:0:0:
280,180,90148,1,0,0:0:0:0:
