osu file format v14

[General]
AudioFilename: coloring.mp3
AudioLeadIn: 0
PreviewTime: 49314
Countdown: 0
SampleSet: Soft
StackLeniency: 0.4
Mode: 0
LetterboxInBreaks: 0
WidescreenStoryboard: 0

[Editor]
Bookmarks: 148,8353,16558,24763,32968,41173,49378,57583,58609,65789,73994,82199,90148
DistanceSpacing: 1
BeatDivisor: 4
GridSize: 4
TimelineZoom: 1.9

[Metadata]
Title:Coloring
TitleUnicode:Coloring
Artist:Horie Yui
ArtistUnicode:堀江由衣
Creator:Karen
Version:Easy
Source:パパのいうことを聞きなさい!
Tags:Papa no Iukoto wo Kikinasai! papakiki ending Chaoslitz
BeatmapID:1158631
BeatmapSetID:532827

[Difficulty]
HPDrainRate:3
CircleSize:3
OverallDifficulty:3
ApproachRate:3
SliderMultiplier:1
SliderTickRate:1

[Events]
//Background and Video events
0,0,"xd.jpg",0,0
//Break Periods
//Storyboard Layer 0 (Background)
//Storyboard Layer 1 (Fail)
//Storyboard Layer 2 (Pass)
//Storyboard Layer 3 (Foreground)
//Storyboard Sound Samples

[TimingPoints]
148,512.820512820513,4,2,1,66,1,0
49378,-100,4,2,2,77,0,1
64763,-100,4,2,2,77,0,0
65789,-100,4,2,2,82,0,1
82199,-100,4,2,1,55,0,0

[Colours]
Combo1 : 255,140,198
Combo2 : 255,223,255

[HitObjects]
6,192,148,6,0,P|53:180|101:194,1,100,4|8,0:0|0:0,0:0:0:0:
147,283,1173,2,0,P|194:297|242:285,1,100,2|8,0:0|0:0,0:0:0:0:
198,195,2199,2,0,L|202:86,1,100,4|8,0:3|0:0,0:0:0:0:
301,104,3224,2,0,L|297:203,1,100,2|10,0:0|0:0,0:0:0:0:
242,285,4250,6,0,P|227:330|252:397,1,100,4|8,0:3|0:0,0:0:0:0:
328,333,5276,1,2,0:0:0:0:
408,273,5789,1,8,0:0:0:0:
503,301,6301,2,0,P|513:338|504:378,2,75,4|4|4,0:3|0:3|0:3,0:0:0:0:
461,273,7327,2,0,L|457:150,1,100,2|10,0:0|0:0,0:0:0:0:
485,76,8353,6,0,P|435:92|385:79,1,100,4|8,0:0|0:0,0:0:0:0:
361,40,9122,2,0,L|288:34,1,50,4|2,0:3|0:0,0:0:0:0:
217,70,9891,1,8,0:0:0:0:
128,116,10404,2,0,P|117:72|133:17,1,100,4|8,0:3|0:0,0:0:0:0:
217,70,11430,1,2,0:0:0:0:
213,169,11942,1,10,0:0:0:0:
273,248,12455,6,0,P|321:232|370:253,1,100,4|8,0:3|0:0,0:0:0:0:
384,295,13224,2,0,L|377:360,1,50,4|2,0:3|0:0,0:0:0:0:
474,374,13994,2,0,L|487:262,2,100,8|4|8,0:0|0:3|0:0,0:0:0:0:
378,344,15532,1,4,0:3:0:0:
280,366,16045,1,8,0:0:0:0:
208,296,16558,6,0,P|160:281|100:305,1,100,4|8,0:0|0:0,0:0:0:0:
22,336,17583,2,0,P|14:286|37:232,1,100,2|8,0:0|0:0,0:0:0:0:
118,191,18609,2,0,P|134:144|126:95,1,100,4|8,0:3|0:0,0:0:0:0:
75,9,19635,2,0,L|190:15,1,100,2|10,0:0|0:0,0:0:0:0:
226,99,20660,6,0,P|274:113|334:95,1,100,4|8,0:3|0:0,0:0:0:0:
375,17,21686,1,2,0:0:0:0:
460,69,22199,2,0,L|452:179,1,100,8|4,0:0|0:3,0:0:0:0:
413,200,22968,2,0,P|402:245|414:292,2,75,2|0|4,0:0|0:0|0:3,0:0:0:0:
503,242,24250,1,10,0:0:0:0:
480,339,24763,6,0,B|470:379|470:379|389:376,1,100,12|8,0:1|0:0,0:0:0:0:
365,356,25532,2,0,L|292:350,1,50,4|2,0:3|0:0,0:0:0:0:
217,374,26301,1,8,0:0:0:0:
125,333,26814,2,0,P|114:289|130:234,1,100,4|8,0:3|0:0,0:0:0:0:
196,164,27840,1,2,0:0:0:0:
279,218,28352,1,8,0:0:0:0:
361,160,28865,6,0,P|409:144|458:165,1,100,4|8,0:3|0:0,0:0:0:0:
503,156,29634,2,0,L|508:106,1,50,4|2,0:3|0:0,0:0:0:0:
445,28,30404,2,0,P|392:44|339:22,1,100,8|4,0:0|0:3,0:0:0:0:
257,66,31430,2,0,L|261:175,1,100,10|8,0:0|0:0,0:0:0:0:
283,263,32455,1,10,0:0:0:0:
210,331,32968,6,0,P|162:316|102:340,1,100,4|8,0:1|0:0,0:0:0:0:
24,371,33993,2,0,P|16:321|39:267,1,100,2|8,0:0|0:0,0:0:0:0:
106,207,35019,2,0,P|122:160|114:111,1,100,4|8,0:3|0:0,0:0:0:0:
71,20,36045,2,0,L|186:26,1,100,0|8,0:0|0:0,0:0:0:0:
206,118,37071,6,0,L|321:124,1,100,4|8,0:3|0:0,0:0:0:0:
344,215,38096,1,2,0:0:0:0:
442,197,38609,1,10,0:0:0:0:
490,109,39122,2,0,L|499:30,2,75,4|4|4,0:3|0:3|0:3,0:0:0:0:
456,146,40148,2,0,P|441:195|463:250,1,100,4|10,0:3|0:0,0:0:0:0:
483,336,41173,6,0,L|371:335,1,100,4|4,0:0|0:3,0:0:0:0:
285,309,42199,2,0,L|173:308,1,100,4|8,0:3|0:0,0:0:0:0:
96,353,43224,2,0,P|88:306|112:237,1,100,4|4,0:3|0:3,0:0:0:0:
191,213,44250,1,4,0:3:0:0:
191,112,44763,1,8,0:0:0:0:
142,24,45276,6,0,P|187:11|252:29,1,100,4|4,0:3|0:3,0:0:0:0:
319,81,46301,2,0,P|367:91|415:78,1,100,4|8,0:3|0:0,0:0:0:0:
495,17,47327,2,0,L|493:116,1,100,4|8,0:3|0:0,0:0:0:0:
411,175,48353,1,8,0:0:0:0:
403,274,48865,1,8,0:0:0:0:
457,357,49378,6,0,P|400:377|359:363,1,100,4|8,0:0|0:0,0:0:0:0:
300,288,50404,2,0,P|243:268|203:286,1,100,2|8,0:3|0:0,0:0:0:0:
136,351,51430,2,0,L|23:346,1,100,2|8,0:3|0:0,0:0:0:0:
10,249,52455,1,2,3:3:0:0:
55,160,52968,1,8,0:1:0:0:
106,74,53481,6,0,P|53:58|2:77,2,100,0|8|0,0:0|0:0|0:0,0:0:0:0:
177,143,55019,1,8,0:0:0:0:
255,81,55532,2,0,L|372:81,1,100,2|8,0:3|0:0,0:0:0:0:
450,51,56558,2,0,L|457:-3,2,50,2|2|8,3:3|3:1|0:1,0:0:0:0:
426,148,57583,6,0,P|415:195|428:255,1,100,2|8,0:3|0:0,0:0:0:0:
475,330,58609,2,0,P|423:346|368:327,1,100,2|8,0:3|0:0,0:0:0:0:
323,251,59635,2,0,L|212:254,1,100,2|8,0:3|0:0,0:0:0:0:
162,333,60660,1,2,3:3:0:0:
62,339,61173,1,8,0:0:0:0:
25,245,61686,6,0,P|17:192|40:138,1,100,2|8,0:3|0:0,0:0:0:0:
116,202,62712,2,0,L|239:198,1,100,2|8,0:3|0:0,0:0:0:0:
282,124,63737,2,0,B|334:113|334:113|387:129,1,100,2|10,0:3|0:0,0:0:0:0:
353,223,64763,1,8,0:3:0:0:
383,318,65276,1,8,0:3:0:0:
474,277,65789,6,0,L|479:164,1,100,4|8,0:0|0:0,0:0:0:0:
444,82,66814,2,0,P|390:64|348:78,1,100,2|8,0:3|0:0,0:0:0:0:
278,146,67840,2,0,L|171:142,1,100,2|8,0:3|0:0,0:0:0:0:
87,185,68865,1,2,3:3:0:0:
22,108,69378,1,8,0:1:0:0:
87,32,69891,6,0,P|134:44|187:32,1,100,2|8,0:3|0:0,0:0:0:0:
282,16,70917,2,0,L|272:121,1,100,2|8,0:3|0:0,0:0:0:0:
315,205,71942,2,0,P|267:217|220:202,1,100,2|8,0:3|0:0,0:0:0:0:
155,126,72968,2,0,L|144:76,2,50,2|2|8,3:3|3:1|3:1,0:0:0:0:
103,211,73994,6,0,P|88:254|102:316,1,100,2|8,0:3|0:0,0:0:0:0:
196,310,75019,2,0,P|211:267|197:205,1,100,2|8,0:3|0:0,0:0:0:0:
155,126,76045,2,0,L|273:126,1,100,2|8,0:3|0:0,0:0:0:0:
314,206,77071,1,2,3:3:0:0:
412,187,77583,1,8,0:0:0:0:
494,243,78096,6,0,P|511:204|493:130,1,100,2|8,0:3|0:0,0:0:0:0:
432,78,79122,2,0,L|317:80,1,100,2|8,0:3|0:0,0:0:0:0:
255,144,80148,1,2,0:3:0:0:
233,241,80660,1,8,0:0:0:0:
273,332,81173,2,0,P|234:344|169:320,2,100,0|8|4,3:0|0:3|0:1,0:0:0:0:
360,283,82712,6,0,L|360:344,2,50,8|4|2,0:0|0:3|0:0,0:0:0:0:
401,192,83737,1,8,0:0:0:0:
367,97,84250,2,0,P|294:69|224:105,2,150,4|4|10,0:3|0:3|0:0,0:0:0:0:
299,171,86301,5,4,0:3:0:0:
240,252,86814,2,0,L|243:316,2,50,8|4|2,0:0|0:3|0:0,0:0:0:0:
190,164,87840,1,8,0:0:0:0:
233,74,88353,6,0,P|162:66|100:128,1,150,4|0,0:3|0:0,0:0:0:0:
89,161,89378,2,0,L|99:314,1,150,2|0,0:0|0:0,0:0:0:0:
