osu file format v14

[General]
AudioFilename: audio.mp3
AudioLeadIn: 0
PreviewTime: 193445
Countdown: 0
SampleSet: Soft
StackLeniency: 0.7
Mode: 0
LetterboxInBreaks: 0
WidescreenStoryboard: 0

[Editor]
Bookmarks: 255699
DistanceSpacing: 1
BeatDivisor: 4
GridSize: 32
TimelineZoom: 1.3

[Metadata]
Title:Asymmetry
TitleUnicode:アシンメトリー
Artist:Horie Yui
ArtistUnicode:堀江由衣
Creator:rollpan
Version:Extra
Source:K RETURN OF KINGS
Tags:櫛名 アンナ kushina anna atsuko katsu op opening Shirasaka Koume Roll_Pan
BeatmapID:1514679
BeatmapSetID:716840

[Difficulty]
HPDrainRate:6
CircleSize:4
OverallDifficulty:8.7
ApproachRate:9.2
SliderMultiplier:1.8
SliderTickRate:1

[Events]
//Background and Video events
0,0,"BG.jpg",0,0
//Break Periods
2,146477,156805
//Storyboard Layer 0 (Background)
//Storyboard Layer 1 (Fail)
//Storyboard Layer 2 (Pass)
//Storyboard Layer 3 (Foreground)
//Storyboard Layer 4 (Overlay)
//Storyboard Sound Samples

[TimingPoints]
15873,346.820809248555,4,2,1,65,1,0
28358,-166.666666666667,4,2,1,50,0,0
29745,-133.333333333333,4,2,1,45,0,0
33907,-100,4,2,1,60,0,0
35294,-133.333333333333,4,2,1,45,0,0
39456,-100,4,2,1,60,0,0
40844,-133.333333333333,4,2,1,45,0,0
44832,-100,4,2,1,60,0,0
46393,-133.333333333333,4,2,1,45,0,0
49167,-100,4,2,1,60,0,0
51942,-100,4,2,1,70,0,0
56797,-133.333333333333,4,2,1,45,0,0
57318,-100,4,2,1,70,0,0
63040,-100,4,2,1,75,0,0
64427,-133.333333333333,4,2,1,45,0,0
65121,-133.333333333333,4,2,1,55,0,0
67202,-100,4,2,1,75,0,1
83849,-133.333333333333,4,2,1,55,0,0
86624,-200,4,2,1,30,0,0
88705,-200,4,2,1,50,0,0
89399,-100,4,2,1,65,0,0
100497,-133.333333333333,4,2,1,55,0,0
101190,-100,4,2,1,55,0,0
101884,-133.333333333333,4,2,1,55,0,0
103965,-100,4,2,1,55,0,0
105352,-133.333333333333,4,2,1,55,0,0
108820,-100,4,2,1,60,0,0
111595,-100,4,2,1,70,0,0
116451,-133.333333333333,4,2,1,45,0,0
116971,-100,4,2,1,70,0,0
124081,-133.333333333333,4,2,1,45,0,0
126855,-100,4,2,1,75,0,1
143503,-133.333333333333,4,2,1,55,0,0
146277,-100,4,2,1,65,0,0
168474,-100,4,2,1,60,0,0
187896,-100,4,2,1,70,0,0
193445,-100,4,2,1,75,0,1
210092,-100,4,2,1,70,0,0
215641,-100,4,2,1,75,0,1
232289,-100,4,2,1,70,0,0
235063,-100,4,2,1,75,0,1
237838,-133.333333333333,4,2,1,55,0,0
240612,-100,4,2,1,70,0,0
251711,-100,4,2,1,55,0,0
255699,-100,4,2,1,40,0,0

[HitObjects]
70,141,15873,5,8,0:0:0:0:
72,154,16219,5,8,0:0:0:0:
73,167,16566,5,8,0:0:0:0:
111,143,16653,1,8,0:0:0:0:
156,140,16740,1,8,0:0:0:0:
196,160,16826,1,8,0:0:0:0:
221,196,16913,1,8,0:0:0:0:
246,232,17000,1,8,0:0:0:0:
286,252,17086,1,8,0:0:0:0:
330,249,17173,1,8,0:0:0:0:
368,225,17260,6,0,L|346:42,1,180,6|8,0:0|0:0,0:0:0:0:
137,229,17780,1,0,0:0:0:0:
45,93,17953,2,0,P|80:65|124:63,1,90,2|0,0:0|0:0,0:0:0:0:
99,253,18300,2,0,L|11:236,1,90,8|0,0:0|0:0,0:0:0:0:
195,159,18647,6,0,P|245:231|220:314,2,180,2|8|2,0:0|0:0|0:0,0:0:0:0:
128,327,19514,1,0,0:0:0:0:
269,378,19688,2,0,P|318:360|359:354,1,90,8|0,0:0|0:0,0:0:0:0:
508,279,20034,6,0,B|426:268|426:268|417:255|417:255|335:245,1,180,2|8,0:0|0:0,0:0:0:0:
266,134,20555,1,0,0:0:0:0:
363,18,20728,2,0,P|389:53|393:97,1,90,2|0,0:0|0:0,0:0:0:0:
260,294,21075,2,0,P|233:258|229:214,1,90,8|0,0:0|0:0,0:0:0:0:
141,52,21422,6,0,P|55:41|0:107,2,180,2|8|2,0:0|0:0|0:0,0:0:0:0:
229,214,22289,1,2,0:0:0:0:
90,123,22462,1,2,0:3:0:0:
87,139,22549,1,2,0:3:0:0:
84,155,22636,1,2,0:3:0:0:
81,171,22722,1,2,0:3:0:0:
78,188,22809,6,0,B|117:240|117:240|229:214,1,180,6|8,0:0|0:0,0:0:0:0:
269,125,23329,1,0,0:0:0:0:
128,342,23503,2,0,P|84:335|49:306,1,90,2|0,0:0|0:0,0:0:0:0:
326,204,23849,2,0,L|317:302,1,90,8|0,0:0|0:0,0:0:0:0:
207,56,24196,6,0,P|291:36|356:94,2,180,2|8|2,0:0|0:0|0:0,0:0:0:0:
305,236,25063,1,0,0:0:0:0:
403,160,25237,2,0,P|443:140|487:138,1,90,8|0,0:0|0:0,0:0:0:0:
278,323,25583,6,0,P|215:263|233:179,1,180,2|8,0:0|0:0,0:0:0:0:
364,287,26104,1,0,0:0:0:0:
116,363,26277,2,0,L|131:260,1,90,2|0,0:0|0:0,0:0:0:0:
293,110,26624,2,0,P|317:146|320:191,1,90,8|0,0:0|0:0,0:0:0:0:
4,188,26971,6,0,L|114:174,1,90,10|0,0:0|0:0,0:0:0:0:
364,287,27318,2,0,L|254:273,1,90,10|0,0:0|0:0,0:0:0:0:
93,65,27664,1,8,0:0:0:0:
111,37,27751,1,8,0:0:0:0:
141,22,27838,1,8,0:0:0:0:
175,24,27925,1,8,0:0:0:0:
203,42,28011,1,8,0:0:0:0:
218,72,28098,1,8,0:0:0:0:
217,105,28185,1,8,0:0:0:0:
200,134,28271,1,8,0:0:0:0:
171,150,28358,5,2,0:3:0:0:
307,126,28531,1,2,0:3:0:0:
147,222,28705,1,2,0:3:0:0:
336,252,28878,1,2,0:3:0:0:
149,323,29052,5,8,0:0:0:0:
285,43,29225,2,0,P|338:47|379:81,1,107.999996704102,8|0,0:0|0:0,0:0:0:0:
439,244,29745,6,0,B|420:155|420:155|444:118,1,135.000005149842,6|0,0:0|0:0,0:0:0:0:
511,168,30266,1,2,0:0:0:0:
511,168,30612,1,2,0:3:0:0:
358,298,30786,2,0,P|341:254|343:222,1,67.5000025749208,2|0,0:3|0:0,0:0:0:0:
425,381,31133,6,0,P|378:331|300:335,1,135.000005149842,2|0,0:0|0:0,0:0:0:0:
236,370,31653,1,2,0:0:0:0:
236,370,32000,1,2,0:0:0:0:
314,200,32173,2,0,L|383:208,1,67.5000025749208,8|0,0:0|0:0,0:0:0:0:
249,138,32520,6,0,P|280:196|270:261,1,135.000005149842,2|0,0:0|0:0,0:0:0:0:
189,300,33040,1,2,0:0:0:0:
189,300,33387,1,2,0:3:0:0:
70,148,33560,2,0,P|71:114|84:83,1,67.5000025749208,2|0,0:3|0:0,0:0:0:0:
107,231,33907,6,0,L|18:215,1,90,10|2,0:3|0:3,0:0:0:0:
219,43,34254,2,0,L|307:58,1,90,2|10,0:0|0:3,0:0:0:0:
367,207,34601,1,0,0:0:0:0:
463,83,34774,1,10,0:3:0:0:
302,266,34948,2,0,P|280:214|296:158,1,90,2|0,0:0|0:0,0:0:0:0:
378,344,35294,6,0,P|326:302|260:302,1,135.000005149842,2|0,0:0|0:0,0:0:0:0:
190,360,35815,1,2,0:0:0:0:
190,360,36162,1,2,0:3:0:0:
80,204,36335,2,0,L|91:137,1,67.5000025749208,2|0,0:3|0:0,0:0:0:0:
29,279,36682,6,0,P|80:237|146:237,1,135.000005149842,2|0,0:0|0:0,0:0:0:0:
223,285,37202,1,2,0:0:0:0:
223,285,37549,1,2,0:0:0:0:
170,117,37722,2,0,P|139:102|106:99,1,67.5000025749208,8|0,0:0|0:0,0:0:0:0:
217,20,38069,6,0,L|199:153,1,135.000005149842,2|0,0:0|0:0,0:0:0:0:
252,212,38589,1,2,0:0:0:0:
252,212,38936,1,2,0:3:0:0:
336,178,39109,1,2,0:3:0:0:
323,267,39283,1,2,0:3:0:0:
252,212,39456,5,10,0:3:0:0:
468,162,39630,1,10,0:3:0:0:
340,359,39803,2,0,P|290:353|252:326,1,90,2|0,0:0|0:0,0:0:0:0:
394,104,40150,5,2,0:3:0:0:
410,236,40323,1,6,0:3:0:0:
336,178,40497,1,2,0:0:0:0:
468,162,40670,1,0,0:0:0:0:
272,37,40844,6,0,P|206:32|155:74,1,135.000005149842,6|0,0:0|0:0,0:0:0:0:
126,156,41364,1,2,0:0:0:0:
126,156,41711,1,2,0:0:0:0:
263,248,41884,2,0,P|301:235|342:230,1,67.5000025749208,8|0,0:0|0:0,0:0:0:0:
236,342,42231,6,0,L|223:196,1,135.000005149842,2|0,0:0|0:0,0:0:0:0:
283,134,42751,1,2,0:0:0:0:
283,134,43098,1,2,0:3:0:0:
120,238,43271,2,0,P|103:271|101:313,1,67.5000025749208,2|0,0:3|0:0,0:0:0:0:
200,208,43618,6,0,P|153:161|87:158,1,135.000005149842,2|0,0:0|0:0,0:0:0:0:
26,226,44138,1,2,0:0:0:0:
26,226,44485,1,2,0:0:0:0:
136,41,44659,1,8,0:0:0:0:
285,176,44832,6,0,L|270:275,2,90,2|2|2,0:3|0:0|0:3,0:0:0:0:
227,28,45352,1,10,0:3:0:0:
182,182,45526,1,2,0:0:0:0:
356,63,45699,1,0,0:0:0:0:
380,153,45873,1,2,0:3:0:0:
285,222,46046,2,0,P|265:180|270:125,1,90,2|0,0:3|0:0,0:0:0:0:
446,39,46393,6,0,B|480:82|480:82|463:160,1,135.000005149842,6|0,0:0|0:0,0:0:0:0:
394,229,46913,1,2,0:0:0:0:
394,229,47260,1,2,0:0:0:0:
258,109,47433,2,0,P|219:114|191:134,1,67.5000025749208,8|0,0:0|0:0,0:0:0:0:
152,227,47780,6,0,L|163:92,1,135.000005149842,2|0,0:0|0:0,0:0:0:0:
97,36,48300,1,2,0:0:0:0:
97,36,48647,1,2,0:3:0:0:
25,237,48820,2,0,P|46:264|77:277,1,67.5000025749208,2|0,0:3|0:0,0:0:0:0:
268,206,49167,5,2,0:0:0:0:
109,362,49341,1,2,0:3:0:0:
143,132,49514,1,10,0:3:0:0:
325,276,49688,1,2,0:0:0:0:
180,207,49861,1,2,0:3:0:0:
378,109,50034,1,2,0:0:0:0:
322,362,50208,2,0,P|279:348|249:316,1,90,10|0,0:3|0:0,0:0:0:0:
248,146,50555,5,8,0:0:0:0:
135,343,50728,1,8,0:0:0:0:
91,53,50901,1,8,0:0:0:0:
234,269,51075,2,0,B|300:293|300:293|397:242,1,180,2|2,0:0|0:0,0:0:0:0:
505,29,51595,1,2,0:3:0:0:
465,14,51682,1,2,0:3:0:0:
424,20,51768,1,2,0:3:0:0:
391,45,51855,1,2,0:3:0:0:
374,83,51942,6,0,L|392:267,1,180,6|8,0:0|0:0,0:0:0:0:
310,346,52462,1,2,0:0:0:0:
256,212,52636,1,0,0:0:0:0:
159,363,52809,1,8,0:0:0:0:
126,143,52982,1,2,0:0:0:0:
44,320,53156,1,8,0:0:0:0:
0,124,53329,6,0,P|43:49|129:48,1,180,2|8,0:0|0:0,0:0:0:0:
256,212,53849,1,2,0:0:0:0:
52,193,54023,1,0,0:0:0:0:
220,300,54196,1,2,0:0:0:0:
305,97,54370,2,0,P|299:53|274:17,1,90,8|0,0:0|0:0,0:0:0:0:
256,212,54716,6,0,L|445:184,1,180,2|8,0:0|0:0,0:0:0:0:
487,300,55237,1,2,0:0:0:0:
318,118,55410,1,0,0:0:0:0:
397,355,55583,1,8,0:0:0:0:
510,201,55757,2,0,P|504:156|478:120,1,90,2|8,0:0|0:0,0:0:0:0:
152,290,56104,5,2,0:0:0:0:
152,290,56277,2,0,B|190:352|190:352|296:337,1,180,2|0,0:0|0:0,0:0:0:0:
128,162,56797,6,0,P|76:156|112:192,1,135.000005149842
210,107,57318,5,0,0:0:0:0:
100,270,57491,2,0,P|19:240|0:156,1,180,6|8,0:0|0:0,0:0:0:0:
129,27,58011,1,2,0:0:0:0:
323,142,58185,1,0,0:0:0:0:
215,241,58358,1,8,0:0:0:0:
223,75,58531,2,0,P|244:35|280:7,1,90,2|8,0:0|0:0,0:0:0:0:
489,138,58878,6,0,P|453:215|367:218,1,180,2|8,0:0|0:0,0:0:0:0:
216,351,59399,2,0,L|317:329,1,90,2|0,0:0|0:0,0:0:0:0:
106,160,59745,2,0,L|207:182,1,90,2|0,0:0|0:0,0:0:0:0:
1,295,60092,1,8,0:0:0:0:
46,98,60266,6,0,P|83:74|128:75,1,90,2|0,0:0|0:0,0:0:0:0:
246,275,60612,2,0,L|158:255,1,90,8|0,0:0|0:0,0:0:0:0:
309,39,60959,1,2,0:0:0:0:
459,122,61133,1,8,0:0:0:0:
271,200,61306,1,0,0:0:0:0:
487,240,61479,1,8,0:0:0:0:
358,352,61653,6,0,P|334:314|333:269,1,90,2|0,0:0|0:0,0:0:0:0:
459,122,62000,1,8,0:0:0:0:
508,319,62173,1,2,0:0:0:0:
508,319,62260,1,2,0:0:0:0:
508,319,62346,1,2,0:0:0:0:
271,200,62520,1,8,0:0:0:0:
232,370,62693,2,0,L|216:278,1,90,2|0,0:0|0:0,0:0:0:0:
338,92,63040,5,2,0:0:0:0:
112,256,63214,1,8,0:0:0:0:
410,155,63387,5,8,0:0:0:0:
212,12,63560,1,2,0:0:0:0:
298,286,63734,5,8,0:0:0:0:
512,82,63907,1,8,0:0:0:0:
512,82,63994,1,8,0:0:0:0:
512,82,64081,1,2,0:0:0:0:
346,371,64254,1,8,0:0:0:0:
86,177,64427,6,0,P|165:102|176:210,1,270.000010299683,2|0,0:0|0:0,0:0:0:0:
176,210,65815,5,2,0:3:0:0:
165,102,65988,1,2,0:3:0:0:
86,177,66162,1,2,0:3:0:0:
86,177,66682,5,2,0:3:0:0:
300,80,66855,1,2,0:3:0:0:
326,48,67202,6,0,L|317:137,1,90,6|8,0:0|0:0,0:0:0:0:
326,149,67462,1,0,0:0:0:0:
334,161,67549,1,0,0:0:0:0:
201,290,67722,2,0,P|176:254|176:210,1,90,8|2,0:0|0:0,0:0:0:0:
400,254,68069,1,8,0:0:0:0:
233,381,68242,2,0,L|144:363,1,90,0|8,0:0|0:0,0:0:0:0:
26,146,68589,5,2,0:0:0:0:
249,215,68763,1,8,0:0:0:0:
52,288,68936,1,0,0:0:0:0:
152,71,69109,2,0,P|182:103|187:147,1,90,8|2,0:0|0:0,0:0:0:0:
0,222,69456,1,8,0:0:0:0:
75,34,69630,2,0,L|164:22,1,90,0|8,0:0|0:0,0:0:0:0:
282,243,69977,5,2,0:0:0:0:
107,135,70150,1,8,0:0:0:0:
107,135,70237,1,8,0:0:0:0:
107,135,70323,1,8,0:0:0:0:
208,331,70497,2,0,P|246:355|291:361,1,90,8|0,0:0|0:0,0:0:0:0:
472,293,70844,2,0,L|423:286,1,45,10|0,0:3|0:0,0:0:0:0:
306,211,71017,2,0,L|355:204,1,45,10|0,0:3|0:0,0:0:0:0:
491,137,71190,2,0,L|442:130,1,45,10|0,0:3|0:0,0:0:0:0:
229,210,71364,5,8,0:0:0:0:
389,14,71537,2,0,P|413:51|415:95,1,90,8|0,0:0|0:0,0:0:0:0:
156,235,71884,2,0,P|102:198|107:134,1,135,8|0,0:0|0:0,0:0:0:0:
139,94,72231,2,0,P|149:125|148:150,1,45,8|0,0:0|0:0,0:0:0:0:
51,265,72404,1,2,0:3:0:0:
44,286,72491,1,2,0:3:0:0:
42,308,72578,1,2,0:3:0:0:
46,330,72664,1,2,0:3:0:0:
56,351,72751,5,6,0:0:0:0:
300,237,72925,1,0,0:0:0:0:
111,140,73098,1,8,0:0:0:0:
278,323,73271,2,0,P|322:320|362:299,1,90,0|2,0:0|0:0,0:0:0:0:
386,125,73618,1,0,0:0:0:0:
191,267,73792,2,0,L|183:356,1,90,8|0,0:0|0:0,0:0:0:0:
445,207,74138,5,2,0:0:0:0:
393,27,74312,1,0,0:0:0:0:
337,271,74485,1,8,0:0:0:0:
512,157,74659,2,0,P|503:114|476:79,1,90,0|2,0:0|0:0,0:0:0:0:
266,174,75005,1,0,0:0:0:0:
424,319,75179,2,0,L|512:304,1,90,8|0,0:0|0:0,0:0:0:0:
278,90,75526,6,0,L|189:104,1,90,2|8,0:0|0:0,0:0:0:0:
189,104,75786,1,8,0:0:0:0:
189,104,75873,1,8,0:0:0:0:
63,257,76046,2,0,P|98:284|141:292,1,90,2|2,0:0|0:0,0:0:0:0:
369,121,76393,1,8,0:0:0:0:
363,76,76479,1,8,0:0:0:0:
357,31,76566,1,8,0:0:0:0:
309,246,76740,1,2,0:0:0:0:
508,134,76913,6,0,L|457:124,1,45,8|0,0:0|0:0,0:0:0:0:
172,30,77086,1,8,0:0:0:0:
172,30,77433,6,0,B|205:69|205:69|190:151,1,135,8|0,0:0|0:0,0:0:0:0:
111,192,77780,2,0,P|90:183|73:168,1,45,8|0,0:0|0:0,0:0:0:0:
11,249,77953,1,2,0:3:0:0:
14,271,78040,1,2,0:3:0:0:
17,293,78127,1,2,0:3:0:0:
20,315,78214,1,2,0:3:0:0:
24,338,78300,6,0,P|57:366|102:364,1,90,6|8,0:0|0:0,0:0:0:0:
123,355,78560,1,0,0:0:0:0:
140,339,78647,1,0,0:0:0:0:
88,154,78820,2,0,L|0:170,1,90,8|2,0:0|0:0,0:0:0:0:
220,305,79167,1,8,0:0:0:0:
168,104,79341,2,0,P|135:69|86:65,1,90,0|8,0:0|0:0,0:0:0:0:
139,241,79688,5,2,0:0:0:0:
360,173,79861,1,8,0:0:0:0:
263,378,80034,1,0,0:0:0:0:
202,150,80208,2,0,P|206:105|228:66,1,90,8|2,0:0|0:0,0:0:0:0:
438,216,80555,1,8,0:0:0:0:
226,261,80728,2,0,L|139:241,1,90,0|8,0:0|0:0,0:0:0:0:
390,88,81075,6,0,L|477:108,1,90,2|8,0:0|0:0,0:0:0:0:
477,108,81335,1,8,0:0:0:0:
477,108,81422,1,8,0:0:0:0:
332,322,81595,2,0,P|287:324|252:297,1,90,8|0,0:0|0:0,0:0:0:0:
201,122,81942,2,0,L|194:166,1,45,10|0,0:3|0:0,0:0:0:0:
117,286,82115,2,0,L|110:241,1,45,10|0,0:3|0:0,0:0:0:0:
70,66,82289,2,0,L|63:110,1,45,10|0,0:3|0:0,0:0:0:0:
3,317,82462,5,8,0:0:0:0:
256,221,82636,1,8,0:0:0:0:
3,317,82982,6,0,P|15:253|75:229,1,135,8|0,0:0|0:0,0:0:0:0:
147,262,83329,2,0,L|141:306,1,45,8|0,0:0|0:0,0:0:0:0:
228,376,83503,1,2,0:3:0:0:
249,383,83589,1,2,0:3:0:0:
271,383,83676,1,2,0:3:0:0:
292,374,83763,1,2,0:3:0:0:
311,354,83849,6,0,B|368:295|341:182|235:180|210:278|257:293,1,270.000010299683,2|0,0:3|0:0,0:0:0:0:
255,293,84890,1,2,0:3:0:0:
497,179,85237,6,0,B|440:170|429:114|429:114|377:169|377:169|341:128|293:137,1,270.000010299683,2|0,0:3|0:0,0:0:0:0:
294,137,86277,1,2,0:3:0:0:
29,248,86624,6,0,P|131:157|107:293,1,360
107,293,88358,1,2,0:3:0:0:
107,293,88705,5,2,0:3:0:0:
147,273,88792,1,2,0:3:0:0:
167,233,88878,1,2,0:3:0:0:
162,190,88965,1,2,0:3:0:0:
131,157,89052,1,2,0:3:0:0:
88,148,89138,1,2,0:3:0:0:
48,166,89225,1,2,0:3:0:0:
25,204,89312,1,2,0:3:0:0:
29,249,89399,6,0,B|69:290|69:290|190:266,1,180,6|8,0:0|0:0,0:0:0:0:
306,136,89919,1,0,0:0:0:0:
200,13,90092,2,0,P|169:45|163:89,1,90,2|0,0:0|0:0,0:0:0:0:
351,205,90439,2,0,P|381:172|387:128,1,90,8|0,0:0|0:0,0:0:0:0:
263,214,90786,6,0,P|312:284|398:281,2,180,2|8|2,0:0|0:0|0:0,0:0:0:0:
388,59,91653,1,0,0:0:0:0:
476,138,91826,2,0,L|465:245,1,90,8|0,0:0|0:0,0:0:0:0:
307,358,92173,6,0,P|244:298|262:213,1,180,2|8,0:0|0:0,0:0:0:0:
372,159,92693,1,0,0:0:0:0:
482,253,92867,2,0,B|488:298|488:298|470:339,1,90,2|0,0:0|0:0,0:0:0:0:
295,126,93214,2,0,B|289:81|289:81|306:39,1,90,8|0,0:0|0:0,0:0:0:0:
112,188,93560,6,0,L|135:392,2,180,2|8|2,0:0|0:0|0:0,0:0:0:0:
29,102,94427,1,2,0:0:0:0:
260,186,94601,1,2,0:3:0:0:
262,164,94688,1,2,0:3:0:0:
265,142,94774,1,2,0:3:0:0:
268,120,94861,1,2,0:3:0:0:
270,98,94948,6,0,P|225:25|140:32,1,180,6|8,0:0|0:0,0:0:0:0:
194,260,95468,1,0,0:0:0:0:
362,143,95641,2,0,L|356:47,1,90,2|0,0:0|0:0,0:0:0:0:
126,126,95988,2,0,L|120:222,1,90,8|0,0:0|0:0,0:0:0:0:
239,342,96335,6,0,B|289:361|320:323|320:323|352:284|402:306,2,180,2|8|2,0:0|0:0|0:0,0:0:0:0:
161,195,97202,1,0,0:0:0:0:
69,258,97375,2,0,P|57:301|55:346,1,90,8|0,0:0|0:0,0:0:0:0:
177,94,97722,6,0,L|0:121,1,180,2|8,0:0|0:0,0:0:0:0:
177,228,98242,1,0,0:0:0:0:
269,121,98416,2,0,P|274:78|244:29,1,90,2|0,0:0|0:0,0:0:0:0:
84,201,98763,2,0,P|80:245|100:284,1,90,8|0,0:0|0:0,0:0:0:0:
393,226,99109,6,0,L|303:214,1,90,10|0,0:0|0:0,0:0:0:0:
104,368,99456,2,0,L|193:356,1,90,10|0,0:0|0:0,0:0:0:0:
453,300,99803,1,8,0:0:0:0:
271,60,99977,1,8,0:0:0:0:
248,64,100063,1,8,0:0:0:0:
226,68,100150,1,8,0:0:0:0:
204,73,100237,1,8,0:0:0:0:
182,77,100323,1,8,0:0:0:0:
91,160,100497,5,2,0:0:0:0:
209,198,100670,1,2,0:0:0:0:
81,251,100844,2,0,P|34:234|14:205,1,67.5000025749208,0|2,0:0|0:0,0:0:0:0:
209,198,101190,5,2,0:3:0:0:
191,376,101364,2,0,L|208:197,1,180,2|0,0:3|0:0,0:0:0:0:
181,64,101884,6,0,P|147:65|118:81,2,67.5000025749208,2|2|0,0:0|0:0|0:0,0:0:0:0:
283,133,102404,1,2,0:0:0:0:
294,145,102751,1,2,0:3:0:0:
114,226,102925,2,0,L|107:158,1,67.5000025749208,2|0,0:3|0:0,0:0:0:0:
287,250,103271,6,0,L|280:317,2,67.5000025749208,2|2|0,0:0|0:0|0:0,0:0:0:0:
287,250,103792,1,2,0:0:0:0:
372,304,103965,6,0,P|410:303|456:267,1,90,2|0,0:3|0:0,0:0:0:0:
300,166,104312,2,0,P|281:205|287:250,1,90,10|0,0:3|0:0,0:0:0:0:
455,173,104659,2,0,P|430:136|389:119,2,90,2|0|2,0:0|0:0|0:3,0:0:0:0:
375,214,105179,1,2,0:0:0:0:
281,53,105352,6,0,L|369:38,1,67.5000025749208,0|2,0:0|0:3,0:0:0:0:
212,136,105699,2,0,L|145:125,1,67.5000025749208,2|0,0:3|0:0,0:0:0:0:
30,293,106046,6,0,P|61:235|125:222,1,135.000005149842,2|2,0:0|0:3,0:0:0:0:
190,282,106566,1,2,0:0:0:0:
194,299,106913,1,2,0:3:0:0:
66,153,107086,2,0,L|0:161,1,67.5000025749208,8|0,0:0|0:0,0:0:0:0:
208,39,107433,5,2,0:0:0:0:
300,76,107607,1,2,0:0:0:0:
263,168,107780,1,0,0:0:0:0:
171,131,107953,1,2,0:0:0:0:
164,117,108300,1,2,0:3:0:0:
373,13,108474,2,0,L|381:80,1,67.5000025749208,2|0,0:3|0:0,0:0:0:0:
255,263,108820,5,2,0:0:0:0:
460,175,108994,1,2,0:3:0:0:
300,339,109167,1,10,0:3:0:0:
419,370,109341,1,2,0:0:0:0:
319,135,109514,1,2,0:3:0:0:
187,379,109688,1,2,0:0:0:0:
424,255,109861,2,0,P|385:228|340:222,1,90,2|0,0:0|0:0,0:0:0:0:
89,295,110208,5,10,0:3:0:0:
220,87,110381,1,10,0:3:0:0:
281,377,110555,1,10,0:3:0:0:
0,220,110728,2,0,B|48:164|48:164|152:184,1,180,2|4,0:0|0:0,0:0:0:0:
369,267,111248,2,0,P|324:265|284:285,1,90,8|0,0:0|0:0,0:0:0:0:
179,384,111595,6,0,L|194:204,1,180,6|8,0:0|0:0,0:0:0:0:
334,23,112115,1,2,0:0:0:0:
117,152,112289,1,0,0:0:0:0:
373,186,112462,1,8,0:0:0:0:
147,69,112636,1,2,0:0:0:0:
313,131,112809,1,8,0:0:0:0:
118,271,112982,6,0,P|34:246|5:165,1,180,2|8,0:0|0:0,0:0:0:0:
113,37,113503,1,2,0:0:0:0:
343,141,113676,1,0,0:0:0:0:
248,260,113849,1,2,0:0:0:0:
210,71,114023,2,0,P|237:33|285:17,1,90,8|0,0:0|0:0,0:0:0:0:
491,209,114370,6,0,L|313:179,1,180,2|8,0:0|0:0,0:0:0:0:
205,263,114890,1,2,0:0:0:0:
295,100,115063,1,0,0:0:0:0:
359,325,115237,1,8,0:0:0:0:
123,277,115410,2,0,P|126:232|154:198,1,90,2|8,0:0|0:0,0:0:0:0:
397,61,115757,5,2,0:0:0:0:
397,61,115930,2,0,B|348:20|348:20|326:134,1,180,2|0,0:0|0:0,0:0:0:0:
400,305,116451,6,0,P|358:270|358:324,1,135.000005149842,0|8,0:0|0:0,0:0:0:0:
470,356,116971,5,0,0:0:0:0:
271,353,117144,2,0,P|261:266|316:199,1,180,6|8,0:0|0:0,0:0:0:0:
489,221,117664,5,2,0:0:0:0:
266,89,117838,1,0,0:0:0:0:
400,305,118011,1,8,0:0:0:0:
435,121,118185,2,0,P|431:76|405:40,1,90,2|8,0:0|0:0,0:0:0:0:
176,92,118531,6,0,P|217:167|303:171,1,180,2|8,0:0|0:0,0:0:0:0:
117,251,119052,2,0,L|108:145,1,90,2|0,0:0|0:0,0:0:0:0:
349,321,119399,2,0,L|358:215,1,90,2|8,0:0|0:0,0:0:0:0:
194,378,119745,1,2,0:0:0:0:
40,127,119919,6,0,P|70:94|113:85,1,90,6|0,0:0|0:0,0:0:0:0:
299,288,120266,2,8,L|209:275,1,90,8|2,0:0|0:0,0:0:0:0:
24,214,120612,1,0,0:0:0:0:
203,153,120786,1,8,0:0:0:0:
16,315,120959,1,0,0:0:0:0:
227,359,121133,1,8,0:0:0:0:
286,122,121306,6,0,L|271:33,1,90,2|0,0:0|0:0,0:0:0:0:
136,229,121653,2,0,P|127:272|138:316,1,90,8|2,0:0|0:0,0:0:0:0:
327,383,122000,1,0,0:0:0:0:
387,170,122173,1,2,0:0:0:0:
387,170,122260,1,2,0:0:0:0:
387,170,122346,1,8,0:0:0:0:
490,317,122520,1,2,0:0:0:0:
222,209,122693,5,2,0:0:0:0:
485,110,122867,1,8,0:0:0:0:
327,291,123040,5,8,0:0:0:0:
259,20,123214,1,2,0:0:0:0:
508,224,123387,5,8,0:0:0:0:
214,369,123560,2,0,P|184:335|179:291,1,90,8|2,0:0|0:0,0:0:0:0:
387,170,123907,5,8,0:0:0:0:
76,46,124081,2,0,P|55:151|162:106,1,270.000010299683,2|2,0:3|0:3,0:0:0:0:
161,108,125468,5,10,0:3:0:0:
62,156,125641,1,10,0:3:0:0:
76,46,125815,1,10,0:3:0:0:
76,46,126162,5,10,0:3:0:0:
49,66,126248,1,10,0:3:0:0:
36,97,126335,1,10,0:3:0:0:
41,130,126422,1,10,0:3:0:0:
62,156,126508,1,10,0:3:0:0:
93,168,126595,1,10,0:3:0:0:
126,162,126682,1,10,0:3:0:0:
151,140,126768,1,10,0:3:0:0:
161,108,126855,6,0,L|151:18,1,90,6|8,0:0|0:0,0:0:0:0:
140,11,127115,1,0,0:0:0:0:
129,4,127202,1,0,0:0:0:0:
0,198,127375,2,0,P|40:235|79:239,1,90,8|2,0:0|0:0,0:0:0:0:
230,163,127722,1,8,0:0:0:0:
115,345,127896,2,0,L|26:326,1,90,0|8,0:0|0:0,0:0:0:0:
161,108,128242,5,2,0:0:0:0:
363,204,128416,1,8,0:0:0:0:
233,317,128589,1,0,0:0:0:0:
320,71,128763,2,0,P|349:37|392:27,1,90,8|2,0:0|0:0,0:0:0:0:
510,156,129109,1,8,0:0:0:0:
276,238,129283,2,0,L|261:149,1,90,0|8,0:0|0:0,0:0:0:0:
498,313,129630,5,2,0:0:0:0:
348,367,129803,1,8,0:0:0:0:
348,367,129890,1,8,0:0:0:0:
348,367,129977,1,8,0:0:0:0:
424,144,130150,2,0,P|468:139|509:155,1,90,8|0,0:0|0:0,0:0:0:0:
348,367,130497,2,0,L|343:322,1,45,10|0,0:3|0:0,0:0:0:0:
275,176,130670,2,0,L|270:220,1,45,10|0,0:3|0:0,0:0:0:0:
179,339,130844,2,0,L|174:294,1,45,10|0,0:3|0:0,0:0:0:0:
79,106,131017,5,8,0:0:0:0:
1,314,131190,2,0,L|88:293,1,90,8|0,0:0|0:0,0:0:0:0:
163,80,131537,2,0,P|123:27|58:22,1,135,8|0,0:0|0:0,0:0:0:0:
19,47,131884,2,0,P|2:70|0:97,1,45,8|0,0:0|0:0,0:0:0:0:
83,208,132057,1,2,0:3:0:0:
98,224,132144,1,2,0:3:0:0:
117,236,132231,1,2,0:3:0:0:
139,241,132318,1,2,0:3:0:0:
161,240,132404,5,2,0:0:0:0:
1,314,132578,1,0,0:0:0:0:
221,147,132751,1,8,0:0:0:0:
121,384,132925,2,0,P|94:348|94:303,1,90,0|2,0:0|0:0,0:0:0:0:
163,80,133271,1,0,0:0:0:0:
346,199,133445,2,0,L|332:288,1,90,8|0,0:0|0:0,0:0:0:0:
208,378,133792,5,2,0:0:0:0:
470,299,133965,1,0,0:0:0:0:
261,184,134138,1,8,0:0:0:0:
374,367,134312,2,0,L|360:277,1,90,0|2,0:0|0:0,0:0:0:0:
304,84,134659,1,0,0:0:0:0:
125,244,134832,2,0,P|152:279|194:293,1,90,8|0,0:0|0:0,0:0:0:0:
89,44,135179,6,0,L|0:57,1,90,2|8,0:0|0:0,0:0:0:0:
0,57,135439,1,8,0:0:0:0:
0,57,135526,1,8,0:0:0:0:
261,184,135699,2,0,L|349:170,1,90,2|2,0:0|0:0,0:0:0:0:
73,312,136046,1,8,0:0:0:0:
70,267,136133,1,8,0:0:0:0:
88,227,136219,1,8,0:0:0:0:
178,384,136393,1,2,0:0:0:0:
322,232,136566,6,0,L|278:225,1,45,8|0,0:0|0:0,0:0:0:0:
30,132,136740,1,8,0:0:0:0:
29,131,137086,6,0,P|95:129|137:79,1,135,8|0,0:0|0:0,0:0:0:0:
191,17,137433,2,0,L|241:27,1,45,8|0,0:0|0:0,0:0:0:0:
308,70,137607,1,2,0:3:0:0:
304,92,137693,1,2,0:3:0:0:
301,114,137780,1,2,0:3:0:0:
298,136,137867,1,2,0:3:0:0:
295,159,137953,6,0,P|321:194|364:205,1,90,6|8,0:0|0:0,0:0:0:0:
388,200,138214,1,0,0:0:0:0:
408,187,138300,1,0,0:0:0:0:
222,319,138474,2,0,L|234:229,1,90,8|2,0:0|0:0,0:0:0:0:
456,268,138820,1,8,0:0:0:0:
169,384,138994,2,0,P|143:347|141:302,1,90,0|8,0:0|0:0,0:0:0:0:
298,136,139341,5,2,0:0:0:0:
84,187,139514,1,8,0:0:0:0:
264,246,139688,1,0,0:0:0:0:
195,49,139861,2,0,P|155:28|111:32,1,90,8|2,0:0|0:0,0:0:0:0:
34,251,140208,1,8,0:0:0:0:
298,136,140381,2,0,L|288:46,1,90,0|8,0:0|0:0,0:0:0:0:
144,216,140728,5,2,0:0:0:0:
380,306,140901,1,8,0:0:0:0:
380,306,140988,1,8,0:0:0:0:
380,306,141075,1,8,0:0:0:0:
202,384,141248,2,0,L|211:294,1,90,8|0,0:0|0:0,0:0:0:0:
405,95,141595,2,0,L|360:98,1,45,10|0,0:3|0:0,0:0:0:0:
247,181,141768,2,0,L|291:184,1,45,10|0,0:3|0:0,0:0:0:0:
440,241,141942,2,0,L|395:244,1,45,10|0,0:3|0:0,0:0:0:0:
211,294,142115,5,8,0:0:0:0:
499,152,142289,1,8,0:0:0:0:
211,294,142636,6,0,P|158:256|159:191,1,135,8|0,0:0|0:0,0:0:0:0:
231,141,142982,2,0,L|275:144,1,45,8|0,0:0|0:0,0:0:0:0:
440,241,143156,1,2,0:3:0:0:
446,262,143242,1,2,0:3:0:0:
446,284,143329,1,2,0:3:0:0:
439,306,143416,1,2,0:3:0:0:
426,324,143503,6,0,B|386:355|326:323|327:266|327:266|298:284|298:284|268:241|216:259,1,270.000010299683,2|0,0:3|0:0,0:0:0:0:
216,258,144543,1,2,0:3:0:0:
22,87,144890,6,0,B|62:97|89:61|89:61|110:103|105:143|105:143|118:126|143:112|143:112|160:142|201:143,1,270.000010299683,2|0,0:3|0:0,0:0:0:0:
190,142,145930,1,2,0:3:0:0:
72,316,146277,5,6,0:3:0:0:
334,30,157375,6,0,B|378:84|378:84|354:191,1,180,2|8,0:0|0:0,0:0:0:0:
271,263,157896,1,0,0:0:0:0:
197,122,158069,2,0,L|286:109,1,90,2|0,0:0|0:0,0:0:0:0:
451,289,158416,2,0,L|361:276,1,90,8|0,0:0|0:0,0:0:0:0:
117,356,158763,6,0,P|113:270|187:228,1,180,2|8,0:0|0:0,0:0:0:0:
255,289,159283,1,0,0:0:0:0:
89,168,159456,2,0,L|0:183,1,90,2|0,0:0|0:0,0:0:0:0:
228,41,159803,2,0,P|253:77|260:121,1,90,8|0,0:0|0:0,0:0:0:0:
333,279,160150,6,0,B|377:221|377:221|481:246,1,180,2|8,0:0|0:0,0:0:0:0:
512,341,160670,1,0,0:0:0:0:
310,175,160844,2,0,P|349:147|399:150,1,90,2|0,0:0|0:0,0:0:0:0:
300,359,161190,2,0,L|211:340,1,90,8|0,0:0|0:0,0:0:0:0:
22,222,161537,6,0,L|110:203,1,90,2|0,0:0|0:0,0:0:0:0:
397,103,161884,2,0,L|308:84,1,90,8|0,0:0|0:0,0:0:0:0:
150,15,162231,1,2,0:0:0:0:
233,250,162404,1,2,0:3:0:0:
308,84,162578,1,8,0:0:0:0:
401,192,162751,1,2,0:3:0:0:
186,327,162925,6,0,P|141:253|181:177,1,180,6|8,0:0|0:0,0:0:0:0:
277,175,163445,1,0,0:0:0:0:
66,374,163618,2,0,L|52:285,1,90,2|0,0:0|0:0,0:0:0:0:
294,208,163965,2,0,L|280:296,1,90,8|0,0:0|0:0,0:0:0:0:
50,93,164312,6,0,L|227:120,1,180,2|8,0:0|0:0,0:0:0:0:
294,208,164832,1,0,0:0:0:0:
400,93,165005,2,0,P|402:48|381:9,1,90,2|0,0:0|0:0,0:0:0:0:
216,243,165352,2,0,P|213:287|234:326,1,90,8|0,0:0|0:0,0:0:0:0:
502,207,165699,6,0,L|324:179,1,180,2|8,0:0|0:0,0:0:0:0:
216,243,166219,1,0,0:0:0:0:
258,94,166393,2,0,P|296:72|341:74,1,90,2|0,0:0|0:0,0:0:0:0:
445,277,166740,2,0,L|356:291,1,90,8|0,0:0|0:0,0:0:0:0:
160,120,167086,6,0,P|159:75|179:35,1,90,2|0,0:0|0:0,0:0:0:0:
239,299,167433,2,0,P|239:343|219:383,1,90,8|0,0:0|0:0,0:0:0:0:
5,312,167780,5,2,0:3:0:0:
14,279,167867,1,2,0:3:0:0:
31,250,167953,1,2,0:3:0:0:
55,227,168040,1,2,0:3:0:0:
84,209,168127,1,2,0:3:0:0:
116,200,168214,1,2,0:3:0:0:
150,199,168300,1,2,0:3:0:0:
183,207,168387,1,2,0:3:0:0:
213,222,168474,6,0,P|275:218|291:96,1,180,2|0,0:0|0:0,0:0:0:0:
99,28,168994,2,0,B|178:39|178:39|194:29|194:29|274:40,1,180,2|0,0:0|0:0,0:0:0:0:
418,87,169514,1,8,0:0:0:0:
237,146,169688,1,0,0:0:0:0:
505,225,169861,6,0,L|493:45,1,180,2|0,0:0|0:0,0:0:0:0:
379,239,170381,2,0,P|412:319|494:350,1,180,2|0,0:0|0:0,0:0:0:0:
351,150,170901,1,8,0:0:0:0:
254,337,171075,1,0,0:0:0:0:
155,123,171248,6,0,L|170:34,1,90,2|0,0:0|0:0,0:0:0:0:
212,214,171595,5,2,0:3:0:0:
172,235,171682,1,2,0:3:0:0:
128,236,171768,1,2,0:3:0:0:
88,217,171855,1,2,0:3:0:0:
61,182,171942,2,0,P|44:140|51:96,1,90,2|0,0:0|0:0,0:0:0:0:
252,13,172289,5,2,0:3:0:0:
285,18,172375,1,2,0:3:0:0:
318,23,172462,1,2,0:3:0:0:
351,29,172549,1,2,0:3:0:0:
385,34,172636,2,0,P|401:75|394:119,1,90,2|0,0:0|0:0,0:0:0:0:
334,317,172982,5,2,0:3:0:0:
327,296,173069,1,2,0:3:0:0:
328,274,173156,1,2,0:3:0:0:
335,253,173242,1,2,0:3:0:0:
349,235,173329,2,0,L|441:250,1,90,2|0,0:0|0:0,0:0:0:0:
227,349,173676,5,2,0:3:0:0:
215,347,173763,1,2,0:3:0:0:
204,346,173849,1,2,0:3:0:0:
193,345,173936,1,2,0:3:0:0:
182,343,174023,6,0,P|152:262|208:195,1,180,2|0,0:0|0:0,0:0:0:0:
346,86,174543,2,0,B|297:128|297:128|184:100,1,180,2|0,0:0|0:0,0:0:0:0:
97,158,175063,1,8,0:0:0:0:
278,36,175237,1,0,0:0:0:0:
23,214,175410,6,0,P|12:127|76:69,1,180,2|0,0:0|0:0,0:0:0:0:
177,273,175930,2,0,L|0:303,1,180,2|0,0:0|0:0,0:0:0:0:
188,177,176451,1,8,0:0:0:0:
261,378,176624,1,0,0:0:0:0:
448,194,176797,6,0,P|397:124|311:128,1,180,2|8,0:0|0:0,0:0:0:0:
373,292,177318,2,0,L|461:275,1,90,2|0,0:0|0:0,0:0:0:0:
256,68,177664,2,0,P|231:105|232:149,1,90,8|0,0:0|0:0,0:0:0:0:
174,331,178011,1,8,0:0:0:0:
0,167,178185,6,0,L|88:150,1,90,2|0,0:0|0:0,0:0:0:0:
262,347,178531,2,0,L|174:331,1,90,8|0,0:0|0:0,0:0:0:0:
256,68,178878,1,2,0:3:0:0:
274,55,178965,1,2,0:3:0:0:
295,47,179052,1,2,0:3:0:0:
317,46,179138,1,2,0:3:0:0:
339,51,179225,1,2,0:3:0:0:
359,61,179312,1,2,0:3:0:0:
375,77,179399,1,2,0:3:0:0:
386,96,179485,1,2,0:3:0:0:
392,118,179572,6,0,L|378:298,1,180,6|0,0:0|0:0,0:0:0:0:
192,376,180092,2,0,P|112:348|115:264,1,180,2|0,0:0|0:0,0:0:0:0:
209,169,180612,1,8,0:0:0:0:
4,278,180786,1,0,0:0:0:0:
142,73,180959,6,0,L|319:102,1,180,2|0,0:0|0:0,0:0:0:0:
429,242,181479,2,0,B|378:257|362:298|362:298|324:269|277:281,1,180,2|0,0:0|0:0,0:0:0:0:
223,366,182000,1,8,0:0:0:0:
332,184,182173,1,0,0:0:0:0:
512,361,182346,6,0,P|468:349|438:317,1,90,2|8,0:0|0:0,0:0:0:0:
438,317,182607,1,8,0:0:0:0:
438,317,182693,1,8,0:0:0:0:
235,78,182867,2,0,L|242:167,1,90,2|2,0:0|0:0,0:0:0:0:
438,317,183214,2,0,L|445:227,1,90,12|0,0:0|0:0,0:0:0:0:
156,295,183560,6,0,P|149:343|163:384,1,90,6|0,0:0|0:0,0:0:0:0:
317,254,183907,1,2,0:0:0:0:
138,141,184081,1,2,0:3:0:0:
104,147,184167,1,2,0:3:0:0:
71,154,184254,1,2,0:3:0:0:
38,160,184341,1,2,0:3:0:0:
5,167,184427,1,2,0:3:0:0:
65,305,184601,1,2,0:0:0:0:
236,56,184774,2,0,L|242:104,1,45,8|0,0:0|0:0,0:0:0:0:
305,200,184948,2,0,L|310:155,1,45,8|0,0:0|0:0,0:0:0:0:
361,22,185121,5,2,0:0:0:0:
209,210,185294,1,2,0:0:0:0:
441,154,185468,1,2,0:3:0:0:
437,131,185555,1,2,0:3:0:0:
434,109,185641,1,2,0:3:0:0:
431,87,185728,1,2,0:3:0:0:
428,64,185815,1,2,0:3:0:0:
316,279,185988,1,2,0:0:0:0:
512,206,186162,2,0,L|499:295,1,90,8|0,0:0|0:0,0:0:0:0:
335,384,186508,5,2,0:0:0:0:
223,183,186682,1,2,0:0:0:0:
94,321,186855,1,2,0:3:0:0:
116,316,186942,1,2,0:3:0:0:
138,312,187029,1,2,0:3:0:0:
160,308,187115,1,2,0:3:0:0:
182,304,187202,1,2,0:3:0:0:
29,245,187375,1,2,0:0:0:0:
210,104,187549,2,0,P|254:105|287:134,1,90,8|0,0:0|0:0,0:0:0:0:
399,351,187896,5,12,0:0:0:0:
264,262,188069,1,0,0:0:0:0:
459,172,188242,2,0,L|445:268,1,90,2|0,0:0|0:0,0:0:0:0:
182,304,188589,5,8,0:0:0:0:
287,134,188763,1,0,0:0:0:0:
350,370,188936,2,0,L|254:356,1,90,2|0,0:0|0:0,0:0:0:0:
150,126,189283,5,8,0:0:0:0:
310,247,189456,1,0,0:0:0:0:
61,319,189630,2,0,L|73:229,1,90,2|0,0:0|0:0,0:0:0:0:
287,134,189977,5,8,0:0:0:0:
168,263,190150,1,0,0:0:0:0:
154,27,190323,2,0,L|243:39,1,90,2|0,0:0|0:0,0:0:0:0:
476,152,190670,6,0,L|465:241,1,90,12|0,0:0|0:0,0:0:0:0:
320,336,191017,2,0,L|310:247,1,90,2|0,0:0|0:0,0:0:0:0:
209,111,191364,1,8,0:0:0:0:
125,299,191537,1,8,0:0:0:0:
15,182,191711,2,0,P|55:162|99:161,1,90,2|0,0:0|0:0,0:0:0:0:
289,227,192057,5,2,0:0:0:0:
57,373,192231,1,8,0:0:0:0:
141,77,192404,5,2,0:0:0:0:
410,229,192578,1,2,0:0:0:0:
170,335,192751,5,2,0:0:0:0:
246,17,192925,1,10,0:3:0:0:
481,269,193098,6,0,P|477:327|421:309,1,135,10|0,0:3|0:0,0:0:0:0:
397,165,193445,6,0,L|498:184,1,90,6|8,0:0|0:0,0:0:0:0:
499,188,193705,1,0,0:0:0:0:
512,194,193792,1,0,0:0:0:0:
331,316,193965,2,0,P|309:276|310:232,1,90,8|2,0:0|0:0,0:0:0:0:
431,97,194312,1,8,0:0:0:0:
494,384,194485,2,0,L|405:367,1,90,0|8,0:0|0:0,0:0:0:0:
135,269,194832,5,2,0:0:0:0:
339,160,195005,1,8,0:0:0:0:
377,381,195179,1,0,0:0:0:0:
220,229,195352,2,0,P|199:189|201:144,1,90,8|2,0:0|0:0,0:0:0:0:
304,47,195699,1,8,0:0:0:0:
417,256,195873,2,0,L|323:274,1,90,0|8,0:0|0:0,0:0:0:0:
166,353,196219,5,2,0:0:0:0:
327,182,196393,1,8,0:0:0:0:
327,182,196479,1,8,0:0:0:0:
327,182,196566,1,8,0:0:0:0:
102,58,196740,2,0,P|76:94|72:138,1,90,8|0,0:0|0:0,0:0:0:0:
237,312,197086,2,0,L|231:267,1,45,10|0,0:3|0:0,0:0:0:0:
159,152,197260,2,0,L|153:196,1,45,10|0,0:3|0:0,0:0:0:0:
85,342,197433,2,0,L|79:297,1,45,10|0,0:3|0:0,0:0:0:0:
0,216,197607,5,8,0:0:0:0:
242,39,197780,2,0,P|268:74|274:118,1,90,8|0,0:0|0:0,0:0:0:0:
164,384,198127,2,0,P|148:320|185:266,1,135,8|0,0:0|0:0,0:0:0:0:
235,247,198474,2,0,L|281:260,1,45,8|0,0:0|0:0,0:0:0:0:
355,349,198647,1,8,0:3:0:0:
377,345,198734,1,8,0:3:0:0:
399,341,198820,1,8,0:3:0:0:
421,338,198907,1,8,0:3:0:0:
443,334,198994,5,2,0:0:0:0:
316,137,199167,1,0,0:0:0:0:
512,251,199341,1,8,0:0:0:0:
273,375,199514,2,0,P|252:335|260:285,1,90,0|2,0:0|0:0,0:0:0:0:
396,87,199861,1,0,0:0:0:0:
155,209,200034,2,0,L|166:298,1,90,8|0,0:0|0:0,0:0:0:0:
294,216,200381,5,2,0:0:0:0:
56,112,200555,1,0,0:0:0:0:
136,331,200728,1,8,0:0:0:0:
182,130,200901,2,0,P|183:85|162:46,1,90,0|2,0:0|0:0,0:0:0:0:
11,264,201248,1,0,0:0:0:0:
215,360,201422,2,0,L|311:341,1,90,8|0,0:0|0:0,0:0:0:0:
395,118,201768,6,0,L|299:137,1,90,2|8,0:0|0:0,0:0:0:0:
306,135,202029,1,8,0:0:0:0:
306,135,202115,1,8,0:0:0:0:
462,301,202289,2,0,P|495:271|503:228,1,90,2|2,0:0|0:0,0:0:0:0:
213,130,202636,1,8,0:0:0:0:
218,174,202722,1,8,0:0:0:0:
223,219,202809,1,8,0:0:0:0:
290,45,202982,1,2,0:0:0:0:
95,322,203156,6,0,L|141:313,1,45,8|0,0:0|0:0,0:0:0:0:
417,204,203329,1,8,0:0:0:0:
417,204,203676,6,0,B|332:190|332:190|292:236,1,135,8|0,0:0|0:0,0:0:0:0:
243,331,204023,2,0,P|240:305|233:288,1,45,8|0,0:0|0:0,0:0:0:0:
133,175,204196,1,2,0:3:0:0:
110,172,204283,1,2,0:3:0:0:
88,176,204370,1,2,0:3:0:0:
69,187,204456,1,2,0:3:0:0:
53,203,204543,6,0,L|62:303,1,90,6|8,0:0|0:0,0:0:0:0:
71,303,204803,1,0,0:0:0:0:
80,313,204890,1,0,0:0:0:0:
202,121,205063,2,0,P|167:93|122:90,1,90,8|2,0:0|0:0,0:0:0:0:
246,249,205410,1,8,0:0:0:0:
26,97,205583,2,0,L|17:197,1,90,0|8,0:0|0:0,0:0:0:0:
184,353,205930,5,2,0:0:0:0:
320,149,206104,1,8,0:0:0:0:
404,291,206277,1,0,0:0:0:0:
202,121,206451,2,0,P|226:72|258:48,1,90,8|2,0:0|0:0,0:0:0:0:
428,187,206797,1,8,0:0:0:0:
246,249,206971,2,0,L|156:236,1,90,0|8,0:0|0:0,0:0:0:0:
437,98,207318,5,2,0:0:0:0:
512,309,207491,1,8,0:0:0:0:
512,309,207578,1,8,0:0:0:0:
512,309,207664,1,8,0:0:0:0:
264,366,207838,2,0,P|265:321|287:282,1,90,8|0,0:0|0:0,0:0:0:0:
428,187,208185,2,0,L|383:180,1,45,10|0,0:3|0:0,0:0:0:0:
245,101,208358,2,0,L|289:94,1,45,10|0,0:3|0:0,0:0:0:0:
456,36,208531,2,0,L|411:29,1,45,10|0,0:3|0:0,0:0:0:0:
208,225,208705,5,8,0:0:0:0:
512,119,208878,1,8,0:0:0:0:
208,225,209225,6,0,B|186:197|149:207|149:207|133:168|97:168,1,135,8|0,0:0|0:0,0:0:0:0:
32,214,209572,2,0,L|36:262,1,45,8|0,0:0|0:0,0:0:0:0:
183,347,209745,1,2,0:3:0:0:
204,352,209832,1,2,0:3:0:0:
227,352,209919,1,2,0:3:0:0:
248,346,210005,1,2,0:3:0:0:
267,334,210092,6,2,B|309:292|309:292|291:172,2,180,2|2|2,0:3|0:3|0:3,0:3:0:0:
267,334,211133,1,2,0:3:0:0:
78,112,211479,6,0,B|108:74|158:89|158:89|204:107|238:66,2,180,2|2|2,0:3|0:3|0:3,0:0:0:0:
78,112,212520,1,2,0:3:0:0:
306,262,212867,6,0,L|296:172,1,90,8|0,0:0|0:0,0:0:0:0:
471,48,213214,2,0,L|461:137,1,90,8|0,0:0|0:0,0:0:0:0:
266,366,213560,1,8,0:0:0:0:
435,328,213734,1,0,0:0:0:0:
213,292,213907,1,8,0:0:0:0:
441,210,214081,1,0,0:0:0:0:
203,89,214254,5,8,0:0:0:0:
340,339,214427,1,8,0:0:0:0:
421,40,214601,5,8,0:0:0:0:
172,272,214774,1,8,0:0:0:0:
0,63,214948,5,8,0:0:0:0:
25,26,215034,1,8,0:0:0:0:
63,3,215121,1,8,0:0:0:0:
108,0,215208,1,8,0:0:0:0:
149,17,215294,2,0,L|139:116,1,90,8|0,0:0|0:0,0:0:0:0:
58,330,215641,6,0,L|48:240,1,90,6|8,0:0|0:0,0:0:0:0:
55,225,215901,1,0,0:0:0:0:
61,209,215988,1,0,0:0:0:0:
287,275,216162,1,8,0:0:0:0:
142,374,216335,1,2,0:0:0:0:
222,147,216508,1,8,0:0:0:0:
409,284,216682,2,0,P|420:327|411:370,1,90,0|8,0:0|0:0,0:0:0:0:
300,112,217029,5,2,0:0:0:0:
512,196,217202,1,8,0:0:0:0:
250,275,217375,1,0,0:0:0:0:
412,51,217549,2,0,L|422:156,1,90,8|2,0:0|0:0,0:0:0:0:
318,355,217896,1,8,0:0:0:0:
170,224,218069,2,0,L|178:134,1,90,0|8,0:0|0:0,0:0:0:0:
342,222,218416,5,2,0:0:0:0:
97,316,218589,1,8,0:0:0:0:
97,316,218676,1,8,0:0:0:0:
97,316,218763,1,8,0:0:0:0:
247,85,218936,2,0,P|291:85|329:107,1,90,8|0,0:0|0:0,0:0:0:0:
512,342,219283,2,0,L|507:297,1,45,10|0,0:3|0:0,0:0:0:0:
425,172,219456,2,0,L|420:216,1,45,10|0,0:3|0:0,0:0:0:0:
339,370,219630,2,0,L|334:325,1,45,10|0,0:3|0:0,0:0:0:0:
215,98,219803,5,8,0:0:0:0:
506,218,219977,2,0,P|515:157|504:123,1,90,8|0,0:0|0:0,0:0:0:0:
215,98,220323,6,0,P|176:152|187:217,1,135,8|0,0:0|0:0,0:0:0:0:
231,241,220670,2,0,P|249:221|250:188,1,45,8|0,0:0|0:0,0:0:0:0:
109,120,220844,1,2,0:3:0:0:
86,116,220930,1,2,0:3:0:0:
64,119,221017,1,2,0:3:0:0:
44,129,221104,1,2,0:3:0:0:
28,145,221190,5,2,0:0:0:0:
259,313,221364,1,0,0:0:0:0:
81,367,221537,1,8,0:0:0:0:
252,203,221711,2,0,L|347:222,1,90,0|2,0:0|0:0,0:0:0:0:
350,369,222057,1,0,0:0:0:0:
161,227,222231,2,0,P|156:182|177:144,1,90,8|0,0:0|0:0,0:0:0:0:
395,65,222578,5,2,0:0:0:0:
252,203,222751,1,0,0:0:0:0:
232,22,222925,1,8,0:0:0:0:
429,144,223098,1,0,0:0:0:0:
211,291,223271,1,2,0:0:0:0:
463,223,223445,1,0,0:0:0:0:
191,110,223618,2,0,L|102:126,1,90,8|0,0:0|0:0,0:0:0:0:
311,310,223965,6,0,L|399:293,1,90,2|8,0:0|0:0,0:0:0:0:
399,293,224225,1,8,0:0:0:0:
399,293,224312,1,8,0:0:0:0:
141,382,224485,2,0,P|126:339|132:295,1,90,2|2,0:0|0:0,0:0:0:0:
295,113,224832,1,8,0:0:0:0:
338,122,224919,1,8,0:0:0:0:
382,132,225005,1,8,0:0:0:0:
216,201,225179,1,2,0:0:0:0:
465,31,225352,6,0,L|460:75,1,45,8|0,0:0|0:0,0:0:0:0:
360,332,225526,1,8,0:0:0:0:
360,332,225873,6,0,P|319:281|253:281,1,135,8|0,0:0|0:0,0:0:0:0:
169,326,226219,2,0,L|175:281,1,45,8|0,0:0|0:0,0:0:0:0:
74,166,226393,1,2,0:3:0:0:
74,166,226479,1,2,0:3:0:0:
74,166,226566,2,0,L|80:210,1,45,2|2,0:3|0:3,0:0:0:0:
30,360,226740,5,2,0:0:0:0:
240,208,226913,1,8,0:0:0:0:
0,135,227086,1,0,0:0:0:0:
169,326,227260,1,8,0:0:0:0:
112,68,227433,1,2,0:0:0:0:
39,276,227607,1,8,0:0:0:0:
263,129,227780,2,0,L|253:39,1,90,2|8,0:0|0:0,0:0:0:0:
253,39,228040,1,8,0:0:0:0:
253,39,228127,5,2,0:0:0:0:
408,218,228300,1,8,0:0:0:0:
180,305,228474,1,0,0:0:0:0:
347,95,228647,1,8,0:0:0:0:
397,373,228820,1,2,0:0:0:0:
229,207,228994,1,8,0:0:0:0:
507,135,229167,2,0,L|495:232,1,90,2|8,0:0|0:0,0:0:0:0:
495,224,229427,1,8,0:0:0:0:
495,224,229514,5,2,0:0:0:0:
266,339,229688,1,8,0:0:0:0:
266,339,229774,1,8,0:0:0:0:
266,339,229861,1,8,0:0:0:0:
316,87,230034,2,0,P|359:61|406:59,1,90,2|2,0:0|0:0,0:0:0:0:
333,280,230381,2,0,L|327:235,1,45,10|0,0:3|0:0,0:0:0:0:
241,132,230555,2,0,L|235:176,1,45,10|0,0:3|0:0,0:0:0:0:
174,321,230728,2,0,L|168:276,1,45,10|0,0:3|0:0,0:0:0:0:
84,96,230901,5,8,0:0:0:0:
420,228,231075,1,8,0:0:0:0:
84,95,231422,6,0,P|42:145|47:211,1,135,8|0,0:0|0:0,0:0:0:0:
110,277,231768,2,0,L|154:268,1,45,8|0,0:0|0:0,0:0:0:0:
316,343,231942,1,2,0:3:0:0:
326,323,232029,1,2,0:3:0:0:
331,301,232115,1,2,0:3:0:0:
331,278,232202,1,2,0:3:0:0:
325,257,232289,6,0,L|230:245,1,90,2|0,0:0|0:0,0:0:0:0:
426,104,232636,2,0,L|414:199,1,90,8|0,0:0|0:0,0:0:0:0:
273,3,232982,2,0,L|368:15,1,90,2|0,0:0|0:0,0:0:0:0:
172,156,233329,2,0,L|184:61,1,90,8|0,0:0|0:0,0:0:0:0:
165,310,233676,6,0,P|123:295|99:257,1,90,2|0,0:0|0:0,0:0:0:0:
335,232,234023,2,0,P|320:273|282:297,1,90,8|0,0:0|0:0,0:0:0:0:
257,62,234370,2,0,P|298:76|322:114,1,90,2|0,0:0|0:0,0:0:0:0:
87,140,234716,2,0,P|101:98|139:74,1,90,8|0,0:0|0:0,0:0:0:0:
355,195,235063,5,2,0:0:0:0:
125,289,235237,1,8,0:0:0:0:
257,62,235410,5,2,0:0:0:0:
349,337,235583,1,8,0:0:0:0:
170,149,235757,5,2,0:0:0:0:
466,242,235930,1,8,0:0:0:0:
202,339,236104,5,2,0:0:0:0:
347,59,236277,1,8,0:0:0:0:
512,315,236451,5,2,0:3:0:0:
469,328,236537,1,2,0:3:0:0:
426,317,236624,1,2,0:3:0:0:
395,286,236711,1,2,0:3:0:0:
384,243,236797,1,2,0:3:0:0:
367,202,236884,1,2,0:3:0:0:
331,176,236971,1,2,0:3:0:0:
286,172,237057,1,2,0:3:0:0:
246,190,237144,2,0,L|241:241,3,45
152,303,237491,2,0,L|146:252,3,45
95,163,237838,6,0,B|77:193|36:196|36:196|-3:134|42:59|127:73|156:119,1,270.000010299683,2|0,0:3|0:0,0:0:0:0:
135,98,238878,1,2,0:3:0:0:
261,311,239225,6,0,B|328:302|316:206|316:206|390:272|447:224,1,270.000010299683,2|0,0:3|0:0,0:0:0:0:
439,231,240266,1,2,0:3:0:0:
218,52,240612,6,0,L|128:64,1,90,6|0,0:0|0:0,0:0:0:0:
22,200,240959,2,0,L|111:212,1,90,2|0,0:0|0:0,0:0:0:0:
318,146,241306,1,2,0:0:0:0:
151,318,241479,1,8,0:0:0:0:
388,220,241653,1,2,0:0:0:0:
195,130,241826,1,8,0:0:0:0:
435,357,242000,6,0,P|455:317|455:272,1,90,6|0,0:0|0:0,0:0:0:0:
338,61,242346,2,0,P|317:101|318:146,1,90,2|0,0:0|0:0,0:0:0:0:
232,279,242693,1,2,0:0:0:0:
187,183,242867,1,0,0:0:0:0:
126,339,243040,1,2,0:0:0:0:
75,145,243214,1,0,0:0:0:0:
6,276,243387,6,0,L|106:257,1,90,6|0,0:0|0:0,0:0:0:0:
242,90,243734,2,0,L|142:71,1,90,2|0,0:0|0:0,0:0:0:0:
201,305,244081,1,2,0:0:0:0:
441,173,244254,1,8,0:0:0:0:
458,367,244427,1,2,0:0:0:0:
329,107,244601,1,8,0:0:0:0:
201,305,244774,6,0,P|232:336|276:344,1,90,6|0,0:0|0:0,0:0:0:0:
512,132,245121,2,0,P|480:100|436:92,1,90,2|0,0:0|0:0,0:0:0:0:
267,261,245468,2,0,L|258:168,1,90,2|0,0:0|0:0,0:0:0:0:
466,277,245815,2,0,L|457:366,1,90,2|0,0:0|0:0,0:0:0:0:
329,107,246162,6,0,L|426:93,1,90,6|0,0:0|0:0,0:0:0:0:
201,305,246508,2,0,L|104:291,1,90,2|0,0:0|0:0,0:0:0:0:
65,83,246855,1,2,0:0:0:0:
290,205,247029,1,8,0:0:0:0:
122,370,247202,1,2,0:0:0:0:
215,120,247375,1,8,0:0:0:0:
434,285,247549,6,0,P|398:311|353:313,1,90,6|0,0:0|0:0,0:0:0:0:
267,60,247896,2,0,P|302:33|347:31,1,90,2|0,0:0|0:0,0:0:0:0:
500,178,248242,1,2,0:0:0:0:
315,164,248416,1,0,0:0:0:0:
472,72,248589,1,2,0:0:0:0:
375,237,248763,1,0,0:0:0:0:
152,89,248936,6,0,L|162:0,1,90,6|0,0:0|0:0,0:0:0:0:
286,246,249283,2,0,L|275:335,1,90,2|0,0:0|0:0,0:0:0:0:
10,204,249630,1,2,0:0:0:0:
315,164,249803,1,8,0:0:0:0:
27,318,249977,1,2,0:0:0:0:
240,96,250150,1,8,0:0:0:0:
140,381,250323,6,0,P|117:342|119:298,1,90,6|0,0:0|0:0,0:0:0:0:
377,105,250670,2,0,P|399:143|397:187,1,90,2|0,0:0|0:0,0:0:0:0:
206,238,251017,1,2,0:0:0:0:
395,355,251190,1,0,0:0:0:0:
259,380,251364,1,2,0:0:0:0:
421,273,251537,1,0,0:0:0:0:
178,160,251711,1,2,0:0:0:0:
256,192,251797,12,0,255612,0:0:0:0:
256,192,255699,12,0,261422,0:0:0:0:
