osu file format v14

[General]
AudioFilename: Horie Yui - Asymmetry.mp3
AudioLeadIn: 0
PreviewTime: 46577
Countdown: 0
SampleSet: Soft
StackLeniency: 0.7
Mode: 2
LetterboxInBreaks: 0
WidescreenStoryboard: 1

[Editor]
Bookmarks: 6740,35180
DistanceSpacing: 1
BeatDivisor: 4
GridSize: 8
TimelineZoom: 2.1

[Metadata]
Title:Asymmetry (TV Size)
TitleUnicode:アシンメトリー
Artist:Horie Yui
ArtistUnicode:堀江由衣
Creator:chickenbible
Version:Salad
Source:K RETURN OF KINGS
Tags:櫛名 アンナ Kushina Anna atsuko KATSU op opening Regraz Ascendance idu5t idust du5t dust mafumafu
BeatmapID:2018665
BeatmapSetID:896631

[Difficulty]
HPDrainRate:4
CircleSize:3
OverallDifficulty:7
ApproachRate:7
SliderMultiplier:1.6
SliderTickRate:1

[Events]
//Background and Video events
0,0,"anna kushina.jpg",0,0
//Break Periods
//Storyboard Layer 0 (Background)
//Storyboard Layer 1 (Fail)
//Storyboard Layer 2 (Pass)
//Storyboard Layer 3 (Foreground)
//Storyboard Layer 4 (Overlay)
//Storyboard Sound Samples

[TimingPoints]
2184,346.820809248555,4,2,5,70,1,0
7646,-100,4,2,5,70,0,0
7733,-100,4,2,5,70,0,0
9120,-100,4,2,5,55,0,0
13542,-100,4,2,5,55,0,0
13629,-100,4,2,5,55,0,0
13889,-100,4,2,5,55,0,0
13975,-100,4,2,5,55,0,0
19438,-100,4,2,5,55,0,0
19525,-100,4,2,5,55,0,0
24033,-100,4,2,5,35,0,0
24207,-100,4,2,5,55,0,0
24467,-100,4,2,5,55,0,0
24553,-100,4,2,5,55,0,0
30189,-100,4,2,5,55,0,0
30276,-100,4,2,5,55,0,0
31316,-100,4,2,5,65,0,0
36866,-100,4,2,5,65,0,0
42415,-100,4,2,5,75,0,0
43802,-100,4,2,5,55,0,0
44496,-100,4,2,5,35,0,0
45189,-100,4,2,5,55,0,0
46056,-100,4,2,5,75,0,0
46577,-100,4,2,5,80,0,1
52299,-100,4,2,5,80,0,1
53686,-100,4,2,5,80,0,1
57328,-100,4,2,5,80,0,0
57675,-100,4,2,5,80,0,1
63224,-100,4,2,5,70,0,0
65999,-100,4,2,5,80,0,0
68773,-100,4,2,5,80,0,1
79525,-100,4,2,5,80,0,0
79871,-100,4,2,5,80,0,1
85420,-100,4,2,5,55,0,0
88195,-100,4,2,5,30,0,0
89236,-100,4,2,5,20,0,0
89582,-100,4,2,5,5,0,0

[Colours]
Combo1 : 50,86,231
Combo2 : 187,38,17
Combo3 : 199,205,202

[HitObjects]
245,219,2184,6,0,L|74:225,1,160,4|8,0:0|0:0,0:0:0:0:
260,114,2877,2,0,L|268:224,1,80,2|0,0:0|0:0,0:0:0:0:
180,315,3224,2,0,L|166:216,1,80,8|0,0:0|0:0,0:0:0:0:
354,196,3571,6,0,P|342:131|240:128,1,160,2|8,0:0|0:0,0:0:0:0:
90,285,4265,2,0,P|34:244|104:188,1,160,2|8,0:0|0:0,0:0:0:0:
333,144,4958,6,0,L|346:253,1,80,4|0,0:0|0:0,0:0:0:0:
243,319,5305,2,0,L|235:213,1,80,8|0,0:0|0:0,0:0:0:0:
333,144,5652,2,0,L|242:151,2,80,2|0|8,0:0|0:0|0:0,0:0:0:0:
418,96,6172,1,0,0:0:0:0:
228,310,6346,6,0,L|219:227,1,80,2|2,0:1|0:1,0:0:0:0:
304,165,6692,1,8,0:0:0:0:
473,162,7039,2,0,L|477:270,1,80,8|2,0:0|0:1,0:0:0:0:
392,211,7386,2,0,L|286:215,1,80,8|0,0:0|0:0,0:0:0:0:
111,252,7733,5,0,0:0:0:0:
319,164,9120,6,0,L|228:171,2,80,6|0|2,0:1|0:0|0:0,0:0:0:0:
409,170,9640,1,2,0:1:0:0:
248,129,9987,2,0,L|342:126,2,80,2|2|0,0:1|0:0|0:0,0:0:0:0:
151,257,10507,6,0,L|144:161,1,80,2|2,0:1|0:1,0:0:0:0:
407,282,11028,2,0,P|439:234|352:170,1,160,2|0,0:1|0:0,0:0:0:0:
292,196,11548,2,0,L|203:196,1,80,2|2,0:0|0:1,0:0:0:0:
311,200,11895,6,0,L|409:200,1,80,2|2,0:1|0:1,0:0:0:0:
314,123,12242,1,2,0:0:0:0:
137,301,12415,2,0,P|69:217|72:162,2,160,2|2|2,0:1|0:1|0:1,0:0:0:0:
319,253,13282,6,0,L|418:242,1,80,4|0,0:3|0:0,0:0:0:0:
302,175,13629,2,0,L|208:175,1,80,2|0,0:0|0:0,0:0:0:0:
413,147,13976,2,0,L|502:143,2,80,2|2|8,0:3|0:1|0:0,0:0:0:0:
159,294,14669,6,0,L|262:289,2,80,4|0|2,0:3|0:0|0:0,0:0:0:0:
72,260,15190,1,2,0:1:0:0:
246,162,15536,2,0,L|160:165,2,80,0|2|0,0:0|0:0|0:0,0:0:0:0:
337,226,16057,6,0,L|342:138,1,80,4|2,0:3|0:1,0:0:0:0:
96,300,16577,2,0,P|58:257|125:192,1,160,8|0,0:3|0:0,0:0:0:0:
202,194,17097,2,0,L|286:194,1,80,2|0,0:0|0:0,0:0:0:0:
479,111,17444,6,0,L|486:210,1,80,4|0,0:3|0:0,0:0:0:0:
399,195,17791,1,2,0:0:0:0:
206,251,17964,1,2,0:3:0:0:
66,163,18311,2,0,L|156:164,2,80,0|2|0,0:0|0:0|0:0,0:0:0:0:
259,106,18831,6,0,L|262:211,1,80,8|8,0:3|0:3,0:0:0:0:
175,213,19178,1,2,0:1:0:0:
9,304,19525,2,0,L|1:208,1,80,8|2,0:3|0:1,0:0:0:0:
80,178,19872,2,0,L|166:170,1,80,2|2,0:1|0:0,0:0:0:0:
353,149,20218,6,0,L|368:252,1,80,4|0,0:1|0:0,0:0:0:0:
270,255,20565,1,2,0:0:0:0:
270,255,20739,1,0,0:0:0:0:
110,166,21085,2,0,L|214:163,2,80,0|2|2,0:0|0:0|0:1,0:0:0:0:
301,130,21606,6,0,L|315:237,1,80,4|2,0:3|0:0,0:0:0:0:
222,265,21953,2,0,L|136:266,1,80,0|0,0:0|0:0,0:0:0:0:
316,161,22473,2,0,L|411:163,2,80,2|2|2,0:1|0:0|0:1,0:0:0:0:
124,291,22993,6,0,L|116:184,1,80,2|2,0:1|0:1,0:0:0:0:
202,160,23340,1,2,0:0:0:0:
403,231,23513,1,2,0:3:0:0:
403,231,23860,2,0,L|301:230,1,80,0|8,0:0|0:0,0:0:0:0:
133,273,24207,5,8,0:3:0:0:
286,175,24554,2,0,L|386:175,2,80,2|2|2,0:1|0:0|0:1,0:0:0:0:
196,286,25074,2,0,L|185:200,1,80,8|2,0:3|0:1,0:0:0:0:
289,103,25421,2,0,L|298:185,1,80,2|0,0:0|0:0,0:0:0:0:
102,222,25768,6,0,L|205:224,1,80,4|0,0:1|0:0,0:0:0:0:
261,167,26114,1,0,0:0:0:0:
261,167,26288,1,2,0:3:0:0:
429,119,26635,2,0,L|511:119,2,80,0|2|0,0:0|0:0|0:0,0:0:0:0:
230,240,27155,6,0,L|217:152,1,80,4|2,0:3|0:1,0:0:0:0:
462,252,27675,2,0,P|461:192|366:147,1,160,8|0,0:3|0:0,0:0:0:0:
296,173,28195,2,0,L|206:173,1,80,2|2,0:0|0:1,0:0:0:0:
20,317,28542,6,0,L|18:222,1,80,2|2,0:1|0:1,0:0:0:0:
103,196,28889,2,0,L|195:191,1,80,2|0,0:0|0:0,0:0:0:0:
268,153,29236,2,0,L|274:253,1,80,2|0,0:0|0:0,0:0:0:0:
187,278,29583,1,2,0:0:0:0:
438,183,29929,6,0,L|321:187,1,80,6|0,0:1|0:0,0:0:0:0:
170,279,30276,1,2,0:0:0:0:
257,121,30450,2,0,P|255:197|190:239,1,160,8|8,0:0|0:0,0:0:0:0:
123,150,30970,2,0,L|203:150,1,80,2|2,0:0|0:1,0:0:0:0:
398,145,31317,5,4,0:0:0:0:
155,264,31837,2,0,L|264:266,2,80,2|0|0,0:1|0:0|0:0,0:0:0:0:
235,182,32357,1,8,0:0:0:0:
314,134,32531,1,2,0:1:0:0:
122,169,32704,5,2,0:1:0:0:
329,249,33224,2,0,L|420:249,2,80,2|0|0,0:1|0:0|0:0,0:0:0:0:
246,175,33744,1,8,0:0:0:0:
330,122,33918,1,2,0:1:0:0:
148,227,34091,5,2,0:1:0:0:
375,234,34611,2,0,L|266:236,2,80,2|0|0,0:1|0:0|0:0,0:0:0:0:
193,131,35132,1,8,0:0:0:0:
193,131,35305,1,2,0:1:0:0:
372,179,35479,5,2,0:0:0:0:
457,259,35652,2,0,P|447:184|374:164,1,160,2|0,0:0|0:0,0:0:0:0:
286,139,36172,2,0,L|206:139,1,80,0|0,0:0|0:0,0:0:0:0:
305,216,36519,2,0,L|312:133,1,80,8|0,0:0|0:0,0:0:0:0:
137,207,36866,5,4,0:1:0:0:
374,284,37386,2,0,L|292:286,3,80,2|0|0|8,0:1|0:0|0:0|0:0,0:0:0:0:
225,176,38080,1,2,0:1:0:0:
47,210,38253,6,0,P|50:144|151:118,1,160,2|8,0:1|0:0,0:0:0:0:
218,265,38773,2,0,L|47:262,1,160,2|2,0:1|0:1,0:0:0:0:
146,183,39294,1,8,0:0:0:0:
332,232,39467,1,2,0:1:0:0:
244,169,39640,6,0,L|154:170,1,80,4|0,0:1|0:0,0:0:0:0:
81,100,39987,1,8,0:0:0:0:
336,200,40334,2,0,L|441:198,2,80,0|0|10,0:0|0:0|0:0,0:0:0:0:
143,246,40854,6,0,P|133:179|218:145,1,160,2|0,0:1|0:0,0:0:0:0:
296,262,41374,2,0,L|455:262,2,160,8|0|8,0:0|0:0|0:0,0:0:0:0:
142,151,42415,5,2,0:1:0:0:
224,106,42588,1,2,0:1:0:0:
142,151,42762,1,8,0:0:0:0:
63,188,42935,1,2,0:1:0:0:
252,249,43109,1,2,0:1:0:0:
252,249,43282,1,2,0:1:0:0:
63,188,43455,5,8,0:0:0:0:
256,192,43802,12,2,45190,0:0:0:0:
150,175,46577,6,0,L|338:174,1,160,4|8,0:0|0:0,0:0:0:0:
130,295,47097,2,0,L|125:202,1,80,0|2,0:0|0:1,0:0:0:0:
216,152,47444,1,0,0:0:0:0:
307,182,47617,2,0,L|402:181,1,80,8|2,0:0|0:1,0:0:0:0:
219,233,47964,6,0,P|212:177|309:125,1,160,4|8,0:3|0:0,0:0:0:0:
472,213,48484,2,0,L|376:212,1,80,0|2,0:0|0:1,0:0:0:0:
305,214,48831,2,0,L|193:216,2,80,0|8|2,0:0|0:0|0:1,0:0:0:0:
486,132,49351,6,0,L|493:221,1,80,4|0,0:3|0:0,0:0:0:0:
410,246,49698,2,0,L|304:248,1,80,8|0,0:0|0:0,0:0:0:0:
27,188,50218,2,0,L|-1:94,1,80,0|8,0:0|0:0,0:0:0:0:
82,85,50565,1,2,0:0:0:0:
266,214,50739,6,0,L|358:215,1,80,4|2,0:1|0:1,0:0:0:0:
95,271,51259,2,0,P|96:211|197:180,1,160,2|0,0:1|0:0,0:0:0:0:
268,244,51779,2,0,L|180:244,1,80,8|2,0:0|0:1,0:0:0:0:
391,163,52126,6,0,L|486:161,2,80,4|0|8,0:3|0:0|0:0,0:0:0:0:
199,279,52646,2,0,L|201:185,1,80,0|2,0:0|0:1,0:0:0:0:
271,162,52993,1,0,0:0:0:0:
356,157,53166,2,0,L|445:156,1,80,8|2,0:0|0:1,0:0:0:0:
239,231,53513,6,0,L|142:231,2,80,4|0|8,0:3|0:0|0:0,0:0:0:0:
429,266,54033,2,0,P|427:210|331:167,1,160
260,187,54554,2,0,L|170:185,1,80,8|2,0:0|0:1,0:0:0:0:
376,297,54901,6,0,P|426:261|364:199,1,160,4|0,0:1|0:0,0:0:0:0:
301,198,55421,2,0,L|199:193,2,80,2|2|0,0:3|0:1|0:0,0:0:0:0:
392,209,55941,2,0,L|391:117,1,80,8|0,0:0|0:0,0:0:0:0:
198,188,56288,6,0,L|286:188,1,80,4|0,0:0|0:0,0:0:0:0:
31,294,56808,2,0,P|27:236|139:193,1,160,4|0,0:0|0:0,0:0:0:0:
189,199,57328,2,0,L|285:198,1,80,8|2,0:0|0:1,0:0:0:0:
467,174,57675,6,0,L|356:176,1,80,4|0,0:1|0:0,0:0:0:0:
307,182,58022,1,8,0:0:0:0:
116,264,58195,2,0,L|298:262,1,160,0|0,0:0|0:0,0:0:0:0:
179,172,58716,2,0,L|90:171,1,80,8|2,0:0|0:1,0:0:0:0:
271,173,59062,6,0,L|363:175,2,80,4|0|8,0:3|0:0|0:0,0:0:0:0:
81,310,59583,2,0,L|73:223,1,80,0|2,0:0|0:1,0:0:0:0:
157,175,59929,1,0,0:0:0:0:
246,158,60103,2,0,L|343:159,1,80,8|2,0:0|0:1,0:0:0:0:
137,246,60450,6,0,L|237:246,1,80,4|0,0:3|0:0,0:0:0:0:
444,162,60970,2,0,L|448:250,1,80,0|2,0:0|0:1,0:0:0:0:
258,279,61317,2,0,L|178:279,2,80,0|8|2,0:0|0:0|0:1,0:0:0:0:
439,220,61837,6,0,L|446:123,1,80,4|0,0:1|0:0,0:0:0:0:
212,320,62357,2,0,P|219:255|313:225,1,160,2|0,0:1|0:0,0:0:0:0:
221,180,62877,2,0,L|134:186,1,80,8|0,0:0|0:0,0:0:0:0:
342,285,63224,6,0,P|364:226|301:159,1,160,6|2,0:1|0:1,0:0:0:0:
124,201,63918,2,0,L|297:202,1,160,2|2,0:0|0:1,0:0:0:0:
124,296,64611,6,0,P|77:255|154:191,1,160,4|2,0:3|0:1,0:0:0:0:
303,180,65305,2,0,L|134:176,1,160,2|2,0:0|0:1,0:0:0:0:
422,298,65999,6,0,L|425:212,1,80,4|0,0:1|0:0,0:0:0:0:
343,192,66346,1,8,0:0:0:0:
153,291,66692,2,0,L|150:205,1,80,2|0,0:1|0:0,0:0:0:0:
232,185,67039,2,0,L|316:183,1,80,8|2,0:0|0:1,0:0:0:0:
126,122,67386,6,0,L|10:123,3,80,4|0|8|0,0:3|0:0|0:0|0:0,0:0:0:0:
237,248,68080,2,0,L|227:154,1,80,2|0,0:1|0:0,0:0:0:0:
138,149,68427,2,0,L|148:235,1,80,8|2,0:0|0:1,0:0:0:0:
341,178,68773,6,0,L|169:176,1,160,4|8,0:1|0:0,0:0:0:0:
377,289,69294,2,0,L|379:204,1,80,0|2,0:0|0:1,0:0:0:0:
304,192,69640,1,0,0:0:0:0:
223,284,69814,2,0,L|217:200,1,80,8|2,0:0|0:1,0:0:0:0:
411,122,70161,6,0,L|317:121,1,80,4|0,0:3|0:0,0:0:0:0:
246,126,70507,1,8,0:0:0:0:
55,288,70681,2,0,L|52:197,1,80,0|2,0:0|0:1,0:0:0:0:
132,178,71028,1,0,0:0:0:0:
216,174,71201,2,0,L|321:177,1,80,8|2,0:0|0:1,0:0:0:0:
101,312,71548,6,0,L|15:314,2,80,4|0|8,0:3|0:0|0:0,0:0:0:0:
187,272,72068,1,0,0:0:0:0:
478,196,72415,2,0,L|506:102,1,80,0|8,0:0|0:0,0:0:0:0:
423,93,72762,1,2,0:0:0:0:
232,192,72935,6,0,L|121:193,1,80,4|2,0:1|0:1,0:0:0:0:
397,303,73455,2,0,P|396:244|297:209,1,160,2|0,0:1|0:0,0:0:0:0:
222,201,73976,2,0,L|310:199,1,80,8|2,0:0|0:1,0:0:0:0:
108,110,74322,6,0,L|2:111,2,80,4|0|8,0:3|0:0|0:0,0:0:0:0:
306,197,74843,2,0,L|299:96,1,80,0|2,0:0|0:1,0:0:0:0:
219,126,75190,1,0,0:0:0:0:
306,197,75363,2,0,L|412:192,1,80,8|2,0:0|0:1,0:0:0:0:
187,269,75710,6,0,L|90:273,2,80,4|0|8,0:3|0:0|0:0,0:0:0:0:
381,254,76230,2,0,P|375:195|268:167,1,160
216,196,76750,2,0,L|116:195,1,80,8|2,0:0|0:1,0:0:0:0:
331,309,77097,6,0,P|372:282|325:200,1,160,4|0,0:1|0:0,0:0:0:0:
158,299,77791,2,0,L|143:193,1,80,2|0,0:1|0:0,0:0:0:0:
244,132,78138,2,0,L|255:225,1,80,8|2,0:0|0:1,0:0:0:0:
57,212,78484,6,0,L|158:210,1,80,4|0,0:0|0:0,0:0:0:0:
393,296,79005,2,0,P|400:242|294:192,1,160,4|0,0:0|0:0,0:0:0:0:
234,203,79525,2,0,L|146:207,1,80,8|2,0:0|0:1,0:0:0:0:
349,147,79872,6,0,L|448:149,2,80,4|0|8,0:1|0:0|0:0,0:0:0:0:
158,314,80392,2,0,L|241:309,1,80,0|2,0:0|0:1,0:0:0:0:
318,231,80739,1,0,0:0:0:0:
234,192,80912,2,0,L|138:196,1,80,8|2,0:0|0:1,0:0:0:0:
349,130,81259,6,0,L|440:132,2,80,4|0|8,0:1|0:0|0:0,0:0:0:0:
165,314,81779,2,0,L|156:222,1,80,0|2,0:0|0:1,0:0:0:0:
232,184,82126,1,0,0:0:0:0:
316,153,82299,2,0,L|420:156,1,80,8|2,0:0|0:1,0:0:0:0:
203,253,82646,6,0,L|101:254,2,80,4|0|8,0:1|0:0|0:0,0:0:0:0:
395,171,83166,2,0,L|231:175,1,160,0|0,0:0|0:0,0:0:0:0:
318,97,83687,2,0,L|332:208,1,80,8|2,0:0|0:1,0:0:0:0:
132,241,84033,6,0,L|221:240,1,80,4|0,0:1|0:0,0:0:0:0:
463,268,84554,2,0,P|468:194|367:184,1,160,0|0,0:0|0:0,0:0:0:0:
317,205,85074,2,0,L|220:208,1,80,8|0,0:0|0:0,0:0:0:0:
40,196,85421,6,0,L|232:192,1,160,4|0,0:0|0:0,0:0:0:0:
372,273,86114,2,0,P|410:230|344:169,1,160,2|0,0:0|0:0,0:0:0:0:
189,195,86808,6,0,L|362:198,1,160,4|0,0:3|0:0,0:0:0:0:
165,287,87502,2,0,P|120:253|189:190,1,160,2|0,0:0|0:0,0:0:0:0:
256,192,88195,12,0,89583,0:0:0:0:
