osu file format v14

[General]
AudioFilename: Horie Yui - Asymmetry.mp3
AudioLeadIn: 0
PreviewTime: 46577
Countdown: 0
SampleSet: Soft
StackLeniency: 0.7
Mode: 2
LetterboxInBreaks: 0
WidescreenStoryboard: 1

[Editor]
Bookmarks: 6740,35180
DistanceSpacing: 1
BeatDivisor: 4
GridSize: 8
TimelineZoom: 2.1

[Metadata]
Title:Asymmetry (TV Size)
TitleUnicode:アシンメトリー
Artist:Horie Yui
ArtistUnicode:堀江由衣
Creator:chickenbible
Version:Rain
Source:K RETURN OF KINGS
Tags:櫛名 アンナ Kushina Anna atsuko KATSU op opening Regraz Ascendance idu5t idust du5t dust mafumafu
BeatmapID:1873239
BeatmapSetID:896631

[Difficulty]
HPDrainRate:6
CircleSize:4.2
OverallDifficulty:9
ApproachRate:9
SliderMultiplier:1.8
SliderTickRate:2

[Events]
//Background and Video events
0,0,"anna kushina.jpg",0,0
//Break Periods
//Storyboard Layer 0 (Background)
//Storyboard Layer 1 (Fail)
//Storyboard Layer 2 (Pass)
//Storyboard Layer 3 (Foreground)
//Storyboard Layer 4 (Overlay)
//Storyboard Sound Samples

[TimingPoints]
2184,346.820809248555,4,2,5,70,1,0
7646,-100,4,2,5,70,0,0
7733,-100,4,2,5,70,0,0
9120,-100,4,2,5,55,0,0
13542,-100,4,2,5,55,0,0
13629,-100,4,2,5,55,0,0
13889,-100,4,2,5,55,0,0
13975,-100,4,2,5,55,0,0
19438,-100,4,2,5,55,0,0
19525,-100,4,2,5,55,0,0
24033,-100,4,2,5,35,0,0
24207,-100,4,2,5,55,0,0
24467,-100,4,2,5,55,0,0
24553,-100,4,2,5,55,0,0
30189,-100,4,2,5,55,0,0
30276,-100,4,2,5,55,0,0
31316,-100,4,2,5,65,0,0
36866,-100,4,2,5,65,0,0
42415,-100,4,2,5,75,0,0
43802,-100,4,2,5,55,0,0
44496,-100,4,2,5,35,0,0
45189,-100,4,2,5,55,0,0
46056,-100,4,2,5,75,0,0
46577,-100,4,2,5,80,0,1
52299,-100,4,2,5,80,0,1
53686,-100,4,2,5,80,0,1
57328,-100,4,2,5,80,0,0
57675,-100,4,2,5,80,0,1
63224,-100,4,2,5,70,0,0
65999,-100,4,2,5,80,0,0
68773,-100,4,2,5,80,0,1
79525,-100,4,2,5,80,0,0
79871,-100,4,2,5,80,0,1
85420,-100,4,2,5,55,0,0
88195,-100,4,2,5,30,0,0
89236,-100,4,2,5,20,0,0
89582,-100,4,2,5,5,0,0

[Colours]
Combo1 : 50,86,231
Combo2 : 187,38,17
Combo3 : 199,205,202

[HitObjects]
252,149,2184,6,0,L|139:165,1,90,4|0,0:0|0:0,0:0:0:0:
248,68,2530,2,0,L|347:59,1,90,8|0,0:0|0:0,0:0:0:0:
201,85,2877,1,2,0:0:0:0:
107,129,3051,1,0,0:0:0:0:
99,231,3224,1,8,0:0:0:0:
184,290,3398,1,0,0:0:0:0:
434,113,3571,6,0,L|330:120,1,90,2|0,0:0|0:0,0:0:0:0:
248,123,3918,2,0,L|363:107,1,90,8|0,0:0|0:0,0:0:0:0:
98,258,4265,2,0,L|92:127,1,90,2|0,0:0|0:0,0:0:0:0:
198,137,4611,2,0,L|331:126,1,90,8|0,0:0|0:0,0:0:0:0:
50,75,4958,6,0,L|178:71,1,90,4|0,0:0|0:0,0:0:0:0:
244,66,5305,2,0,L|246:198,1,90,8|0,0:0|0:0,0:0:0:0:
148,138,5652,2,0,L|272:127,1,90,2|0,0:0|0:0,0:0:0:0:
342,62,5999,2,0,L|350:173,1,90,8|0,0:0|0:0,0:0:0:0:
107,222,6346,6,0,L|210:216,2,90,2|2|8,0:1|0:1|0:0,0:0:0:0:
7,157,6866,1,0,0:0:0:0:
248,95,7039,2,0,L|376:83,1,90,8|2,0:0|0:1,0:0:0:0:
193,199,7386,2,0,L|83:218,1,90,8|0,0:0|0:0,0:0:0:0:
343,94,7733,5,0,0:0:0:0:
243,105,7906,2,0,L|361:89,2,90,2|0|2,0:0|0:0|0:0,0:0:0:0:
480,110,8427,1,2,0:3:0:0:
233,63,8600,2,0,P|165:80|154:210,1,180,2|0,0:0|0:0,0:0:0:0:
389,148,9120,6,0,L|274:153,1,90,6|0,0:1|0:0,0:0:0:0:
403,54,9467,1,2,0:0:0:0:
170,65,9640,2,0,P|109:98|181:164,1,180,2|2,0:1|0:1,0:0:0:0:
266,70,10161,2,0,L|147:99,1,90,2|0,0:0|0:0,0:0:0:0:
416,172,10507,6,0,L|298:175,1,90,2|2,0:1|0:1,0:0:0:0:
216,126,10854,1,2,0:0:0:0:
463,66,11028,2,0,L|346:82,1,90,2|0,0:1|0:0,0:0:0:0:
138,176,11374,2,0,L|49:184,2,90,0|2|2,0:0|0:0|0:1,0:0:0:0:
377,107,11895,6,0,L|253:123,2,90,2|2|2,0:1|0:1|0:0,0:0:0:0:
134,236,12415,2,0,L|279:112,1,180,2|2,0:1|0:1,0:0:0:0:
167,73,12935,2,0,L|73:109,1,90,2|2,0:0|0:1,0:0:0:0:
317,255,13282,6,0,L|419:221,1,90,4|0,0:3|0:0,0:0:0:0:
165,103,13629,2,0,L|69:156,1,90,2|0,0:0|0:0,0:0:0:0:
326,95,13976,2,0,L|319:194,1,90,2|2,0:3|0:1,0:0:0:0:
213,83,14322,2,0,L|112:143,1,90,8|2,0:0|0:0,0:0:0:0:
372,186,14669,6,0,L|488:138,2,90,4|0|2,0:3|0:0|0:0,0:0:0:0:
116,112,15190,2,0,L|303:233,1,180,2|0,0:1|0:0,0:0:0:0:
172,70,15710,2,0,L|47:81,1,90,2|0,0:0|0:0,0:0:0:0:
316,154,16057,5,4,0:3:0:0:
167,119,16230,2,0,L|62:169,1,90,2|2,0:1|0:0,0:0:0:0:
332,236,16577,2,0,P|397:182|315:142,1,180,8|0,0:3|0:0,0:0:0:0:
196,80,17097,2,0,L|89:99,1,90,2|0,0:0|0:0,0:0:0:0:
344,251,17444,6,0,L|345:138,1,90,4|0,0:3|0:0,0:0:0:0:
205,144,17791,1,2,0:0:0:0:
440,77,17964,1,2,0:3:0:0:
216,187,18311,2,0,L|100:217,2,90,0|2|0,0:0|0:0|0:0,0:0:0:0:
455,72,18831,6,0,L|326:76,1,90,8|8,0:3|0:3,0:0:0:0:
123,79,19178,2,0,L|124:187,1,90,2|0,0:1|0:0,0:0:0:0:
359,146,19525,2,0,L|253:145,1,90,8|2,0:3|0:1,0:0:0:0:
365,72,19872,2,0,L|467:116,1,90,2|2,0:1|0:0,0:0:0:0:
197,76,20218,6,0,L|75:108,2,90,4|0|2,0:1|0:0|0:0,0:0:0:0:
433,59,20739,2,0,P|479:94|398:176,1,180,0|0,0:0|0:0,0:0:0:0:
280,76,21259,2,0,L|162:76,1,90,2|2,0:0|0:1,0:0:0:0:
422,143,21606,6,0,L|528:203,2,90,4|2|0,0:3|0:0|0:0,0:0:0:0:
185,147,22126,2,0,L|374:119,1,180,0|2,0:0|0:1,0:0:0:0:
222,48,22646,2,0,L|105:81,1,90,2|2,0:0|0:1,0:0:0:0:
389,179,22993,5,2,0:1:0:0:
289,108,23166,2,0,L|405:101,1,90,2|2,0:1|0:0,0:0:0:0:
143,88,23513,1,2,0:3:0:0:
289,183,23860,2,0,L|170:196,1,90,0|8,0:0|0:0,0:0:0:0:
434,236,24207,6,0,P|492:168|428:81,1,180,8|2,0:3|0:1,0:0:0:0:
315,61,24727,2,0,L|214:66,1,90,2|2,0:0|0:1,0:0:0:0:
466,108,25074,1,8,0:3:0:0:
367,152,25247,2,0,L|473:116,1,90,2|2,0:1|0:0,0:0:0:0:
350,66,25594,1,0,0:0:0:0:
114,175,25768,6,0,L|236:169,1,90,4|0,0:1|0:0,0:0:0:0:
350,66,26114,1,0,0:0:0:0:
115,51,26288,2,0,P|55:88|132:152,1,180,2|0,0:3|0:0,0:0:0:0:
252,93,26808,2,0,L|378:94,1,90,2|0,0:0|0:0,0:0:0:0:
107,191,27155,6,0,L|2:220,2,90,4|2|2,0:3|0:1|0:0,0:0:0:0:
358,96,27675,2,0,L|179:126,1,180,8|0,0:3|0:0,0:0:0:0:
285,40,28195,1,2,0:0:0:0:
49,96,28369,1,2,0:1:0:0:
192,113,28542,6,0,L|69:165,2,90,2|2|2,0:1|0:1|0:0,0:0:0:0:
300,87,29062,1,0,0:0:0:0:
158,204,29236,2,0,L|282:194,1,90,2|0,0:0|0:0,0:0:0:0:
14,99,29583,1,2,0:0:0:0:
240,106,29929,6,0,L|128:139,1,90,6|0,0:1|0:0,0:0:0:0:
299,56,30276,1,2,0:0:0:0:
66,52,30450,2,0,P|57:102|118:152,1,135,8|0,0:0|0:0,0:0:0:0:
303,143,30796,2,0,L|410:143,2,90,8|2|2,0:0|0:0|0:1,0:0:0:0:
69,187,31317,6,0,P|20:157|89:80,1,180,4|8,0:0|0:0,0:0:0:0:
186,87,31837,1,2,0:1:0:0:
42,40,32010,2,0,L|155:37,1,90,0|0,0:0|0:0,0:0:0:0:
280,133,32357,1,8,0:0:0:0:
191,89,32531,1,2,0:1:0:0:
426,205,32704,6,0,P|475:175|406:98,1,180,2|8,0:1|0:0,0:0:0:0:
317,108,33224,1,2,0:1:0:0:
458,60,33398,2,0,L|345:57,1,90,0|0,0:0|0:0,0:0:0:0:
224,151,33744,1,8,0:0:0:0:
317,108,33918,1,2,0:1:0:0:
80,81,34091,6,0,L|270:177,1,180,2|8,0:1|0:0,0:0:0:0:
143,103,34611,1,2,0:1:0:0:
286,55,34785,2,0,L|173:52,1,90,0|0,0:0|0:0,0:0:0:0:
49,149,35132,1,8,0:0:0:0:
143,103,35305,1,2,0:1:0:0:
379,158,35479,6,0,L|253:164,2,90,2|2|0,0:0|0:0|0:0,0:0:0:0:
480,85,35999,1,0,0:0:0:0:
246,88,36172,2,0,P|174:106|178:213,1,180,0|8,0:0|0:0,0:0:0:0:
275,159,36692,1,0,0:0:0:0:
41,86,36866,6,0,L|207:177,1,180,4|8,0:1|0:0,0:0:0:0:
111,83,37386,1,2,0:1:0:0:
260,95,37559,2,0,L|274:191,1,90,0|0,0:0|0:0,0:0:0:0:
123,96,37906,2,0,L|35:138,1,90,8|2,0:0|0:1,0:0:0:0:
276,261,38253,6,0,L|459:195,1,180,2|8,0:1|0:0,0:0:0:0:
299,157,38773,2,0,L|284:52,1,90,2|0,0:1|0:0,0:0:0:0:
137,111,39120,2,0,L|148:231,1,90,2|8,0:1|0:0,0:0:0:0:
288,159,39467,1,2,0:1:0:0:
54,92,39640,6,0,L|168:92,1,90,4|0,0:1|0:0,0:0:0:0:
292,240,39987,2,0,L|291:136,1,90,8|0,0:0|0:0,0:0:0:0:
56,151,40334,2,0,L|180:148,1,90,0|0,0:0|0:0,0:0:0:0:
304,89,40681,1,10,0:0:0:0:
68,50,40854,6,0,P|13:92|69:172,1,180,2|0,0:1|0:0,0:0:0:0:
308,186,41374,2,0,L|424:147,1,90,8|2,0:0|0:1,0:0:0:0:
233,90,41721,2,0,L|121:107,1,90,0|0,0:0|0:0,0:0:0:0:
313,46,42068,2,0,L|313:162,1,90,8|2,0:0|0:1,0:0:0:0:
79,66,42415,6,0,L|2:118,2,90,2|2|8,0:1|0:1|0:0,0:0:0:0:
184,45,42935,1,2,0:1:0:0:
421,62,43109,2,0,L|425:178,1,90,2|2,0:1|0:1,0:0:0:0:
350,60,43369,1,2,0:1:0:0:
180,138,43455,2,0,L|59:146,1,90,8|2,0:0|0:1,0:0:0:0:
256,192,43802,12,2,45190,0:0:0:0:
100,138,46577,6,0,L|206:136,1,90,4|0,0:0|0:0,0:0:0:0:
52,59,46924,1,8,0:0:0:0:
289,211,47097,2,0,L|405:201,1,90,0|2,0:0|0:1,0:0:0:0:
216,116,47444,1,0,0:0:0:0:
451,245,47617,2,0,L|451:137,1,90,8|2,0:0|0:1,0:0:0:0:
160,201,47964,6,0,L|276:193,1,90,4|0,0:3|0:0,0:0:0:0:
348,112,48311,1,8,0:0:0:0:
113,62,48484,2,0,L|16:97,1,90,0|2,0:0|0:1,0:0:0:0:
280,182,48831,2,0,L|388:180,2,90,0|8|2,0:0|0:0|0:1,0:0:0:0:
19,70,49351,6,0,L|132:69,1,90,4|0,0:3|0:0,0:0:0:0:
267,163,49698,1,8,0:0:0:0:
33,264,49872,2,0,L|35:155,1,90,0|2,0:0|0:1,0:0:0:0:
269,78,50218,2,0,L|147:112,2,90,0|8|2,0:0|0:0|0:1,0:0:0:0:
34,131,50739,5,4,0:1:0:0:
282,152,50912,2,0,P|347:114|347:61,1,135,2|0,0:1|0:0,0:0:0:0:
142,226,51259,2,0,L|12:227,1,90,2|0,0:1|0:0,0:0:0:0:
153,109,51606,1,0,0:0:0:0:
298,111,51779,2,0,L|298:226,1,90,8|2,0:0|0:1,0:0:0:0:
38,169,52126,6,0,L|153:165,2,90,4|0|8,0:3|0:0|0:0,0:0:0:0:
275,111,52646,2,0,L|391:108,1,90,0|2,0:0|0:1,0:0:0:0:
207,226,52993,1,0,0:0:0:0:
441,75,53166,2,0,L|328:78,1,90,8|2,0:0|0:1,0:0:0:0:
81,146,53513,6,0,L|191:142,2,90,4|0|8,0:3|0:0|0:0,0:0:0:0:
338,107,54033,2,0,L|166:177,1,180,0|0,0:0|0:0,0:0:0:0:
318,221,54554,2,0,L|427:221,1,90,8|2,0:0|0:1,0:0:0:0:
172,73,54901,6,0,L|69:106,2,90,4|0|0,0:1|0:0|0:0,0:0:0:0:
321,237,55421,2,0,L|320:139,1,90,2|2,0:3|0:1,0:0:0:0:
83,168,55768,2,0,L|193:150,1,90,0|8,0:0|0:0,0:0:0:0:
329,91,56114,1,0,0:0:0:0:
94,71,56288,6,0,L|2:106,2,90,4|0|8,0:0|0:0|0:0,0:0:0:0:
340,259,56808,2,0,P|393:226|315:150,1,180,4|0,0:0|0:0,0:0:0:0:
110,93,57328,2,0,L|4:108,1,90,8|2,0:0|0:1,0:0:0:0:
311,237,57675,6,0,L|436:224,2,90,4|0|8,0:1|0:0|0:0,0:0:0:0:
72,259,58195,2,0,L|72:149,1,90,0|2,0:0|0:1,0:0:0:0:
208,108,58542,1,0,0:0:0:0:
444,159,58716,2,0,L|326:167,1,90,8|2,0:0|0:1,0:0:0:0:
69,261,59062,6,0,L|189:262,1,90,4|0,0:3|0:0,0:0:0:0:
266,151,59409,1,8,0:0:0:0:
36,90,59583,2,0,L|161:89,1,90,0|2,0:0|0:1,0:0:0:0:
35,35,59929,1,0,0:0:0:0:
184,220,60103,2,0,L|299:215,1,90,8|2,0:0|0:1,0:0:0:0:
24,125,60450,6,0,L|141:118,1,90,4|0,0:3|0:0,0:0:0:0:
207,106,60796,1,8,0:0:0:0:
444,221,60970,2,0,L|337:221,1,90,0|2,0:0|0:1,0:0:0:0:
111,224,61317,2,0,L|225:223,2,90,0|8|2,0:0|0:0|0:1,0:0:0:0:
348,94,61837,5,4,0:1:0:0:
110,275,62010,2,0,P|52:235|58:166,1,135,0|0,0:0|0:0,0:0:0:0:
214,163,62357,2,0,L|316:164,2,90,2|0|0,0:1|0:0|0:0,0:0:0:0:
110,274,62877,2,0,L|98:163,1,90,8|0,0:0|0:0,0:0:0:0:
335,137,63224,6,0,L|161:184,1,180,6|2,0:1|0:1,0:0:0:0:
344,283,63918,2,0,P|399:243|310:168,1,180,2|2,0:0|0:1,0:0:0:0:
139,148,64611,2,0,L|333:151,1,180,4|2,0:3|0:1,0:0:0:0:
123,64,65305,2,0,P|62:120|133:190,1,180,2|2,0:0|0:1,0:0:0:0:
306,186,65999,6,0,L|178:186,1,90,4|0,0:1|0:0,0:0:0:0:
325,92,66346,2,0,L|418:86,1,90,8|0,0:0|0:0,0:0:0:0:
174,126,66692,2,0,L|71:156,2,90,2|0|8,0:1|0:0|0:0,0:0:0:0:
263,71,67213,1,2,0:1:0:0:
28,220,67386,6,0,L|149:212,1,90,4|0,0:3|0:0,0:0:0:0:
210,204,67733,2,0,L|315:194,1,90,8|0,0:0|0:0,0:0:0:0:
66,302,68080,2,0,L|72:176,1,90,2|0,0:1|0:0,0:0:0:0:
310,140,68427,2,0,L|435:129,1,90,8|2,0:0|0:1,0:0:0:0:
129,76,68773,6,0,L|18:89,1,90,4|0,0:1|0:0,0:0:0:0:
189,186,69120,1,8,0:0:0:0:
429,89,69294,2,0,L|318:101,1,90,0|2,0:0|0:1,0:0:0:0:
484,33,69640,1,0,0:0:0:0:
236,81,69814,2,0,L|116:103,1,90,8|2,0:0|0:1,0:0:0:0:
430,147,70161,6,0,L|316:178,1,90,4|0,0:3|0:0,0:0:0:0:
442,70,70507,1,8,0:0:0:0:
199,115,70681,2,0,L|89:125,2,90,0|2|0,0:0|0:1|0:0,0:0:0:0:
435,58,71201,2,0,L|441:176,1,90,8|2,0:0|0:1,0:0:0:0:
141,196,71548,6,0,L|261:192,1,90,4|0,0:3|0:0,0:0:0:0:
86,94,71895,1,8,0:0:0:0:
326,80,72068,2,0,L|324:184,1,90,0|2,0:0|0:1,0:0:0:0:
77,203,72415,2,0,L|178:186,2,90,0|8|2,0:0|0:0|0:1,0:0:0:0:
338,90,72935,5,4,0:1:0:0:
81,99,73109,2,0,L|198:97,1,90,2|0,0:1|0:0,0:0:0:0:
434,81,73455,2,0,L|271:176,1,180,2|0,0:1|0:0,0:0:0:0:
387,148,73976,2,0,L|405:259,1,90,8|2,0:0|0:1,0:0:0:0:
165,102,74322,6,0,L|51:128,1,90,4|0,0:3|0:0,0:0:0:0:
224,202,74669,1,8,0:0:0:0:
459,148,74843,2,0,L|271:196,1,180,0|0,0:0|0:0,0:0:0:0:
428,68,75363,2,0,L|440:188,1,90,8|2,0:0|0:1,0:0:0:0:
165,163,75710,6,0,L|274:154,2,90,4|0|8,0:3|0:0|0:0,0:0:0:0:
400,74,76230,2,0,L|213:148,1,180,0|0,0:0|0:0,0:0:0:0:
377,212,76750,2,0,L|484:222,1,90,8|2,0:0|0:1,0:0:0:0:
209,120,77097,6,0,L|95:150,2,90,4|0|0,0:1|0:0|0:0,0:0:0:0:
443,122,77617,2,0,L|336:142,1,90,2|2,0:3|0:1,0:0:0:0:
82,179,77964,1,0,0:0:0:0:
234,133,78138,1,8,0:0:0:0:
82,179,78311,1,2,0:1:0:0:
318,225,78484,6,0,L|436:216,2,90,4|0|8,0:0|0:0|0:0,0:0:0:0:
84,124,79005,2,0,L|286:156,1,180,4|0,0:0|0:0,0:0:0:0:
202,77,79438,1,0,0:0:0:0:
39,200,79525,2,0,L|43:307,1,90,8|2,0:0|0:1,0:0:0:0:
331,205,79872,6,0,L|457:189,1,90,4|0,0:1|0:0,0:0:0:0:
274,114,80218,1,8,0:0:0:0:
37,195,80392,2,0,L|140:199,1,90,0|2,0:0|0:1,0:0:0:0:
362,117,80739,1,0,0:0:0:0:
126,85,80912,2,0,L|15:99,1,90,8|2,0:0|0:1,0:0:0:0:
335,198,81259,6,0,L|222:205,1,90,4|0,0:1|0:0,0:0:0:0:
385,97,81606,1,8,0:0:0:0:
150,98,81779,2,0,L|49:109,1,90,0|2,0:0|0:1,0:0:0:0:
313,223,82126,2,0,L|421:218,2,90,0|8|2,0:0|0:0|0:1,0:0:0:0:
40,122,82646,6,0,L|149:115,1,90,4|0,0:1|0:0,0:0:0:0:
366,183,82993,1,8,0:0:0:0:
124,212,83166,2,0,L|123:98,1,90,0|2,0:0|0:1,0:0:0:0:
360,115,83513,2,0,L|243:122,2,90,0|8|2,0:0|0:0|0:1,0:0:0:0:
112,190,84033,5,4,0:1:0:0:
350,97,84207,2,0,P|311:156|239:168,1,135,0|0,0:0|0:0,0:0:0:0:
70,276,84554,2,0,L|72:156,1,90,0|0,0:0|0:0,0:0:0:0:
316,266,84901,2,0,L|340:196,1,45,0|0,0:0|0:0,0:0:0:0:
254,131,85074,2,0,L|125:139,1,90,8|0,0:0|0:0,0:0:0:0:
440,116,85421,6,0,L|247:167,1,180,4|0,0:0|0:0,0:0:0:0:
74,110,86114,2,0,P|33:170|104:248,1,180,2|0,0:0|0:0,0:0:0:0:
271,107,86808,2,0,L|83:159,1,180,4|0,0:3|0:0,0:0:0:0:
305,61,87502,2,0,P|369:107|321:195,1,180,2|0,0:0|0:0,0:0:0:0:
256,192,88195,12,0,89583,0:0:0:0:
