osu file format v14

[General]
AudioFilename: audio.ogg
AudioLeadIn: 0
PreviewTime: 45540
Countdown: 0
SampleSet: Soft
StackLeniency: 0.7
Mode: 0
LetterboxInBreaks: 0
WidescreenStoryboard: 1

[Editor]
DistanceSpacing: 1.5
BeatDivisor: 4
GridSize: 16
TimelineZoom: 2.2

[Metadata]
Title:Asymmetry (TV Size)
TitleUnicode:アシンメトリー (TV Size)
Artist:Horie Yui
ArtistUnicode:堀江由衣
Creator:GodHacc
Version:Joyful Sorrow
Source:K RETURN OF KINGS
Tags:櫛名 アンナ kushina anna anime opening op japanese j-pop pop jpop koldnoodl vanya2 shiwakaze cjstmdals
BeatmapID:3841708
BeatmapSetID:1684903

[Difficulty]
HPDrainRate:5.8
CircleSize:4.2
OverallDifficulty:8.7
ApproachRate:9.2
SliderMultiplier:1.8
SliderTickRate:1

[Events]
//Background and Video events
0,0,"anna.jpg",0,0
Video,-108,"K Return of Kings.mp4"
//Break Periods
//Storyboard Layer 0 (Background)
//Storyboard Layer 1 (Fail)
//Storyboard Layer 2 (Pass)
//Storyboard Layer 3 (Foreground)
//Storyboard Layer 4 (Overlay)
//Storyboard Sound Samples

[TimingPoints]
-216,346.820809248555,4,2,2,40,1,0
477,-100,4,2,2,40,0,0
824,-111.111111111111,4,2,2,40,0,0
1171,-100,4,2,2,40,0,0
1431,-100,4,2,2,70,0,0
1518,-100,4,2,1,70,0,0
7414,-100,4,2,1,70,0,0
7587,-80,4,2,1,70,0,0
8107,-133.333333333333,4,2,1,50,0,0
10535,-133.333333333333,4,2,2,50,0,0
12269,-100,4,2,2,50,0,0
13310,-133.333333333333,4,2,2,50,0,0
19206,-133.333333333333,4,2,2,60,0,0
23194,-133.333333333333,4,2,2,60,0,0
29437,-117.647058823529,4,2,2,60,0,0
30304,-117.647058823529,4,2,2,70,0,0
31344,-117.647058823529,4,2,1,70,0,0
35853,-117.647058823529,4,2,1,70,0,0
38628,-100,4,2,1,70,0,0
38975,-100,4,2,2,70,0,0
39928,-100,4,2,2,70,0,0
40015,-100,4,2,2,70,0,0
40275,-100,4,2,2,70,0,0
40362,-100,4,2,2,70,0,0
40622,-100,4,2,2,70,0,0
40709,-100,4,2,2,70,0,0
40969,-100,4,2,2,70,0,0
41055,-100,4,2,2,70,0,0
41315,-100,4,2,2,70,0,0
41402,-100,4,2,2,70,0,0
42790,-133.333333333333,4,2,2,50,0,0
43483,-133.333333333333,4,2,2,50,0,0
44177,-100,4,2,2,50,0,0
45217,-90.9090909090909,4,2,2,50,0,0
45564,-90.9090909090909,4,2,2,80,0,1
45824,-90.9090909090909,4,2,2,80,0,1
45911,-90.9090909090909,4,2,1,80,0,1
46171,-90.9090909090909,4,2,1,80,0,1
46258,-90.9090909090909,4,2,1,80,0,1
50159,-90.9090909090909,4,2,1,80,0,1
50246,-90.9090909090909,4,2,1,80,0,1
50506,-90.9090909090909,4,2,1,80,0,1
50766,-90.9090909090909,4,2,1,80,0,1
55709,-90.9090909090909,4,2,1,80,0,1
55795,-90.9090909090909,4,2,1,80,0,1
56055,-90.9090909090909,4,2,1,80,0,1
56142,-90.9090909090909,4,2,1,80,0,1
56662,-90.9090909090909,4,2,1,80,0,1
61258,-90.9090909090909,4,2,1,80,0,1
61344,-90.9090909090909,4,2,1,80,0,1
61604,-90.9090909090909,4,2,1,80,0,1
61691,-90.9090909090909,4,2,1,80,0,1
61865,-90.9090909090909,4,2,1,80,0,1
62211,-90.9090909090909,4,2,1,70,0,0
62472,-90.9090909090909,4,2,1,70,0,0
62558,-90.9090909090909,4,2,1,70,0,0
62818,-90.9090909090909,4,2,1,70,0,0
62905,-100,4,2,1,70,0,0
63165,-100,4,2,1,70,0,0
63252,-100,4,2,1,70,0,0
63599,-125,4,2,1,70,0,0
63859,-125,4,2,1,70,0,0
63946,-125,4,2,1,70,0,0
64206,-125,4,2,1,70,0,0
64292,-90.9090909090909,4,2,1,70,0,0
64986,-125,4,2,1,70,0,0
65680,-111.111111111111,4,2,1,70,0,0
66373,-100,4,2,1,70,0,0
67067,-90.9090909090909,4,2,1,70,0,0
67760,-90.9090909090909,4,2,1,80,0,1
68368,-90.9090909090909,4,2,1,80,0,1
68455,-90.9090909090909,4,2,1,80,0,1
72356,-90.9090909090909,4,2,1,80,0,1
72443,-90.9090909090909,4,2,1,80,0,1
72703,-90.9090909090909,4,2,1,80,0,1
72790,-90.9090909090909,4,2,1,80,0,1
72963,-90.9090909090909,4,2,1,80,0,1
77905,-90.9090909090909,4,2,1,80,0,1
77992,-90.9090909090909,4,2,1,80,0,1
78252,-90.9090909090909,4,2,1,80,0,1
78339,-90.9090909090909,4,2,1,80,0,1
78859,-83.3333333333333,4,2,1,80,0,1
80506,-83.3333333333333,4,2,1,80,0,1
80593,-83.3333333333333,4,2,1,80,0,1
81200,-83.3333333333333,4,2,1,80,0,1
81287,-83.3333333333333,4,2,1,80,0,1
81633,-83.3333333333333,4,2,1,80,0,1
81893,-83.3333333333333,4,2,1,80,0,1
81980,-83.3333333333333,4,2,1,80,0,1
82587,-83.3333333333333,4,2,1,80,0,1
82674,-83.3333333333333,4,2,1,80,0,1
83454,-83.3333333333333,4,2,1,80,0,1
83541,-83.3333333333333,4,2,1,80,0,1
83801,-83.3333333333333,4,2,1,80,0,1
83888,-83.3333333333333,4,2,1,80,0,1
84061,-90.9090909090909,4,2,1,80,0,1
84408,-90.9090909090909,4,2,1,60,0,0
85795,-90.9090909090909,4,2,1,50,0,0
87183,-90.9090909090909,4,2,1,40,0,0
88570,-90.9090909090909,4,2,1,5,0,0
89350,-90.9090909090909,4,2,1,5,0,0

[Colours]
Combo1 : 232,232,232
Combo2 : 245,220,221
Combo3 : 168,168,168
Combo4 : 219,119,121

[HitObjects]
439,205,477,6,0,P|450:155|464:108,1,90,8|4,2:3|2:3,0:0:0:0:
461,118,738,1,8,2:0:0:0:
461,118,824,1,8,2:0:0:0:
512,265,998,1,4,2:3:0:0:
380,349,1171,6,0,P|318:318|235:329,1,135,6|0,3:2|0:0,0:0:0:0:
231,352,1518,2,0,P|188:366|143:372,1,90,8|2,2:0|1:2,0:0:0:0:
0,255,1865,5,2,3:2:0:0:
164,192,2038,1,2,1:2:0:0:
5,121,2212,1,10,2:0:0:0:
87,292,2385,1,2,1:2:0:0:
197,99,2558,6,0,P|247:89|374:85,1,135,2|0,3:2|0:0,0:0:0:0:
356,102,2905,1,8,2:0:0:0:
482,20,3079,5,0,1:2:0:0:
482,20,3165,1,0,1:0:0:0:
482,20,3252,2,0,P|488:64|501:107,1,90,2|0,3:2|1:2,0:0:0:0:
424,172,3599,1,10,2:0:0:0:
284,56,3772,1,0,1:2:0:0:
215,250,3946,6,0,P|153:281|70:270,1,135,2|0,3:2|0:0,0:0:0:0:
60,268,4292,1,8,2:0:0:0:
206,151,4466,1,2,1:2:0:0:
237,357,4639,2,0,P|280:367|324:377,1,90,2|2,3:2|1:2,0:0:0:0:
486,248,4986,1,10,2:0:0:0:
416,384,5160,1,2,1:2:0:0:
478,135,5333,5,8,3:2:0:0:
315,284,5506,1,0,1:2:0:0:
389,51,5680,5,8,2:0:0:0:
322,261,5853,1,0,1:2:0:0:
196,62,6027,5,10,3:2:0:0:
157,74,6113,1,0,1:2:0:0:
132,106,6200,1,0,1:2:0:0:
118,144,6287,1,0,1:2:0:0:
122,183,6373,1,8,2:0:0:0:
396,198,6547,5,0,1:2:0:0:
396,198,6633,1,8,2:0:0:0:
396,198,6720,1,8,2:0:0:0:
350,33,8107,6,0,P|318:76|228:72,1,135.000005149842,4|2,3:2|1:2,0:0:0:0:
154,35,8628,1,2,3:2:0:0:
154,35,8975,1,0,1:2:0:0:
96,118,9148,1,0,1:2:0:0:
0,85,9321,1,2,1:2:0:0:
52,242,9495,5,2,3:2:0:0:
135,294,9668,2,0,P|138:259|144:227,1,67.5000025749208,2|0,2:0|1:2,0:0:0:0:
224,180,10015,1,2,3:2:0:0:
224,180,10362,1,2,1:2:0:0:
306,252,10535,1,10,2:0:0:0:
396,191,10709,1,2,1:2:0:0:
439,295,10882,5,2,3:2:0:0:
351,348,11055,1,2,2:0:0:0:
306,252,11229,1,2,1:2:0:0:
232,322,11402,1,0,3:2:0:0:
232,322,11749,1,0,1:2:0:0:
152,249,11922,1,0,1:2:0:0:
227,171,12096,1,2,1:2:0:0:
375,365,12269,6,0,P|371:295|420:210,1,135,2|0,3:2|0:0,0:0:0:0:
458,168,12616,2,0,P|395:187|308:209,1,135,2|0,1:2|0:0,0:0:0:0:
300,185,12963,1,2,2:0:0:0:
253,72,13136,1,2,1:2:0:0:
147,120,13310,2,0,P|113:119|80:111,1,67.5000025749208,2|2,1:2|1:2,0:0:0:0:
253,72,13657,5,0,3:2:0:0:
206,193,13830,1,2,2:0:0:0:
150,43,14003,1,2,1:2:0:0:
94,185,14177,1,0,3:2:0:0:
94,185,14524,1,0,1:2:0:0:
206,193,14697,1,0,1:2:0:0:
243,91,14870,1,2,1:2:0:0:
360,122,15044,5,2,3:2:0:0:
245,5,15217,2,0,P|252:37|253:71,1,67.5000025749208,2|0,2:0|1:2,0:0:0:0:
357,211,15564,2,0,P|350:178|349:144,1,67.5000025749208,2|0,3:2|0:0,0:0:0:0:
438,62,15911,1,2,1:2:0:0:
467,182,16084,1,10,2:0:0:0:
430,37,16258,1,2,1:2:0:0:
490,295,16431,5,2,3:2:0:0:
418,257,16604,1,0,0:0:0:0:
349,300,16777,1,0,1:2:0:0:
324,377,16951,1,2,3:2:0:0:
324,377,17298,1,2,1:2:0:0:
258,329,17472,1,2,1:2:0:0:
180,350,17645,1,2,1:2:0:0:
30,219,17818,5,2,3:2:0:0:
93,376,17991,1,8,2:0:0:0:
218,246,18165,2,0,P|184:247|151:254,1,67.5000025749208,8|2,2:0|1:2,0:0:0:0:
22,303,18512,1,2,2:0:0:0:
150,175,18686,1,2,2:0:0:0:
24,120,18859,1,2,1:2:0:0:
102,251,19032,1,2,2:0:0:0:
256,159,19206,6,0,B|328:157|310:201|384:191,1,135.000005149842,4|2,3:2|1:2,0:0:0:0:
218,246,19726,1,2,3:2:0:0:
218,246,20246,1,8,2:2:0:0:
143,146,20420,5,2,1:2:0:0:
16,236,20593,1,2,3:2:0:0:
162,330,20766,1,2,2:0:0:0:
109,229,20940,1,0,1:2:0:0:
162,330,21113,6,0,B|189:315|224:328|224:328|260:358|306:360,1,135.000005149842,2|2,3:2|1:2,0:0:0:0:
409,209,21633,1,10,2:0:0:0:
308,269,21807,1,2,1:2:0:0:
450,321,21980,1,2,3:2:0:0:
345,155,22154,1,2,2:0:0:0:
499,218,22327,1,2,1:2:0:0:
361,355,22501,5,0,3:2:0:0:
361,355,22847,1,0,1:2:0:0:
308,269,23021,1,8,2:2:0:0:
203,364,23194,6,0,P|147:353|85:348,1,101.250003862381,2|0,1:2|0:0,0:0:0:0:
76,363,23541,1,2,2:0:0:0:
6,290,23714,1,2,1:2:0:0:
80,221,23888,1,2,3:2:0:0:
158,286,24061,5,2,2:0:0:0:
0,200,24235,1,2,1:2:0:0:
131,102,24408,1,2,1:2:0:0:
80,221,24581,1,2,1:2:0:0:
10,76,24755,6,0,B|51:110|51:110|101:115|150:97,1,135.000005149842,6|2,3:2|1:2,0:0:0:0:
269,178,25275,1,2,3:2:0:0:
269,178,25622,5,0,1:2:0:0:
361,136,25795,1,8,2:2:0:0:
427,213,25969,1,2,1:2:0:0:
501,65,26142,5,2,3:2:0:0:
370,26,26316,2,0,P|377:58|377:92,1,67.5000025749208,2|0,2:0|1:2,0:0:0:0:
273,264,26662,2,0,P|272:230|265:197,1,67.5000025749208,2|0,3:2|0:0,0:0:0:0:
180,88,27009,1,2,1:2:0:0:
154,220,27183,1,10,2:0:0:0:
185,66,27356,1,2,1:2:0:0:
334,185,27529,6,0,P|300:184|267:177,1,67.5000025749208,2|2,3:2|2:0,0:0:0:0:
80,251,27876,2,0,P|113:250|146:243,1,67.5000025749208,0|2,1:2|3:2,0:0:0:0:
304,313,28223,1,2,2:0:0:0:
201,384,28397,2,0,P|202:351|209:318,1,67.5000025749208,0|8,1:2|2:2,0:0:0:0:
158,218,28743,1,0,1:2:0:0:
301,107,28917,5,2,3:2:0:0:
428,328,29090,1,8,2:0:0:0:
352,172,29264,1,8,2:0:0:0:
512,223,29437,2,0,P|472:224|432:232,1,76.5000014591217,2|0,1:2|0:0,0:0:0:0:
301,107,29784,1,2,3:2:0:0:
233,255,29957,1,8,2:0:0:0:
56,158,30130,5,2,2:0:0:0:
56,158,30217,1,2,2:0:0:0:
56,158,30304,2,0,P|130:146|209:127,1,153.000002918243,6|0,3:2|1:2,0:0:0:0:
352,172,30824,1,2,3:2:0:0:
286,32,30998,1,2,1:2:0:0:
423,126,31171,1,2,1:2:0:0:
305,235,31344,1,8,2:0:0:0:
190,96,31518,5,2,1:2:0:0:
190,96,31604,1,0,1:2:0:0:
190,96,31691,2,0,B|160:107|128:107|128:107|79:120|38:181,1,153.000002918243,2|0,3:2|1:2,0:0:0:0:
231,351,32212,1,2,3:2:0:0:
145,188,32385,1,2,1:2:0:0:
32,319,32558,1,2,1:2:0:0:
145,188,32732,1,8,2:0:0:0:
310,319,32905,5,2,1:2:0:0:
310,319,32991,1,0,1:2:0:0:
310,319,33078,2,0,B|332:349|373:355|373:355|413:331|472:327,1,153.000002918243,2|0,3:2|1:2,0:0:0:0:
512,248,33599,1,2,3:2:0:0:
336,161,33772,1,2,1:2:0:0:
490,50,33946,1,2,1:2:0:0:
408,246,34119,1,8,2:0:0:0:
309,59,34292,5,2,1:2:0:0:
309,59,34378,1,0,1:2:0:0:
309,59,34466,1,2,3:2:0:0:
236,207,34639,2,0,P|166:201|99:139,1,153.000002918243,2|0,2:0|3:2,0:0:0:0:
0,334,35159,2,0,P|56:284|131:276,1,153.000002918243,2|8,1:2|2:0,0:0:0:0:
283,384,35680,5,2,1:2:0:0:
283,384,35766,1,0,1:2:0:0:
283,384,35853,2,0,P|294:313|316:236,1,153.000002918243,6|0,3:2|1:2,0:0:0:0:
379,100,36373,1,2,3:2:0:0:
247,195,36547,1,2,1:2:0:0:
185,42,36720,1,2,1:2:0:0:
303,134,36894,1,8,2:0:0:0:
102,205,37067,5,2,1:2:0:0:
102,205,37154,1,0,1:2:0:0:
102,205,37240,2,0,B|133:180|178:179|178:179|213:201|255:192,1,153.000002918243,2|0,3:2|1:2,0:0:0:0:
380,282,37761,2,0,P|385:246|396:208,1,76.5000014591217,2|2,3:2|1:2,0:0:0:0:
308,54,38107,1,10,2:2:0:0:
493,103,38281,2,0,P|456:113|418:119,1,76.5000014591217,2|2,1:2|1:2,0:0:0:0:
265,282,38628,5,2,3:2:0:0:
265,282,38975,2,0,P|253:238|246:192,1,90,10|0,2:0|1:2,0:0:0:0:
337,362,39321,1,2,3:2:0:0:
159,270,39495,1,0,1:2:0:0:
322,159,39668,1,8,2:2:0:0:
202,369,39842,5,2,3:2:0:0:
202,369,39928,1,0,1:0:0:0:
202,369,40015,2,0,P|135:371|75:341,1,135,0|0,3:2|0:0,0:0:0:0:
59,305,40362,2,0,P|52:260|39:217,1,90,10|0,2:0|1:2,0:0:0:0:
96,69,40709,5,2,3:2:0:0:
211,207,40882,1,8,2:2:0:0:
313,87,41055,2,0,P|319:42|332:-1,1,90,2|0,3:2|1:2,0:0:0:0:
413,170,41402,5,2,3:2:0:0:
325,332,41576,1,2,1:2:0:0:
512,258,41749,1,2,1:2:0:0:
303,105,41923,1,2,1:2:0:0:
494,17,42096,5,2,3:2:0:0:
320,222,42269,1,2,1:2:0:0:
320,222,42356,1,8,2:0:0:0:
320,222,42443,1,8,2:0:0:0:
138,57,42616,5,2,1:2:0:0:
138,57,44177,5,2,2:0:0:0:
117,135,44350,1,2,2:0:0:0:
92,212,44524,1,2,2:0:0:0:
92,212,45044,5,2,2:0:0:0:
284,69,45217,2,0,P|352:48|437:41,1,148.50000453186,2|0,2:0|0:0,0:0:0:0:
428,40,45564,6,0,P|449:108|456:193,1,148.50000453186,6|0,3:2|0:0,0:0:0:0:
439,209,45911,1,8,2:0:0:0:
209,161,46084,1,2,1:2:0:0:
209,161,46171,1,0,1:0:0:0:
209,161,46258,2,0,P|258:154|305:140,1,99.0000030212403,0|2,3:2|1:2,0:0:0:0:
416,310,46605,1,10,2:0:0:0:
505,102,46778,1,2,1:2:0:0:
301,163,46951,6,0,P|315:210|321:259,1,99.0000030212403,2|0,3:2|1:2,0:0:0:0:
430,384,47298,1,8,2:0:0:0:
511,217,47472,2,0,P|461:210|414:196,1,99.0000030212403,2|0,1:2|3:2,0:0:0:0:
258,316,47818,1,2,1:2:0:0:
373,115,47992,1,10,2:0:0:0:
171,57,48165,5,2,1:2:0:0:
171,57,48252,1,0,1:2:0:0:
171,57,48339,2,0,P|186:106|191:153,1,99.0000030212403,6|2,3:2|1:2,0:0:0:0:
86,352,48686,1,10,2:0:0:0:
333,252,48859,2,0,P|284:237|236:231,1,99.0000030212403,2|0,1:2|3:2,0:0:0:0:
46,170,49206,5,2,1:2:0:0:
272,87,49379,1,10,2:0:0:0:
46,0,49553,1,2,1:2:0:0:
146,256,49726,5,6,3:2:0:0:
310,13,49899,2,0,B|266:36|266:36|214:31|162:62,1,148.50000453186,2|0,1:2|0:0,0:0:0:0:
46,170,50246,6,0,P|74:107|54:10,1,148.50000453186,4|0,3:1|0:0,0:0:0:0:
46,0,50593,1,0,1:1:0:0:
166,166,50766,1,8,2:0:0:0:
0,348,50940,5,0,1:2:0:0:
0,348,51027,1,0,1:2:0:0:
0,348,51113,2,0,P|15:299|21:251,1,99.0000030212403,6|2,3:2|1:2,0:0:0:0:
151,181,51460,1,10,2:0:0:0:
237,309,51633,2,0,P|286:315|333:329,1,99.0000030212403,2|0,1:2|3:2,0:0:0:0:
512,191,51980,1,2,1:2:0:0:
440,384,52154,2,0,P|433:334|419:287,1,99.0000030212403,10|0,2:0|1:2,0:0:0:0:
413,264,52414,5,0,1:2:0:0:
413,264,52501,1,6,3:2:0:0:
512,108,52674,1,2,1:2:0:0:
396,1,52847,1,10,2:0:0:0:
322,138,53021,2,0,P|274:123|225:117,1,99.0000030212403,2|0,1:2|3:2,0:0:0:0:
136,37,53368,5,2,1:2:0:0:
169,230,53541,1,10,2:0:0:0:
132,15,53714,1,0,1:2:0:0:
0,163,53888,6,0,P|49:156|96:142,1,99.0000030212403,6|0,3:2|1:2,0:0:0:0:
245,21,54235,2,0,P|230:68|224:117,1,99.0000030212403,8|0,2:0|1:2,0:0:0:0:
337,246,54581,2,0,P|287:252|240:266,1,99.0000030212403,0|2,3:2|1:2,0:0:0:0:
96,142,54928,1,10,2:0:0:0:
32,322,55102,5,2,1:2:0:0:
32,322,55188,1,0,1:2:0:0:
32,322,55275,1,4,3:2:0:0:
244,137,55449,2,0,B|270:142|301:161|301:161|345:154|380:129,1,148.50000453186,0|0,1:2|0:0,0:0:0:0:
506,290,55795,6,0,P|474:223|480:150,1,148.50000453186,4|0,3:1|0:0,0:0:0:0:
495,133,56142,5,0,1:2:0:0:
458,119,56228,1,0,1:2:0:0:
418,117,56315,1,8,2:2:0:0:
380,128,56402,1,0,1:2:0:0:
348,151,56488,1,0,1:2:0:0:
324,182,56575,1,0,1:2:0:0:
312,220,56662,5,6,3:2:0:0:
127,79,56836,1,0,1:2:0:0:
328,231,57009,1,8,2:0:0:0:
77,170,57183,1,2,1:2:0:0:
346,242,57356,1,0,3:2:0:0:
98,363,57529,1,2,1:2:0:0:
244,137,57703,1,10,2:0:0:0:
314,335,57876,5,2,1:2:0:0:
314,335,57963,1,0,1:2:0:0:
314,335,58050,2,0,P|265:328|218:314,1,99.0000030212403,2|0,3:2|1:2,0:0:0:0:
61,155,58397,1,8,2:0:0:0:
98,363,58570,2,0,P|104:314|119:266,1,99.0000030212403,2|0,1:2|3:2,0:0:0:0:
232,123,58917,1,2,1:2:0:0:
367,255,59090,2,0,P|414:240|463:233,1,99.0000030212403,10|2,2:0|1:2,0:0:0:0:
489,245,59350,5,0,1:2:0:0:
489,245,59437,1,6,3:2:0:0:
318,66,59610,1,2,1:2:0:0:
244,286,59784,1,8,2:0:0:0:
96,138,59957,2,0,P|48:152|0:159,1,99.0000030212403,2|0,1:2|3:2,0:0:0:0:
119,266,60304,5,2,1:2:0:0:
233,19,60477,1,10,2:0:0:0:
367,255,60651,1,2,1:2:0:0:
192,115,60824,5,6,3:2:0:0:
480,0,60998,2,0,B|453:63|453:63|462:104|450:145,1,148.50000453186,2|0,1:2|0:0,0:0:0:0:
511,286,61344,6,0,P|440:263|367:254,1,148.50000453186,4|0,3:1|0:0,0:0:0:0:
343,275,61691,1,0,1:2:0:0:
307,292,61777,1,8,2:0:0:0:
268,292,61864,1,8,3:2:0:0:
96,138,62038,1,0,1:2:0:0:
116,363,62212,6,0,P|164:349|213:341,1,99.0000030212403,6|0,3:2|1:2,0:0:0:0:
192,116,62558,2,0,P|144:129|95:137,1,99.0000030212403,10|0,2:0|1:2,0:0:0:0:
19,237,62905,2,0,P|11:281|0:324,1,90,2|0,3:2|1:2,0:0:0:0:
116,363,63252,2,0,P|123:318|135:275,1,90,10|0,2:0|1:2,0:0:0:0:
134,275,63512,5,0,1:2:0:0:
133,274,63599,2,0,P|178:267|221:255,1,72,2|0,3:2|1:2,0:0:0:0:
95,136,63946,2,0,P|140:143|183:155,1,72,10|0,2:0|1:2,0:0:0:0:
294,61,64292,1,2,3:2:0:0:
328,207,64466,1,0,1:2:0:0:
289,39,64639,1,10,2:0:0:0:
289,39,64986,6,0,P|254:47|218:52,1,72,6|0,3:2|1:2,0:0:0:0:
95,136,65333,2,0,P|129:144|165:149,1,72,8|0,2:0|1:2,0:0:0:0:
311,295,65680,5,0,3:2:0:0:
328,207,65853,1,0,1:2:0:0:
345,119,66027,2,0,P|387:112|429:102,1,80.9999975280763,8|0,2:0|1:2,0:0:0:0:
503,184,66373,5,6,3:2:0:0:
434,87,66547,1,0,1:2:0:0:
328,207,66720,1,8,2:0:0:0:
236,28,66894,1,0,1:2:0:0:
404,170,67067,1,0,3:2:0:0:
201,278,67240,1,0,1:2:0:0:
201,278,67327,1,0,1:2:0:0:
201,278,67414,1,8,2:0:0:0:
9,114,67587,5,0,1:2:0:0:
9,114,67674,1,0,1:2:0:0:
9,114,67761,2,0,B|70:132|70:132|136:118|197:80,1,198.000006042481,6|8,3:2|2:0,0:0:0:0:
328,207,68281,1,2,1:2:0:0:
328,207,68368,1,0,1:0:0:0:
328,207,68455,2,0,P|335:256|349:303,1,99.0000030212403,0|2,3:2|1:2,0:0:0:0:
186,384,68801,2,0,P|175:310|154:239,1,148.50000453186,10|0,2:0|0:2,0:0:0:0:
154,239,69148,5,2,3:2:0:0:
9,114,69321,1,0,1:2:0:0:
164,0,69495,1,8,2:0:0:0:
59,204,69668,2,0,P|74:251|81:300,1,99.0000030212403,2|0,1:2|3:2,0:0:0:0:
239,164,70015,1,2,1:2:0:0:
350,349,70188,2,0,P|398:342|446:327,1,99.0000030212403,10|2,2:0|1:2,0:0:0:0:
470,313,70449,5,0,1:2:0:0:
470,313,70536,1,6,3:2:0:0:
392,98,70709,1,2,1:2:0:0:
261,297,70882,1,10,2:0:0:0:
126,120,71055,2,0,P|173:134|222:142,1,99.0000030212403,2|0,1:2|3:2,0:0:0:0:
385,255,71402,5,2,1:2:0:0:
298,17,71576,1,10,2:0:0:0:
392,278,71749,1,2,1:2:0:0:
186,178,71923,5,6,3:2:0:0:
512,87,72096,2,0,B|485:87|451:100|451:100|409:86|379:55,1,148.50000453186,2|0,1:2|0:0,0:0:0:0:
169,19,72443,6,0,P|211:78|219:151,1,148.50000453186,4|0,3:1|0:0,0:0:0:0:
186,178,72790,1,8,2:3:0:0:
163,211,72876,1,4,2:3:0:0:
158,249,72963,1,8,2:0:0:0:
20,120,73136,1,0,1:2:0:0:
225,326,73310,6,0,P|178:340|129:348,1,99.0000030212403,6|2,3:2|1:2,0:0:0:0:
7,220,73657,1,10,2:0:0:0:
163,81,73830,2,0,P|177:128|185:177,1,99.0000030212403,2|0,1:2|3:2,0:0:0:0:
321,300,74177,1,2,1:2:0:0:
438,116,74350,2,0,P|389:123|341:138,1,99.0000030212403,10|0,2:0|1:2,0:0:0:0:
316,160,74610,5,0,1:2:0:0:
316,160,74697,1,6,3:2:0:0:
172,0,74870,1,2,1:2:0:0:
242,234,75044,1,10,2:0:0:0:
41,119,75217,2,0,P|88:104|137:96,1,99.0000030212403,2|0,1:2|3:2,0:0:0:0:
332,288,75564,5,2,1:2:0:0:
164,185,75738,1,10,2:0:0:0:
312,65,75911,1,0,1:2:0:0:
204,328,76084,6,0,P|155:335|107:350,1,99.0000030212403,6|0,3:2|1:2,0:0:0:0:
67,206,76431,2,0,P|116:199|164:184,1,99.0000030212403,8|0,2:0|1:2,0:0:0:0:
332,288,76778,2,0,P|317:335|310:384,1,99.0000030212403,0|2,3:2|1:2,0:0:0:0:
263,154,77125,1,10,2:0:0:0:
465,233,77298,5,2,1:2:0:0:
465,233,77385,1,0,1:2:0:0:
465,233,77472,1,4,3:2:0:0:
263,154,77645,2,0,B|272:121|296:98|296:98|289:60|266:27|223:23,1,148.50000453186,0|0,1:2|0:0,0:0:0:0:
47,49,77992,6,0,P|114:81|187:75,1,148.50000453186,4|0,3:1|0:0,0:0:0:0:
214,39,78339,5,0,1:2:0:0:
252,31,78425,1,0,1:2:0:0:
292,36,78512,1,0,3:2:0:0:
328,54,78599,1,8,2:3:0:0:
355,82,78685,1,0,1:2:0:0:
373,116,78772,1,0,1:2:0:0:
379,156,78859,5,6,3:2:0:0:
224,384,79032,1,0,1:2:0:0:
151,178,79206,1,8,2:0:0:0:
346,229,79379,1,2,1:2:0:0:
95,333,79553,1,0,3:2:0:0:
248,88,79726,1,2,1:2:0:0:
28,171,79899,1,10,2:0:0:0:
324,384,80073,5,2,1:2:0:0:
324,384,80160,1,0,1:2:0:0:
324,384,80246,2,0,P|316:310|366:214,1,161.999995056153,6|0,3:2|0:0,0:0:0:0:
366,206,80593,1,8,2:0:0:0:
141,160,80766,1,2,1:2:0:0:
326,19,80940,1,0,3:2:0:0:
206,271,81113,5,2,1:2:0:0:
206,271,81200,1,0,1:0:0:0:
206,271,81287,1,10,2:0:0:0:
120,16,81460,1,2,1:2:0:0:
409,118,81633,6,0,P|331:126|252:161,1,161.999995056153,6|0,3:2|0:0,0:0:0:0:
234,184,81980,1,10,2:0:0:0:
120,16,82154,2,0,P|112:69|96:121,1,107.999996704102,2|0,1:2|3:2,0:0:0:0:
143,338,82501,1,2,1:2:0:0:
143,338,82587,1,0,1:0:0:0:
143,338,82674,1,10,2:0:0:0:
14,154,82847,1,2,1:2:0:0:
273,334,83021,5,6,3:2:0:0:
473,188,83194,2,0,B|439:248|452:309|452:309|478:271,1,161.999995056153,2|0,1:2|0:0,0:0:0:0:
338,208,83541,6,0,P|309:146|329:40,1,161.999995056153,4|0,3:1|0:0,0:0:0:0:
344,28,83888,1,8,2:3:0:0:
382,42,83974,1,8,2:0:0:0:
425,38,84061,1,8,3:2:0:0:
217,207,84235,1,4,2:3:0:0:
72,18,84408,5,6,3:2:0:0:
56,115,84755,1,2,2:0:0:0:
105,201,85102,1,2,2:0:0:0:
204,189,85449,1,2,2:0:0:0:
274,296,85795,5,2,2:0:0:0:
348,270,86142,1,2,2:0:0:0:
423,296,86489,1,2,2:0:0:0:
458,367,86836,1,2,2:0:0:0:
512,189,87183,5,2,2:0:0:0:
