osu file format v14

[General]
AudioFilename: audio.mp3
AudioLeadIn: 0
PreviewTime: 65713
Countdown: 0
SampleSet: Soft
StackLeniency: 0.3
Mode: 0
LetterboxInBreaks: 0
WidescreenStoryboard: 0

[Editor]
DistanceSpacing: 1
BeatDivisor: 8
GridSize: 32
TimelineZoom: 3.600004

[Metadata]
Title:Asymmetry
TitleUnicode:アシンメトリー
Artist:Horie Yui
ArtistUnicode:堀江由衣
Creator:MaridiuS
Version:Expert
Source:K RETURN OF KINGS
Tags:櫛名 アンナ Kushina Anna Opening op full version PandaHero aye1337 jpop j-pop pop japanese anime
BeatmapID:2406372
BeatmapSetID:1152932

[Difficulty]
HPDrainRate:5
CircleSize:3.8
OverallDifficulty:9.1
ApproachRate:9.5
SliderMultiplier:2.1
SliderTickRate:1

[Events]
//Background and Video events
0,0,"5b7a00f4-10b8-43bc-c342-e8202137a21b.jpg",0,0
//Break Periods
//Storyboard Layer 0 (Background)
//Storyboard Layer 1 (Fail)
//Storyboard Layer 2 (Pass)
//Storyboard Layer 3 (Foreground)
//Storyboard Layer 4 (Overlay)
//Storyboard Sound Samples

[TimingPoints]
661,422.535211267606,4,2,4,70,1,0
1494,416.666666666667,4,2,4,70,1,0
2100,416.666666666667,4,2,4,70,1,0
2327,428.571428571429,4,2,4,70,1,0
3161,416.666666666667,4,2,4,70,1,0
3994,428.571428571429,4,2,4,70,1,0
4827,416.666666666667,4,2,4,70,1,0
5020,416.666666666667,4,2,4,70,1,0
5244,416.666666666667,4,2,4,70,1,0
5661,437.956204379562,4,2,4,70,1,0
6500,451.127819548872,4,2,4,70,1,0
7125,451.127819548872,4,2,4,70,1,0
7327,434.782608695652,4,2,4,70,1,0
8161,416.666666666667,4,2,4,70,1,0
8994,428.571428571429,4,2,4,70,1,0
9827,416.666666666667,4,2,4,70,1,0
10661,416.666666666667,4,2,4,70,1,0
11525,416.666666666667,4,2,4,70,1,0
11707,416.666666666667,4,2,4,70,1,0
12349,454.545454545455,4,2,4,70,1,0
12803,480,4,2,4,70,1,0
13229,461.538461538462,4,2,4,70,1,0
13690,480,4,2,4,70,1,0
13930,444.444444444444,4,2,4,70,1,0
14124,346.820809248555,4,2,4,70,1,0
15771,-100,4,2,4,5,0,0
15858,346.820809248555,4,2,4,70,1,0
17245,-83.3333333333333,4,2,4,80,0,0
18112,-71.4285714285714,4,2,4,80,0,0
18285,-62.5,4,2,4,80,0,0
18459,-55.5555555555556,4,2,4,80,0,0
18632,-83.3333333333333,4,2,4,80,0,0
20540,-62.5,4,2,4,80,0,0
22621,-83.3333333333333,4,2,4,80,0,0
23834,-55.5555555555556,4,2,4,80,0,0
24181,-83.3333333333333,4,2,4,80,0,0
24528,-83.3333333333333,4,2,4,80,0,0
24875,-83.3333333333333,4,2,4,80,0,0
26089,-62.5,4,2,4,80,0,0
26782,-55.5555555555556,4,2,4,80,0,0
29123,-55.5555555555556,4,2,4,5,0,0
29210,-55.5555555555556,4,2,4,70,0,0
29730,-71.4285714285714,4,2,4,70,0,0
30597,-100,4,2,4,70,0,0
33025,-71.4285714285714,4,2,4,70,0,0
33415,-71.4285714285714,4,2,4,5,0,0
33459,-71.4285714285714,4,2,4,70,0,0
33762,-71.4285714285714,4,2,4,5,0,0
33805,-71.4285714285714,4,2,4,70,0,0
34933,-200,4,2,4,70,0,0
36667,-83.3333333333333,4,2,4,70,0,0
38054,-100,4,2,4,70,0,0
41696,-83.3333333333333,4,2,4,70,0,0
44817,-62.5,4,2,4,70,0,0
45164,-100,4,2,4,70,0,0
47245,-83.3333333333333,4,2,4,70,0,0
49326,-62.5,4,2,4,70,0,0
49499,-50,4,2,4,70,0,0
49846,-45.4545454545455,4,2,4,70,0,0
50019,-62.5,4,2,4,70,0,0
50540,-43.4782608695652,4,2,4,100,0,0
51060,-55.5555555555556,4,2,4,100,0,0
51407,-55.5555555555556,4,2,4,80,0,0
51450,-55.5555555555556,4,2,4,55,0,0
51493,-55.5555555555556,4,2,4,80,0,0
51536,-55.5555555555556,4,2,4,55,0,0
51580,-55.5555555555556,4,2,4,80,0,0
51623,-55.5555555555556,4,2,4,55,0,0
51667,-55.5555555555556,4,2,4,80,0,0
51710,-55.5555555555556,4,2,4,55,0,0
51753,-55.5555555555556,4,2,4,80,0,0
51796,-55.5555555555556,4,2,4,55,0,0
51840,-55.5555555555556,4,2,4,80,0,0
51883,-55.5555555555556,4,2,4,55,0,0
51927,-66.6666666666667,4,2,4,80,0,0
52794,-55.5555555555556,4,2,4,80,0,0
53314,-66.6666666666667,4,2,4,80,0,0
55568,-55.5555555555556,4,2,4,80,0,0
56089,-66.6666666666667,4,2,4,80,0,0
57476,-66.6666666666667,4,2,4,80,0,0
58343,-55.5555555555556,4,2,4,80,0,0
58863,-66.6666666666667,4,2,4,80,0,0
59384,-66.6666666666667,4,2,4,80,0,0
60077,-55.5555555555556,4,2,4,80,0,0
63199,-47.6190476190476,4,2,4,80,0,0
64413,-166.666666666667,4,2,4,70,0,0
65713,-166.666666666667,4,2,4,5,0,0
65790,340.909090909091,4,2,4,50,1,0
65800,-100,4,2,4,50,0,0
66667,346.820809248555,4,2,4,70,1,0
66667,-50,4,2,4,70,0,0
66753,-50,4,2,4,5,0,0
66840,-50,4,2,4,70,0,0
67187,346.820809248555,4,2,4,90,1,1
67187,-71.4285714285714,4,2,4,90,0,1
77418,-50,4,2,4,90,0,1
78285,-71.4285714285714,4,2,4,90,0,1
83834,-100,4,2,4,70,0,0
88690,-100,4,2,4,50,0,0
89384,-83.3333333333333,4,2,4,80,0,0
90251,-66.6666666666667,4,2,4,80,0,0
90597,-52.6315789473684,4,2,4,80,0,0
90771,-83.3333333333333,4,2,4,80,0,0
91811,-45.4545454545455,4,2,4,80,0,0
92678,-66.6666666666667,4,2,4,80,0,0
94933,-83.3333333333333,4,2,4,80,0,0
95453,-71.4285714285714,4,2,4,80,0,0
96320,-83.3333333333333,4,2,4,80,0,0
97013,-83.3333333333333,4,2,4,95,0,0
97360,-83.3333333333333,4,2,4,80,0,0
97707,-71.4285714285714,4,2,4,80,0,0
100481,-71.4285714285714,4,2,4,70,0,0
106031,-100,4,2,4,80,0,0
108979,-62.5,4,2,4,80,0,0
109152,-55.5555555555556,4,2,4,80,0,0
109499,-50,4,2,4,70,0,0
109673,-62.5,4,2,4,70,0,0
110193,-43.4782608695652,4,2,4,70,0,0
110713,-55.5555555555556,4,2,4,70,0,0
111233,-100,4,2,4,70,0,0
111580,-66.6666666666667,4,2,4,70,0,0
116262,-76.9230769230769,4,2,4,70,0,0
117129,-66.6666666666667,4,2,4,70,0,0
118343,-55.5555555555556,4,2,4,70,0,0
119037,-66.6666666666667,4,2,4,70,0,0
119904,-55.5555555555556,4,2,4,70,0,0
122852,-47.6190476190476,4,2,4,70,0,0
125453,-100,4,2,4,70,0,0
126146,-100,4,2,4,50,0,0
126840,-66.6666666666667,4,2,4,90,0,1
137071,-50,4,2,4,90,0,1
137591,-50,4,2,4,90,0,1
137938,-66.6666666666667,4,2,4,90,0,1
143054,-66.6666666666667,4,2,4,90,0,1
143487,-100,4,2,4,70,0,0
151811,-66.6666666666667,4,2,4,70,0,0
155626,-66.6666666666667,4,2,4,50,0,0
155973,-66.6666666666667,4,2,4,70,0,0
157360,-71.4285714285714,4,2,4,70,0,0
162558,-100,4,2,4,70,0,0
162905,-71.4285714285714,4,2,4,70,0,0
166720,-100,4,2,4,70,0,0
167065,-71.4285714285714,4,2,4,70,0,0
168454,-100,4,2,4,70,0,0
183188,-66.6666666666667,4,2,4,70,0,0
184075,-100,4,2,4,70,0,0
187870,-80,4,2,4,70,0,0
192038,-100,4,2,4,70,0,0
192909,-66.6666666666667,4,2,4,70,0,0
193082,-55.5555555555556,4,2,4,70,0,0
193429,-58.8235294117647,4,2,4,90,0,1
193776,-66.6666666666667,4,2,4,90,0,1
203660,-55.5555555555556,4,2,4,90,0,1
205047,-66.6666666666667,4,2,4,90,0,1
210076,-80,4,2,4,90,0,1
211464,-125,4,2,4,90,0,1
214932,-125,4,2,4,90,0,1
215279,-125,4,2,4,90,0,1
215366,-83.3333333333333,4,2,4,90,0,1
215452,-62.5,4,2,4,90,0,1
215539,-50,4,2,4,90,0,1
215625,-50,4,2,4,90,0,1
216146,-66.6666666666667,4,2,4,90,0,1
217013,-50,4,2,4,90,0,1
217360,-66.6666666666667,4,2,4,90,0,1
218400,-50,4,2,4,90,0,1
218747,-66.6666666666667,4,2,4,90,0,1
219787,-50,4,2,4,90,0,1
219961,-66.6666666666667,4,2,4,90,0,1
221175,-58.8235294117647,4,2,4,90,0,1
221522,-66.6666666666667,4,2,4,90,0,1
224816,-55.5555555555556,4,2,4,90,0,1
225510,-66.6666666666667,4,2,4,90,0,1
225857,-50,4,2,4,90,0,1
226724,-58.8235294117647,4,2,4,90,0,1
230886,-50,4,2,4,90,0,1
231406,-55.5555555555556,4,2,4,90,0,1
232273,-66.6666666666667,4,2,4,90,0,1
236435,-66.6666666666667,4,2,4,100,0,1
236869,-66.6666666666667,4,2,4,80,0,1
237822,-133.333333333333,4,2,4,65,0,0
240596,-100,4,2,4,80,0,0
251681,-100,4,2,4,50,0,0

[Colours]
Combo1 : 217,217,217
Combo2 : 231,3,26

[HitObjects]
489,147,661,6,0,B|434:94|356:60|288:209|164:104,1,315,4|0,3:2|0:0,0:0:0:0:
36,71,1494,1,10,0:1:0:0:
0,161,1702,1,0,0:0:0:0:
79,319,1910,1,2,0:0:0:0:
144,133,2100,1,2,0:0:0:0:
295,347,2327,6,0,P|311:236|420:208,1,210,0|0,3:0|0:0,0:0:0:0:
508,264,2969,1,0,3:0:0:0:
508,264,3077,1,0,3:0:0:0:
508,264,3161,1,10,0:0:0:0:
383,299,3369,1,0,0:0:0:0:
273,141,3577,1,2,0:0:0:0:
464,145,3786,1,8,0:0:0:0:
408,83,3890,1,0,3:0:0:0:
352,21,3994,6,0,L|132:13,1,210,2|0,3:1|0:0,0:0:0:0:
142,13,4636,1,0,0:0:0:0:
84,97,4827,1,10,0:2:0:0:
144,212,5020,1,2,0:2:0:0:
299,206,5244,1,2,0:0:0:0:
144,212,5452,1,2,0:0:0:0:
48,369,5661,6,0,P|13:285|51:157,1,210,0|0,3:0|0:0,0:0:0:0:
221,117,6317,1,0,3:0:0:0:
221,117,6427,1,0,3:0:0:0:
221,117,6500,1,8,0:0:0:0:
355,73,6725,1,2,0:0:0:0:
442,204,6951,1,2,0:0:0:0:
348,310,7125,6,0,L|346:365,1,52.5,8|0,0:0|3:0,0:0:0:0:
441,295,7327,2,0,P|311:270|159:373,1,315,4|0,3:2|0:0,0:0:0:0:
134,263,8161,1,10,0:0:0:0:
115,155,8369,1,0,0:0:0:0:
16,201,8577,1,2,0:0:0:0:
225,267,8786,1,2,0:0:0:0:
236,57,8994,6,0,L|223:296,1,210,0|0,3:0|0:0,0:0:0:0:
376,133,9636,1,0,3:0:0:0:
376,133,9744,1,0,3:0:0:0:
376,133,9827,1,10,0:0:0:0:
340,235,10036,1,2,0:0:0:0:
483,106,10244,1,2,0:0:0:0:
488,308,10452,1,2,0:0:0:0:
173,205,10661,6,0,L|496:188,1,315,0|0,3:0|0:0,0:0:0:0:
309,92,11525,1,8,0:0:0:0:
189,130,11707,1,2,0:0:0:0:
48,58,11915,1,2,0:0:0:0:
32,219,12123,1,2,0:0:0:0:
280,264,12349,6,0,L|251:83,1,157.5,0|0,3:0|0:0,0:0:0:0:
251,80,12803,1,2,0:0:0:0:
355,170,13043,1,0,3:0:0:0:
211,373,13229,2,0,L|163:138,1,210,10|0,0:0|0:0,0:0:0:0:
140,74,13930,1,2,0:0:0:0:
54,201,14124,6,0,L|40:277,2,52.5,2|2|2,0:0|0:0|0:0,0:0:0:0:
256,192,14470,12,0,15771,0:0:0:0:
396,175,15858,6,0,L|386:85,1,52.5,8|0,0:0|0:0,0:0:0:0:
381,45,16031,1,2,0:0:0:0:
378,186,16204,2,0,L|368:96,1,52.5,8|0,0:0|0:0,0:0:0:0:
363,56,16378,1,2,0:0:0:0:
130,142,16551,5,8,0:0:0:0:
104,146,16638,1,8,0:0:0:0:
61,153,16725,1,0,3:0:0:0:
15,188,16811,1,8,0:0:0:0:
60,256,16898,1,8,0:0:0:0:
93,252,16985,1,8,0:0:0:0:
129,246,17071,1,8,0:0:0:0:
165,241,17158,1,8,0:0:0:0:
268,328,17245,6,0,B|326:356|326:356|439:313|439:313|512:342,1,251.999992309571,4|8,3:2|0:0,0:0:0:0:
350,244,17765,2,0,P|343:205|350:142,1,62.9999980773926,2|0,0:0|0:0,0:0:0:0:
371,90,17938,1,8,3:0:0:0:
234,27,18112,2,0,P|200:22|142:42,1,73.4999977569581,2|0,0:0|0:0,0:0:0:0:
89,103,18285,2,0,P|75:139|75:193,1,84,10|0,0:0|0:0,0:0:0:0:
133,265,18459,2,0,P|174:269|233:257,1,94.499997116089,2|0,0:0|0:0,0:0:0:0:
421,134,18632,6,0,B|351:196|303:146|261:106|168:162,1,251.999992309571,8|8,3:0|0:0,0:0:0:0:
50,347,19152,1,2,0:0:0:0:
50,347,19239,1,2,0:0:0:0:
50,347,19326,1,8,3:0:0:0:
82,301,19412,1,2,0:0:0:0:
93,220,19499,1,2,0:0:0:0:
55,152,19586,1,2,0:0:0:0:
12,89,19673,1,8,0:0:0:0:
4,51,19759,1,2,0:0:0:0:
6,24,19846,1,2,0:0:0:0:
15,7,19933,1,0,0:0:0:0:
104,43,20019,6,0,P|204:71|378:33,1,251.999992309571,8|8,3:0|0:0,0:0:0:0:
342,192,20540,2,0,P|339:249|346:311,1,84,2|0,0:0|0:0,0:0:0:0:
407,373,20713,1,8,3:0:0:0:
231,242,20886,2,0,P|154:207|46:203,1,168,2|8,0:0|0:0,0:0:0:0:
304,332,21233,2,0,P|389:302|471:260,2,168,2|8|0,0:0|3:0|0:0,0:0:0:0:
481,137,21753,5,8,0:0:0:0:
481,137,21927,1,8,3:0:0:0:
156,146,22100,2,0,B|217:134|258:172|310:178|377:199|489:132,1,336,2|8,3:2|0:0,0:0:0:0:
221,234,22621,2,0,L|146:253,1,62.9999980773926,2|2,0:0|0:0,0:0:0:0:
113,331,22794,6,0,L|142:61,1,251.999992309571,4|8,3:2|0:0,0:0:0:0:
38,152,23314,1,0,0:0:0:0:
245,147,23488,2,0,P|294:150|320:141,1,62.9999980773926,2|0,3:2|0:0,0:0:0:0:
402,78,23661,1,0,0:0:0:0:
377,333,23834,2,0,P|355:283|365:209,1,94.499997116089,10|0,0:0|0:0,0:0:0:0:
473,216,24008,2,0,P|495:166|485:92,1,94.499997116089,2|0,0:0|0:0,0:0:0:0:
340,10,24181,5,0,3:0:0:0:
321,7,24268,1,2,0:0:0:0:
289,10,24355,1,2,0:0:0:0:
245,34,24441,1,2,0:0:0:0:
214,109,24528,1,8,0:0:0:0:
225,190,24615,1,2,0:0:0:0:
265,244,24701,1,2,0:0:0:0:
306,276,24788,1,2,0:0:0:0:
331,312,24875,1,8,3:0:0:0:
340,334,24962,1,2,0:0:0:0:
342,350,25048,1,2,0:0:0:0:
342,358,25135,1,2,0:0:0:0:
339,365,25222,5,8,0:0:0:0:
366,204,25395,1,8,3:0:0:0:
166,106,25568,1,4,3:2:0:0:
146,101,25655,1,2,0:0:0:0:
127,122,25742,1,2,0:0:0:0:
140,162,25829,1,2,0:0:0:0:
133,215,25915,1,8,0:0:0:0:
26,358,26089,6,0,P|15:323|21:264,1,84,2|0,0:0|0:0,0:0:0:0:
47,184,26262,1,8,3:0:0:0:
325,221,26436,2,0,P|401:229|513:221,1,168,2|8,0:0|0:0,0:0:0:0:
198,84,26782,2,0,P|169:84|87:78,1,94.499997116089,2|0,0:0|0:0,0:0:0:0:
35,28,26956,5,8,0:0:0:0:
186,225,27129,1,8,3:0:0:0:
1,260,27303,1,8,0:0:0:0:
305,127,27476,1,8,3:0:0:0:
319,346,27649,5,8,0:0:0:0:
318,336,27736,1,8,0:0:0:0:
317,326,27823,1,8,0:0:0:0:
316,316,27910,1,8,0:0:0:0:
297,266,27996,5,8,3:0:0:0:
351,281,28083,1,8,3:0:0:0:
405,296,28170,1,8,3:0:0:0:
459,311,28256,1,8,3:0:0:0:
510,325,28343,1,8,0:0:0:0:
447,178,28516,5,2,0:0:0:0:
266,162,28690,1,2,0:0:0:0:
139,287,28863,1,2,0:0:0:0:
108,115,29037,6,0,P|102:64|110:-34,1,94.499997116089,2|0,0:0|0:0,0:0:0:0:
383,161,29210,2,0,B|523:84|450:-37|342:0|259:28|360:127|395:166|335:273,1,472.499985580445,2|0,0:0|0:0,0:0:0:0:
371,348,29730,6,0,B|281:364|281:364|99:316,1,220.499993270874,4|0,3:2|0:0,0:0:0:0:
63,305,30077,1,2,0:0:0:0:
140,165,30251,2,0,L|146:332,1,146.999995513916,2|0,3:2|0:0,0:0:0:0:
247,77,30597,2,0,L|253:191,1,105,2|0,0:0|0:0,0:0:0:0:
351,19,30944,2,0,L|358:84,1,52.5,0|0,0:0|0:0,0:0:0:0:
371,293,31118,5,2,3:2:0:0:
512,293,31291,1,2,3:2:0:0:
512,293,31638,2,0,L|276:292,1,210,0|0,3:0|0:0,0:0:0:0:
191,293,32158,1,8,0:0:0:0:
206,156,32331,1,2,0:0:0:0:
76,67,32505,2,0,P|66:116|83:187,2,105,2|0|0,3:2|0:0|0:0,0:0:0:0:
274,352,33025,6,0,P|343:368|512:326,1,220.499993270874,2|0,3:1|0:0,0:0:0:0:
495,312,33372,2,0,L|500:263,1,36.749998878479,2|0,0:0|0:0,0:0:0:0:
169,84,33719,2,0,L|164:133,1,36.749998878479,2|0,0:0|0:0,0:0:0:0:
180,215,33892,6,0,P|290:205|356:108,1,220.499993270874,2|0,3:2|0:0,0:0:0:0:
173,247,34239,2,0,P|62:237|-3:140,1,220.499993270874,2|0,3:2|0:0,0:0:0:0:
68,57,34586,2,0,P|107:44|145:43,1,73.4999977569581,2|0,0:0|0:0,0:0:0:0:
222,138,34759,2,0,P|221:93|227:48,1,73.4999977569581,2|0,0:0|0:0,0:0:0:0:
399,33,34933,2,0,P|432:25|484:26,1,78.75,2|0,0:0|0:0,0:0:0:0:
495,41,35279,5,0,3:0:0:0:
320,90,35453,1,2,0:0:0:0:
489,167,35626,1,8,0:0:0:0:
236,217,35800,1,2,3:1:0:0:
236,217,36147,5,0,0:0:0:0:
110,138,36320,1,2,0:3:0:0:
38,183,36493,1,2,0:0:0:0:
105,315,36667,6,0,P|120:334|155:309,1,62.9999980773926,2|0,3:2|0:0,0:0:0:0:
235,305,36840,2,0,P|150:270|63:321,1,188.999994232178,2|0,3:2|0:0,0:0:0:0:
277,384,37187,1,2,3:1:0:0:
486,8,37534,5,0,0:0:0:0:
410,149,37707,1,10,0:0:0:0:
350,65,37881,1,2,0:0:0:0:
245,167,38054,6,0,P|245:196|252:230,1,52.5,2|0,3:2|0:0,0:0:0:0:
264,313,38227,2,0,P|260:243|246:141,1,157.5,2|0,3:2|0:0,0:0:0:0:
223,63,38574,1,2,3:1:0:0:
223,63,38921,5,2,0:0:0:0:
207,85,39094,1,2,0:0:0:0:
194,105,39268,1,2,0:0:0:0:
296,111,39441,5,10,3:1:0:0:
122,170,39615,1,8,3:0:0:0:
257,288,39788,1,8,0:0:0:0:
227,190,39962,1,8,0:0:0:0:
404,207,40135,1,8,3:0:0:0:
395,382,40308,1,8,0:0:0:0:
168,369,40482,2,0,L|42:359,1,105,2|0,3:0|0:0,0:0:0:0:
34,26,40829,5,4,3:0:0:0:
202,177,41002,1,2,3:2:0:0:
0,167,41175,1,8,0:0:0:0:
238,42,41349,1,2,3:1:0:0:
238,42,41696,6,0,P|268:37|322:42,1,62.9999980773926,2|0,3:2|0:0,0:0:0:0:
404,67,41869,1,8,0:0:0:0:
297,29,42042,2,0,P|265:28|234:32,1,62.9999980773926,2|0,0:0|0:0,0:0:0:0:
194,247,42216,2,0,P|201:208|191:169,1,62.9999980773926,2|0,3:2|0:0,0:0:0:0:
133,126,42389,2,0,P|170:110|271:137,1,125.999996154785,2|0,0:0|0:0,0:0:0:0:
68,200,42736,1,2,3:1:0:0:
68,200,43083,5,2,0:0:0:0:
180,222,43256,1,2,0:1:0:0:
335,250,43430,1,2,0:0:0:0:
468,273,43603,6,0,P|467:306|476:368,1,62.9999980773926,2|0,3:2|0:0,0:0:0:0:
495,363,43777,2,0,P|503:308|484:213,1,125.999996154785,2|0,3:2|0:0,0:0:0:0:
232,28,44123,2,0,L|251:279,1,251.999992309571,2|0,3:1|0:0,0:0:0:0:
136,106,44644,1,8,0:0:0:0:
59,340,44817,6,0,P|81:252|-50:130,1,252,2|0,0:0|0:0,0:0:0:0:
4,131,45164,2,0,P|34:136|65:133,1,52.5,2|0,0:0|0:0,0:0:0:0:
134,175,45337,2,0,P|160:174|198:180,1,52.5,2|0,0:0|0:0,0:0:0:0:
266,215,45511,2,0,P|292:214|346:230,1,52.5,2|0,0:0|0:0,0:0:0:0:
452,267,45684,2,0,P|425:267|372:252,1,52.5,2|0,0:0|0:0,0:0:0:0:
271,199,45858,2,0,P|301:189|333:182,1,52.5,2|0,0:0|0:0,0:0:0:0:
453,165,46031,2,0,P|423:154|397:141,1,52.5,2|0,0:0|0:0,0:0:0:0:
257,5,46204,1,0,3:0:0:0:
281,81,46291,1,0,3:0:0:0:
305,161,46378,5,4,3:2:0:0:
368,33,46551,1,2,0:0:0:0:
129,58,46725,1,8,0:0:0:0:
121,272,46898,1,2,3:1:0:0:
121,272,47245,6,0,P|119:223|31:141,1,125.999996154785,0|8,3:0|0:0,0:0:0:0:
269,228,47592,1,0,3:0:0:0:
412,131,47765,1,2,3:2:0:0:
511,309,47938,2,0,P|501:262|502:167,1,125.999996154785,2|0,0:0|0:0,0:0:0:0:
295,21,48285,2,0,P|305:68|304:163,1,125.999996154785,2|0,3:1|0:0,0:0:0:0:
167,264,48632,1,2,3:2:0:0:
188,128,48805,1,2,0:3:0:0:
271,289,48979,1,0,3:0:0:0:
73,136,49152,5,8,3:0:0:0:
245,45,49326,2,0,P|284:37|335:46,1,84,2|0,0:0|0:0,0:0:0:0:
404,208,49499,2,0,P|398:157|407:75,1,105,2|0,0:0|0:0,0:0:0:0:
421,0,49673,2,0,P|417:52|423:104,1,105,2|0,0:0|0:0,0:0:0:0:
386,244,49846,2,0,P|347:180|309:156,1,115.50000352478,2|0,0:0|0:0,0:0:0:0:
166,142,50019,2,0,P|110:151|-29:133,1,168,2|8,0:0|0:0,0:0:0:0:
0,6,50366,1,0,0:0:0:0:
128,260,50540,6,0,B|221:123|224:67|146:-47|45:29|58:111,1,362.250006909371,2|0,0:0|0:0,0:0:0:0:
0,264,50886,2,0,P|3:326|0:401,1,120.750002303124,10|0,0:0|0:0,0:0:0:0:
211,345,51060,2,0,P|309:324|400:113,1,283.499991348267,2|0,0:0|0:0,0:0:0:0:
348,118,51407,6,0,L|339:46,1,47.2499985580445,2|0,0:0|0:0,0:0:0:0:
301,114,51493,2,0,L|318:53,1,47.2499985580445,2|0,0:0|0:0,0:0:0:0:
253,101,51580,2,0,L|274:41,1,47.2499985580445,2|0,0:0|0:0,0:0:0:0:
200,80,51667,2,0,L|226:22,1,47.2499985580445,2|0,0:0|0:0,0:0:0:0:
127,57,51753,2,0,L|130:7,1,47.2499985580445,2|0,0:0|0:0,0:0:0:0:
47,70,51840,2,0,L|27:18,1,47.2499985580445,2|0,0:0|0:0,0:0:0:0:
0,145,51927,6,0,L|250:238,1,236.250009012223,12|0,0:0|0:0,0:0:0:0:
321,249,52274,2,0,L|152:301,1,157.500006008148,10|0,0:2|0:0,0:0:0:0:
34,327,52621,1,0,0:0:0:0:
11,238,52794,2,0,P|2:191|2:115,1,94.499997116089,2|0,3:2|0:0,0:0:0:0:
130,376,52967,1,8,0:0:0:0:
193,216,53141,2,0,P|207:170|242:103,1,94.499997116089,2|0,0:0|0:0,0:0:0:0:
375,0,53314,6,0,L|400:345,1,315.000012016297,0|8,3:0|0:0,0:0:0:0:
492,238,53834,1,0,3:0:0:0:
493,349,54008,1,2,0:0:0:0:
349,241,54181,1,0,0:0:0:0:
488,142,54355,1,10,0:0:0:0:
278,85,54528,1,2,0:0:0:0:
105,363,54701,6,0,L|69:104,1,236.250009012223,0|0,3:0|0:0,0:0:0:0:
27,49,55048,2,0,L|4:226,1,157.500006008148,10|0,0:2|0:0,0:0:0:0:
0,303,55395,1,0,3:0:0:0:
182,254,55568,2,0,P|227:247|322:257,1,94.499997116089,2|0,3:2|0:0,0:0:0:0:
158,237,55742,1,8,0:0:0:0:
361,210,55915,2,0,P|413:213|474:234,1,94.499997116089,2|0,0:0|0:0,0:0:0:0:
491,372,56089,6,0,L|426:45,1,315.000012016297,0|8,3:0|0:0,0:0:0:0:
189,106,56609,2,0,P|80:124|178:34,1,315.000012016297,0|0,3:0|0:0,0:0:0:0:
314,227,57129,2,0,P|320:311|316:395,1,157.500006008148,10|0,0:2|0:0,0:0:0:0:
79,254,57476,6,0,L|345:223,1,236.250009012223,4|0,3:2|0:0,0:0:0:0:
401,201,57823,2,0,L|224:143,1,157.500006008148,10|0,0:0|0:0,0:0:0:0:
90,108,58170,1,2,3:2:0:0:
170,34,58343,2,0,P|214:22|276:42,1,94.499997116089
69,19,58516,1,8,0:0:0:0:
373,17,58690,2,0,P|387:58|381:125,1,94.499997116089,2|0,0:0|0:0,0:0:0:0:
358,345,58863,6,0,P|378:200|333:3,1,315.000012016297,0|8,3:0|0:0,0:0:0:0:
250,214,59384,2,0,L|454:207,1,157.500006008148,2|0,3:2|0:0,0:0:0:0:
121,335,59730,2,0,L|325:328,1,157.500006008148,10|0,0:0|0:0,0:0:0:0:
185,34,60077,5,0,0:0:0:0:
13,253,60251,2,0,P|38:180|-8:73,1,188.999994232178,2|0,3:2|0:0,0:0:0:0:
282,321,60597,2,0,P|257:248|303:141,1,188.999994232178,10|0,0:0|0:0,0:0:0:0:
424,66,60944,1,0,3:0:0:0:
185,53,61118,2,0,P|134:52|29:83,1,94.499997116089,2|0,3:2|0:0,0:0:0:0:
408,231,61291,1,8,0:0:0:0:
169,218,61464,2,0,P|118:217|13:248,1,94.499997116089,2|0,3:2|0:0,0:0:0:0:
270,367,61638,6,0,P|281:181|265:17,1,283.499991348267,2|0,3:2|0:0,0:0:0:0:
185,232,61985,2,0,P|91:240|0:220,1,188.999994232178,8|0,0:0|0:0,0:0:0:0:
383,78,62331,1,0,3:0:0:0:
388,335,62505,1,8,0:0:0:0:
108,332,62678,1,8,3:0:0:0:
151,128,62852,1,8,3:0:0:0:
243,316,63025,1,8,0:0:0:0:
253,42,63199,6,0,P|210:26|77:20,1,110.249996635437,2|0,3:2|0:0,0:0:0:0:
42,185,63372,2,0,P|123:248|237:184,1,220.499993270874,2|8,3:2|0:0,0:0:0:0:
449,29,63719,2,0,P|472:83|475:183,1,110.249996635437,2|0,3:2|0:0,0:0:0:0:
382,289,63892,1,10,3:2:0:0:
331,205,63979,1,8,0:0:0:0:
379,127,64066,1,8,0:0:0:0:
257,352,64239,5,2,0:3:0:0:
256,192,64412,12,0,65713,0:0:0:0:
161,244,65790,5,2,0:0:0:0:
263,101,65960,1,2,0:0:0:0:
364,250,66130,1,2,0:0:0:0:
91,374,66667,6,0,P|45:361|4:294,1,105,2|0,0:0|0:0,0:0:0:0:
179,384,66840,2,0,P|267:242|231:79,1,315,2|0,0:0|0:0,0:0:0:0:
146,106,67187,6,0,B|215:34|321:41|321:41|306:88|209:113,1,293.999991027832,4|8,3:2|0:0,0:0:0:0:
35,317,67707,2,0,P|37:242|-15:177,1,146.999995513916,2|0,3:1|0:0,0:0:0:0:
202,320,68054,1,2,3:2:0:0:
349,147,68227,1,8,0:0:0:0:
487,311,68401,6,0,L|472:220,1,73.4999977569581,2|0,3:2|0:0,0:0:0:0:
456,120,68574,1,0,3:0:0:0:
284,280,68748,2,0,L|269:189,1,73.4999977569581,2|0,0:2|0:0,0:0:0:0:
253,89,68921,1,10,0:0:0:0:
81,249,69094,2,0,L|66:158,1,73.4999977569581,2|0,3:1|0:0,0:0:0:0:
50,58,69268,1,0,3:0:0:0:
190,352,69441,5,2,3:2:0:0:
425,285,69615,1,10,0:2:0:0:
358,43,69788,1,2,3:2:0:0:
186,337,69962,5,6,3:2:0:0:
119,98,70135,1,2,0:0:0:0:
113,149,70222,1,2,0:0:0:0:
69,176,70308,1,8,0:0:0:0:
324,148,70482,2,0,P|392:140|471:189,1,146.999995513916,2|0,3:1|0:0,0:0:0:0:
326,278,70829,5,2,0:2:0:0:
266,7,71002,1,10,0:0:0:0:
36,110,71175,2,0,L|51:208,1,73.4999977569581,2|0,3:2|0:0,0:0:0:0:
94,384,71349,5,8,3:0:0:0:
512,284,71522,1,8,3:1:0:0:
512,284,71869,6,0,B|466:249|466:249|351:234,1,146.999995513916,4|0,3:2|0:0,0:0:0:0:
310,266,72129,1,2,0:0:0:0:
310,266,72216,1,2,0:0:0:0:
326,127,72389,1,10,0:0:0:0:
310,77,72476,1,2,0:0:0:0:
260,62,72563,1,2,0:0:0:0:
193,87,72649,1,2,0:0:0:0:
164,175,72736,2,0,P|148:244|170:331,1,146.999995513916,4|0,3:2|0:0,0:0:0:0:
429,89,73083,5,8,0:0:0:0:
320,354,73256,2,0,P|335:284|313:197,1,146.999995513916,2|0,3:1|0:0,0:0:0:0:
202,58,73603,1,2,3:2:0:0:
486,25,73777,1,10,0:0:0:0:
512,187,73950,1,2,3:2:0:0:
172,290,74123,6,0,P|102:305|15:283,1,146.999995513916,0|0,3:0|0:0,0:0:0:0:
309,352,74470,1,8,0:0:0:0:
377,41,74644,2,0,P|361:110|383:197,1,146.999995513916,2|0,3:1|0:0,0:0:0:0:
413,338,74990,5,0,3:0:0:0:
461,359,75077,1,0,3:0:0:0:
512,351,75164,1,8,0:0:0:0:
246,105,75337,1,0,3:0:0:0:
195,97,75424,1,0,3:0:0:0:
148,117,75511,2,0,P|132:186|154:273,1,146.999995513916,0|0,3:0|0:0,0:0:0:0:
231,303,75771,2,0,P|233:339|226:387,1,73.4999977569581,2|8,0:0|0:0,0:0:0:0:
450,185,76031,5,2,0:0:0:0:
450,185,76118,1,2,0:0:0:0:
450,185,76204,1,8,3:0:0:0:
293,189,76378,1,8,3:0:0:0:
460,348,76551,1,8,0:0:0:0:
354,69,76725,1,8,3:0:0:0:
61,217,76898,6,0,L|51:119,1,73.4999977569581,8|0,0:0|0:0,0:0:0:0:
181,224,77071,1,2,0:0:0:0:
181,245,77158,1,2,0:0:0:0:
181,267,77245,1,2,0:0:0:0:
181,288,77331,1,2,0:0:0:0:
109,351,77418,6,0,B|147:388|147:388|354:366,1,210,12|0,0:0|0:0,0:0:0:0:
348,365,77678,1,2,0:0:0:0:
378,324,77765,1,2,0:0:0:0:
384,271,77852,1,2,0:0:0:0:
361,219,77938,2,0,L|285:225,1,52.5,8|0,3:2|0:0,0:0:0:0:
349,164,78025,2,0,L|281:147,1,52.5,2|0,3:2|0:0,0:0:0:0:
358,102,78112,2,0,L|294:65,1,52.5,2|0,3:2|0:0,0:0:0:0:
393,39,78199,2,0,L|347:-5,1,52.5,2|0,3:2|0:0,0:0:0:0:
502,0,78285,6,0,B|524:97|487:146|487:146|439:96|452:-17,1,293.999991027832,4|8,3:2|0:0,0:0:0:0:
170,5,78805,1,2,3:1:0:0:
95,142,78979,1,8,3:0:0:0:
232,217,79152,1,8,3:0:0:0:
332,40,79326,1,8,0:0:0:0:
332,40,79499,1,0,0:0:0:0:
397,338,79673,5,4,3:2:0:0:
512,191,79846,2,0,P|452:218|337:192,1,146.999995513916,2|8,0:0|0:0,0:0:0:0:
10,102,80193,2,0,L|112:108,1,73.4999977569581,2|0,3:1|0:0,0:0:0:0:
211,202,80366,5,8,3:0:0:0:
52,314,80540,2,0,P|33:345|27:381,1,73.4999977569581,8|0,3:0|0:0,0:0:0:0:
242,113,80713,2,0,P|242:76|230:42,1,73.4999977569581,10|0,0:2|0:0,0:0:0:0:
374,352,80886,2,0,P|417:350|458:329,1,73.4999977569581,8|0,3:0|0:0,0:0:0:0:
491,106,81060,5,2,3:2:0:0:
458,89,81147,1,2,0:0:0:0:
415,80,81233,1,2,0:0:0:0:
368,93,81320,1,2,0:0:0:0:
320,150,81407,1,10,0:0:0:0:
279,219,81493,1,2,0:0:0:0:
195,222,81580,1,2,0:1:0:0:
121,166,81667,1,2,0:0:0:0:
116,76,81753,5,0,0:0:0:0:
231,139,81927,1,2,0:0:0:0:
92,330,82100,1,10,0:0:0:0:
2,56,82274,1,2,0:0:0:0:
397,43,82447,5,8,3:0:0:0:
300,340,82621,1,8,3:0:0:0:
300,340,82967,6,0,L|287:229,1,73.4999977569581,12|0,0:2|0:0,0:0:0:0:
280,173,83141,1,0,3:0:0:0:
275,144,83227,1,0,3:0:0:0:
270,114,83314,1,0,3:0:0:0:
266,84,83401,1,0,3:0:0:0:
247,1,83488,5,8,0:0:0:0:
218,7,83574,1,0,3:0:0:0:
175,84,83661,5,8,0:0:0:0:
146,90,83748,1,0,3:0:0:0:
77,157,83834,5,2,3:2:0:0:
485,66,84181,1,2,0:0:0:0:
98,308,84528,1,2,0:0:0:0:
512,202,84874,1,2,0:0:0:0:
176,71,85221,5,2,0:0:0:0:
297,371,85568,1,2,0:0:0:0:
361,98,85915,1,2,0:0:0:0:
149,252,86262,1,2,0:0:0:0:
256,192,86609,5,2,0:0:0:0:
256,192,86696,12,0,88299,0:0:0:0:
208,155,88690,5,8,0:0:0:0:
239,149,88777,1,8,0:0:0:0:
269,143,88863,1,0,3:0:0:0:
300,137,88950,1,8,0:0:0:0:
273,235,89037,5,8,0:0:0:0:
304,229,89123,1,8,0:0:0:0:
334,224,89210,1,8,0:0:0:0:
365,218,89297,1,8,0:0:0:0:
360,313,89384,6,0,B|382:243|382:243|353:132|353:132|385:31,1,251.999992309571,4|8,3:2|0:0,0:0:0:0:
505,124,89904,2,0,P|463:131|412:123,1,62.9999980773926,2|0,0:0|0:0,0:0:0:0:
268,95,90077,1,8,3:0:0:0:
72,159,90251,2,0,P|68:203|76:248,1,78.7500030040742,2|0,0:0|0:0,0:0:0:0:
126,349,90424,1,10,0:0:0:0:
172,181,90597,2,0,P|175:137|167:76,1,99.7499973363877,2|0,0:0|0:0,0:0:0:0:
250,281,90771,6,0,B|321:308|373:271|432:226|515:293,1,251.999992309571,8|8,3:0|0:0,0:0:0:0:
493,278,91291,1,2,0:0:0:0:
122,360,91464,2,0,P|55:338|-11:335,1,125.999996154785,8|2,3:0|0:0,0:0:0:0:
191,192,91811,2,0,P|194:198|227:182,3,57.7500017623902,8|2|2|2,0:0|0:0|0:0|0:0,0:0:0:0:
87,210,91985,2,0,P|84:204|55:223,3,57.7500017623902,0|2|2|2,0:0|0:0|0:0|0:0,0:0:0:0:
148,273,92158,5,8,3:0:0:0:
367,256,92331,1,2,0:0:0:0:
311,253,92418,1,2,0:0:0:0:
260,270,92505,1,8,0:0:0:0:
484,384,92678,2,0,P|487:338|472:258,1,78.7500030040742,2|0,0:0|0:0,0:0:0:0:
459,186,92852,1,8,3:0:0:0:
311,253,93025,2,0,P|314:207|299:127,1,78.7500030040742,2|0,0:0|0:0,0:0:0:0:
286,55,93199,1,8,0:0:0:0:
170,329,93372,2,0,P|173:283|158:203,1,78.7500030040742,2|0,0:0|0:0,0:0:0:0:
145,131,93545,5,8,3:0:0:0:
47,198,93719,1,0,0:0:0:0:
249,159,93892,1,8,0:0:0:0:
209,18,94066,1,8,3:0:0:0:
448,119,94239,2,0,B|333:191|252:91|190:95|130:141,1,315.000012016297,2|8,3:0|0:0,0:0:0:0:
260,274,94759,6,0,L|267:364,1,78.7500030040742,2|2,0:0|0:0,0:0:0:0:
278,384,94933,2,0,L|293:117,1,251.999992309571,4|8,3:2|0:0,0:0:0:0:
392,13,95453,2,0,P|422:4|479:10,1,73.4999977569581,2|0,0:0|0:0,0:0:0:0:
512,92,95626,1,8,3:0:0:0:
292,132,95800,2,0,P|262:141|205:135,1,73.4999977569581,2|0,0:0|0:0,0:0:0:0:
166,55,95973,1,8,0:0:0:0:
59,230,96147,2,0,P|50:260|56:317,1,73.4999977569581,2|0,0:0|0:0,0:0:0:0:
106,374,96320,2,0,P|152:260|83:101,1,251.999992309571,2|8,3:2|0:0,0:0:0:0:
237,363,96840,1,2,0:0:0:0:
284,63,97014,5,2,3:2:0:0:
260,150,97100,1,2,0:0:0:0:
302,226,97187,1,2,0:0:0:0:
385,241,97274,1,2,0:0:0:0:
452,207,97360,1,8,0:0:0:0:
450,151,97447,1,2,0:0:0:0:
404,133,97534,1,2,0:0:0:0:
377,159,97621,1,2,0:0:0:0:
369,286,97707,6,0,P|342:145|387:-28,1,293.999991027832,4|8,3:2|0:0,0:0:0:0:
216,53,98227,2,0,P|170:63|125:53,1,73.4999977569581,2|0,0:0|0:0,0:0:0:0:
33,13,98401,1,8,3:0:0:0:
48,238,98574,2,0,P|54:298|47:409,1,146.999995513916,2|8,0:0|0:0,0:0:0:0:
243,170,98921,2,0,P|241:207|244:259,1,73.4999977569581,2|0,0:0|0:0,0:0:0:0:
271,346,99094,5,8,0:0:0:0:
512,324,99268,1,8,3:0:0:0:
449,384,99441,1,8,0:0:0:0:
450,116,99615,1,8,3:0:0:0:
378,255,99788,1,8,0:0:0:0:
374,218,99875,1,8,0:0:0:0:
370,184,99962,1,8,0:0:0:0:
364,136,100048,1,8,0:0:0:0:
356,56,100135,5,8,3:0:0:0:
291,94,100222,1,8,3:0:0:0:
221,132,100308,1,8,3:0:0:0:
149,169,100395,1,8,3:0:0:0:
72,206,100482,5,8,0:0:0:0:
227,218,100655,1,0,0:0:0:0:
145,292,100829,1,10,0:0:0:0:
157,47,101002,1,2,3:2:0:0:
15,121,101175,6,0,P|56:109|106:115,1,73.4999977569581,2|0,0:0|0:0,0:0:0:0:
223,114,101349,2,0,P|296:127|393:108,1,146.999995513916,2|8,0:0|0:0,0:0:0:0:
511,7,101696,1,2,0:0:0:0:
511,7,101782,1,2,0:0:0:0:
511,7,101869,1,0,3:0:0:0:
478,139,102042,1,2,0:0:0:0:
415,384,102389,5,2,3:1:0:0:
415,384,102736,1,0,0:0:0:0:
354,296,102910,1,8,0:0:0:0:
242,280,103083,1,2,0:0:0:0:
152,364,103256,1,0,3:0:0:0:
188,198,103430,1,2,0:0:0:0:
118,49,103603,5,2,0:0:0:0:
0,41,103777,1,2,0:0:0:0:
27,235,103950,1,2,0:0:0:0:
276,352,104297,1,10,0:0:0:0:
407,65,104644,1,2,3:2:0:0:
245,70,104817,1,0,0:0:0:0:
113,9,104990,5,8,0:0:0:0:
407,65,105164,1,2,3:2:0:0:
183,143,105337,1,2,0:0:0:0:
311,192,105511,1,0,0:0:0:0:
214,288,105684,1,10,0:0:0:0:
294,362,105858,1,2,0:0:0:0:
59,362,106031,5,0,3:0:0:0:
100,236,106204,2,0,P|114:183|80:110,1,105,0|0,3:0|0:0,0:0:0:0:
65,6,106551,1,2,3:1:0:0:
65,6,106898,1,2,0:0:0:0:
176,79,107071,1,8,0:0:0:0:
287,23,107245,1,2,0:0:0:0:
398,97,107418,5,2,3:2:0:0:
498,15,107592,1,2,0:0:0:0:
309,105,107765,1,0,0:0:0:0:
491,253,107938,1,2,3:1:0:0:
491,253,108285,1,0,0:0:0:0:
441,357,108459,1,8,0:0:0:0:
326,348,108632,1,0,0:0:0:0:
293,237,108805,1,2,3:2:0:0:
241,98,108979,6,0,P|208:92|151:98,1,84,2|0,0:0|0:0,0:0:0:0:
80,227,109152,2,0,P|81:185|61:102,1,94.499997116089,2|0,0:0|0:0,0:0:0:0:
57,10,109326,2,0,P|56:52|76:135,1,94.499997116089,2|0,0:0|0:0,0:0:0:0:
97,261,109499,2,0,P|125:213|176:170,1,105,2|0,0:0|0:0,0:0:0:0:
313,161,109673,2,0,P|386:180|487:159,1,168,2|8,0:0|0:0,0:0:0:0:
508,44,110019,1,2,0:0:0:0:
465,330,110193,6,0,B|333:365|325:195|424:196|447:140|402:15,1,362.250006909371,2|0,0:0|0:0,0:0:0:0:
261,26,110540,2,0,P|265:90|259:194,1,120.750002303124,10|0,0:0|0:0,0:0:0:0:
75,246,110713,2,0,B|125:267|198:175|152:101|83:131|106:-2,1,283.499991348267,2|0,0:0|0:0,0:0:0:0:
269,290,111060,6,0,L|281:430,1,94.499997116089,2|0,0:3|0:0,0:0:0:0:
219,207,111233,2,0,L|145:187,1,52.5,2|0,0:3|0:0,0:0:0:0:
315,206,111407,1,2,0:0:0:0:
395,196,111493,1,2,0:0:0:0:
472,185,111580,6,0,L|246:98,1,236.250009012223,12|0,0:0|0:0,0:0:0:0:
153,66,111927,1,10,0:2:0:0:
445,51,112100,1,2,3:1:0:0:
445,51,112447,2,0,P|417:30|367:54,1,78.7500030040742,2|0,3:2|0:0,0:0:0:0:
274,151,112621,1,8,0:0:0:0:
133,15,112794,2,0,P|105:-6|55:18,1,78.7500030040742,2|0,0:0|0:0,0:0:0:0:
169,230,112967,6,0,L|225:-20,1,236.250009012223,0|0,3:0|0:0,0:0:0:0:
305,0,113314,2,0,P|340:67|292:126,1,157.500006008148,8|2,0:0|3:1,0:0:0:0:
295,124,113834,1,2,0:0:0:0:
91,146,114008,1,8,0:0:0:0:
369,221,114181,1,2,0:0:0:0:
494,59,114355,6,0,L|442:289,1,236.250009012223,0|0,3:0|0:0,0:0:0:0:
402,380,114701,1,10,0:2:0:0:
239,174,114875,1,2,3:1:0:0:
239,174,115222,2,0,P|200:159|143:182,1,78.7500030040742,2|0,3:2|0:0,0:0:0:0:
293,257,115395,1,8,0:0:0:0:
155,344,115568,2,0,P|116:359|59:336,1,78.7500030040742,2|0,0:0|0:0,0:0:0:0:
302,335,115742,6,0,L|362:22,1,315.000012016297,0|8,3:0|0:0,0:0:0:0:
460,213,116262,2,0,P|321:237|184:144,1,272.999987503052,0|0,3:0|0:0,0:0:0:0:
104,22,116782,1,8,0:2:0:0:
31,361,117129,6,0,L|7:100,1,236.250009012223,4|0,3:2|0:0,0:0:0:0:
0,36,117476,1,10,0:0:0:0:
95,137,117649,1,2,3:2:0:0:
184,31,117823,1,2,0:2:0:0:
283,216,117996,2,0,P|280:167|288:125,1,78.7500030040742,2|0,3:2|0:0,0:0:0:0:
363,24,118170,1,8,0:0:0:0:
455,202,118343,2,0,P|458:153|444:98,1,94.499997116089,2|0,0:0|0:0,0:0:0:0:
470,0,118516,6,0,P|431:149|485:382,1,377.999988464356,0|8,3:0|0:0,0:0:0:0:
179,184,119037,2,0,P|223:178|338:187,1,157.500006008148,2|0,3:2|0:0,0:0:0:0:
273,383,119384,1,2,3:2:0:0:
268,328,119470,1,0,3:0:0:0:
283,277,119557,1,8,0:0:0:0:
363,24,119730,1,2,0:0:0:0:
387,178,119904,6,0,P|297:142|137:171,1,188.999994232178,6|0,3:2|0:0,0:0:0:0:
154,384,120251,2,0,P|118:294|147:134,1,188.999994232178,10|0,0:0|0:0,0:0:0:0:
387,289,120597,1,0,3:0:0:0:
378,67,120771,2,0,P|407:33|459:4,1,94.499997116089,2|0,3:2|0:0,0:0:0:0:
217,287,120944,1,8,0:0:0:0:
226,65,121118,2,0,P|196:31|145:2,1,94.499997116089,2|0,3:2|0:0,0:0:0:0:
1,172,121291,6,0,P|96:217|156:142,1,188.999994232178,2|0,3:2|0:0,0:0:0:0:
157,8,121638,1,8,0:0:0:0:
255,152,121811,1,2,0:0:0:0:
495,63,121985,2,0,P|399:17|340:93,1,188.999994232178,2|0,3:2|0:0,0:0:0:0:
202,222,122244,1,2,0:0:0:0:
218,271,122331,5,8,3:0:0:0:
243,62,122505,1,8,3:0:0:0:
243,62,122678,1,4,3:2:0:0:
415,304,122852,6,0,P|451:326|519:301,1,110.249996635437,10|0,0:2|0:0,0:0:0:0:
191,179,123025,2,0,P|113:130|-2:171,1,220.499993270874,10|0,0:2|0:0,0:0:0:0:
95,384,123372,6,0,P|72:348|98:280,1,110.249996635437,10|0,0:2|0:0,0:0:0:0:
359,191,123545,2,0,P|408:113|367:-2,1,220.499993270874,10|0,0:2|0:0,0:0:0:0:
83,86,123892,2,0,P|123:103|198:86,1,110.249996635437,2|0,0:3|0:0,0:0:0:0:
246,34,124066,5,0,3:0:0:0:
212,353,124239,1,8,0:0:0:0:
212,353,124585,1,0,3:0:0:0:
102,230,124759,5,0,3:0:0:0:
169,21,125019,1,0,3:0:0:0:
488,98,125279,1,0,3:0:0:0:
509,4,125453,5,10,0:0:0:0:
474,293,125626,1,10,0:0:0:0:
330,46,125800,1,10,0:0:0:0:
330,46,126147,5,8,0:0:0:0:
337,87,126233,1,8,0:0:0:0:
344,128,126320,1,0,3:0:0:0:
351,169,126407,1,8,0:0:0:0:
251,161,126493,1,8,0:0:0:0:
245,213,126580,1,8,0:0:0:0:
238,275,126667,1,8,0:0:0:0:
229,347,126753,1,8,0:0:0:0:
324,282,126840,6,0,B|203:219|118:226|118:226|151:275|135:332,1,315.000012016297,4|8,3:2|0:0,0:0:0:0:
420,347,127360,1,2,3:1:0:0:
454,195,127534,6,0,P|463:157|451:66,1,78.7500030040742,0|0,3:0|0:0,0:0:0:0:
244,27,127707,2,0,P|257:63|270:112,1,78.7500030040742,2|0,3:2|0:0,0:0:0:0:
193,251,127881,2,0,P|163:227|131:189,1,78.7500030040742,8|0,0:0|0:0,0:0:0:0:
19,51,128054,1,2,3:2:0:0:
217,384,128227,6,0,P|267:245|165:100,1,315.000012016297,2|10,3:2|0:0,0:0:0:0:
17,169,128748,1,2,3:1:0:0:
324,108,128921,2,0,L|451:115,1,78.7500030040742,0|0,3:0|0:0,0:0:0:0:
121,258,129094,2,0,L|141:142,1,78.7500030040742,2|0,3:2|0:0,0:0:0:0:
218,7,129268,5,10,0:2:0:0:
248,359,129441,1,2,3:2:0:0:
462,216,129615,6,0,P|388:204|267:233,1,157.500006008148,6|2,3:2|0:0,0:0:0:0:
171,305,129875,1,2,0:0:0:0:
146,337,129962,1,8,0:0:0:0:
168,52,130135,2,0,P|156:126|185:247,1,157.500006008148,2|0,3:1|0:0,0:0:0:0:
306,384,130482,2,0,P|292:343|293:292,1,78.7500030040742,2|0,0:2|0:0,0:0:0:0:
295,96,130655,1,10,0:0:0:0:
39,72,130829,1,2,3:2:0:0:
97,384,131002,5,8,3:0:0:0:
295,96,131175,1,8,3:1:0:0:
295,96,131522,2,0,L|100:147,1,157.500006008148,4|0,3:2|0:0,0:0:0:0:
23,167,131782,1,2,0:0:0:0:
23,167,131869,1,2,0:0:0:0:
281,210,132042,5,10,0:0:0:0:
311,231,132129,1,2,0:0:0:0:
334,280,132216,1,2,0:0:0:0:
309,351,132303,1,2,0:0:0:0:
225,361,132389,2,0,P|204:283|209:145,1,157.500006008148,4|0,3:2|0:0,0:0:0:0:
327,72,132736,1,8,0:0:0:0:
52,56,132910,2,0,P|134:69|247:57,1,157.500006008148,2|0,3:1|0:0,0:0:0:0:
446,37,133256,2,0,L|434:141,1,78.7500030040742,2|0,3:2|0:0,0:0:0:0:
422,218,133430,1,10,0:0:0:0:
141,149,133603,2,0,L|153:253,1,78.7500030040742,2|0,3:2|0:0,0:0:0:0:
165,330,133777,6,0,P|224:287|273:171,1,157.500006008148,0|0,3:0|0:0,0:0:0:0:
301,34,134123,1,8,0:0:0:0:
466,257,134297,2,0,P|407:214|358:98,1,157.500006008148,2|0,3:1|0:0,0:0:0:0:
512,107,134644,1,0,3:0:0:0:
346,309,134817,1,8,0:0:0:0:
201,167,134990,1,0,3:0:0:0:
75,373,135164,5,0,3:0:0:0:
32,189,135337,1,0,0:0:0:0:
44,134,135424,1,2,0:0:0:0:
90,101,135511,1,8,0:0:0:0:
309,41,135684,1,2,0:0:0:0:
291,94,135771,1,2,0:0:0:0:
318,146,135858,1,8,3:0:0:0:
494,92,136031,5,8,3:0:0:0:
218,29,136204,1,8,0:0:0:0:
94,262,136378,1,8,3:0:0:0:
482,230,136551,5,8,0:0:0:0:
351,380,136725,2,0,P|380:293|332:136,1,236.250009012223,2|0,0:0|0:0,0:0:0:0:
165,20,137071,6,0,B|137:140|137:140|195:348,1,315,12|2,0:0|0:0,0:0:0:0:
351,380,137418,1,2,0:0:0:0:
328,330,137505,1,2,0:0:0:0:
263,298,137592,1,8,3:2:0:0:
189,324,137678,1,2,3:2:0:0:
117,367,137765,1,2,3:2:0:0:
50,306,137852,1,2,3:2:0:0:
84,206,137938,6,0,B|117:108|256:113|259:190|320:261|153:274|187:205,1,315.000012016297,4|8,3:2|0:0,0:0:0:0:
512,206,138459,2,0,P|441:183|325:206,1,157.500006008148,2|0,3:1|3:0,0:0:0:0:
0,378,138805,2,0,L|78:376,1,78.7500030040742,8|0,3:0|0:0,0:0:0:0:
344,337,138978,2,0,L|267:324,1,78.7500030040742,8|0,0:0|0:0,0:0:0:0:
122,72,139152,2,0,L|131:151,1,78.7500030040742,0|0,3:0|0:0,0:0:0:0:
155,275,139326,5,4,3:2:0:0:
287,152,139499,1,2,3:2:0:0:
436,268,139673,1,8,0:0:0:0:
294,384,139846,1,2,3:1:0:0:
325,77,140019,6,0,P|329:33|316:-24,1,78.7500030040742,8|0,3:0|0:0,0:0:0:0:
167,211,140193,2,0,P|125:234|76:242,1,78.7500030040742,8|0,3:0|0:0,0:0:0:0:
436,268,140366,2,0,P|477:291|526:299,1,78.7500030040742,10|0,0:2|0:0,0:0:0:0:
274,169,140540,1,10,3:2:0:0:
218,111,140626,1,2,0:0:0:0:
136,99,140713,6,0,L|9:139,3,78.7500030040742,2|2|2|2,3:2|0:0|0:0|0:0,0:0:0:0:
206,205,141060,2,0,L|222:378,1,157.500006008148,10|2,0:0|0:1,0:0:0:0:
315,188,141407,6,0,L|381:122,1,78.7500030040742,8|0,3:0|0:0,0:0:0:0:
119,227,141580,2,0,L|33:232,1,78.7500030040742,2|0,3:2|0:0,0:0:0:0:
345,299,141753,2,0,L|428:343,1,78.7500030040742,10|0,0:0|0:0,0:0:0:0:
147,96,141927,2,0,L|117:11,1,78.7500030040742,2|0,3:2|0:0,0:0:0:0:
76,373,142100,5,8,3:0:0:0:
319,26,142274,1,8,3:0:0:0:
319,26,142621,2,0,L|316:113,1,78.7500030040742,2|0,3:0|0:0,0:0:0:0:
396,160,142794,2,0,L|408:327,1,157.500006008148,2|0,3:2|3:0,0:0:0:0:
344,380,143054,5,0,3:0:0:0:
490,327,143141,1,8,0:0:0:0:
123,271,143314,5,2,0:0:0:0:
106,193,143401,1,2,3:2:0:0:
84,115,143488,1,2,3:2:0:0:
308,42,143834,1,2,0:0:0:0:
486,309,144181,1,2,0:0:0:0:
66,276,144528,1,2,0:0:0:0:
428,115,144874,5,2,0:0:0:0:
204,42,145221,1,2,0:0:0:0:
26,309,145568,1,2,0:0:0:0:
446,276,145915,1,2,0:0:0:0:
318,220,146089,5,2,0:0:0:0:
318,220,146175,1,2,0:0:0:0:
318,220,146262,1,4,3:2:0:0:
182,209,146436,1,2,0:0:0:0:
121,216,146522,1,2,0:0:0:0:
67,212,146609,2,0,P|48:214|25:219,6,26.25,8|0|0|0|0|0|0,0:0|0:0|0:0|0:0|0:0|0:0|0:0,0:0:0:0:
207,53,146956,5,2,3:1:0:0:
344,99,147129,1,2,0:0:0:0:
381,129,147216,1,2,0:0:0:0:
438,110,147303,2,0,L|475:102,6,26.25,8|0|0|0|0|0|0,0:0|0:0|0:0|0:0|0:0|0:0|0:0,0:0:0:0:
426,384,147649,5,2,3:1:0:0:
446,207,147823,1,2,0:0:0:0:
465,261,147910,1,0,0:0:0:0:
435,310,147996,1,8,0:0:0:0:
435,310,148083,1,8,0:0:0:0:
435,310,148170,1,8,0:0:0:0:
245,211,148343,5,2,3:1:0:0:
75,239,148516,1,0,0:0:0:0:
215,84,148690,2,0,L|220:-1,1,52.5,10|0,0:0|0:0,0:0:0:0:
150,171,148863,1,0,3:0:0:0:
150,171,148950,1,0,3:0:0:0:
150,171,149037,1,4,3:2:0:0:
280,344,149210,5,2,0:0:0:0:
334,365,149297,1,2,0:0:0:0:
382,340,149384,2,0,L|394:296,2,26.25,10|0|0,0:0|0:0|0:0,0:0:0:0:
387,228,149557,2,0,L|385:183,2,26.25,2|0|0,0:0|0:0|0:0,0:0:0:0:
496,29,149730,5,2,3:1:0:0:
331,53,149904,1,0,0:0:0:0:
274,73,149990,1,0,0:0:0:0:
218,56,150077,2,0,L|174:41,6,26.25,8|0|0|0|0|0|0,0:0|0:0|0:0|0:0|0:0|0:0|0:0,0:0:0:0:
6,27,150424,5,2,3:1:0:0:
65,139,150597,1,2,0:0:0:0:
106,173,150684,1,2,0:0:0:0:
69,236,150771,1,8,0:0:0:0:
69,236,150858,1,8,0:0:0:0:
69,236,150944,1,8,0:0:0:0:
210,380,151118,5,2,3:1:0:0:
294,177,151291,1,0,0:0:0:0:
338,350,151464,2,0,L|329:312,2,26.25,0|0|0,0:0|0:0|0:0,0:0:0:0:
226,262,151638,2,0,L|235:300,2,26.25,0|0|0,0:0|0:0|0:0,0:0:0:0:
417,263,151811,6,0,B|458:187|409:150|356:107|412:23,1,236.250009012223,4|0,3:2|0:0,0:0:0:0:
512,87,152158,2,0,L|467:89,6,39.3750015020371,8|0|0|0|0|0|0,0:0|0:0|0:0|0:0|0:0|0:0|0:0,0:0:0:0:
309,145,152505,5,2,3:1:0:0:
117,44,152678,1,2,0:0:0:0:
138,89,152765,1,2,0:0:0:0:
116,138,152852,2,0,L|91:180,6,39.3750015020371,8|0|0|0|0|0|0,0:0|0:0|0:0|0:0|0:0|0:0|0:0,0:0:0:0:
6,311,153199,5,2,3:1:0:0:
273,312,153372,1,2,0:0:0:0:
225,258,153459,1,2,0:0:0:0:
172,305,153545,1,8,0:0:0:0:
172,305,153632,1,2,0:0:0:0:
172,305,153719,1,2,0:0:0:0:
436,364,153892,5,2,3:1:0:0:
469,121,154066,1,2,3:2:0:0:
381,198,154239,2,0,L|390:266,6,39.3750015020371,10|0|0|0|0|0|0,0:0|0:0|0:0|0:0|0:0|0:0|0:0,0:0:0:0:
325,112,154586,2,0,P|285:96|230:100,1,78.7500030040742,2|0,3:1|0:0,0:0:0:0:
127,86,154759,5,2,0:0:0:0:
130,93,154846,1,2,0:0:0:0:
127,100,154933,1,10,0:0:0:0:
130,107,155019,1,2,0:0:0:0:
126,114,155106,1,2,0:0:0:0:
129,121,155193,1,2,0:0:0:0:
126,128,155279,1,2,3:1:0:0:
129,135,155366,1,2,0:0:0:0:
126,142,155453,1,2,0:0:0:0:
128,149,155540,1,2,0:0:0:0:
146,248,155626,5,10,0:0:0:0:
146,248,155684,1,10,0:0:0:0:
146,248,155741,1,10,0:0:0:0:
146,248,155799,1,10,0:0:0:0:
146,248,155857,1,10,0:0:0:0:
146,248,155915,1,10,0:0:0:0:
146,248,155973,2,0,P|174:288|330:221,1,236.250009012223,2|0,3:1|0:0,0:0:0:0:
315,20,156320,5,8,0:0:0:0:
328,11,156407,1,2,0:0:0:0:
350,4,156493,1,2,0:0:0:0:
381,5,156580,1,2,0:0:0:0:
418,21,156667,1,2,3:1:0:0:
446,55,156753,1,2,0:0:0:0:
449,97,156840,1,2,0:0:0:0:
422,138,156927,1,2,0:0:0:0:
362,178,157014,2,0,P|323:175|300:171,1,39.3750015020371,2|0,0:0|0:0,0:0:0:0:
336,247,157100,2,0,L|272:255,1,39.3750015020371,2|0,0:0|0:0,0:0:0:0:
368,317,157187,2,0,L|313:364,1,39.3750015020371,2|0,0:0|0:0,0:0:0:0:
445,340,157274,2,0,L|445:386,1,39.3750015020371,2|0,0:0|0:0,0:0:0:0:
510,265,157360,6,0,P|383:187|307:282,1,293.999991027832,4|10,3:2|0:0,0:0:0:0:
221,373,157881,1,2,0:0:0:0:
96,85,158054,1,2,3:1:0:0:
25,189,158227,1,2,0:0:0:0:
25,189,158314,1,2,0:0:0:0:
25,189,158401,2,0,P|90:206|189:179,1,146.999995513916,10|0,0:0|0:0,0:0:0:0:
296,23,158748,6,0,B|242:51|240:138|320:142|402:148|407:18,1,293.999991027832,2|10,3:1|0:0,0:0:0:0:
486,189,159268,1,2,0:0:0:0:
265,316,159441,1,2,3:1:0:0:
265,316,159615,2,0,P|258:274|261:232,1,73.4999977569581,2|0,0:0|0:0,0:0:0:0:
146,354,159788,1,8,0:0:0:0:
146,354,159962,2,0,P|139:312|142:270,1,73.4999977569581,2|0,0:0|0:0,0:0:0:0:
127,38,160135,6,0,P|143:94|301:38,1,220.499993270874,2|0,3:1|0:0,0:0:0:0:
336,27,160482,1,10,0:0:0:0:
281,215,160655,1,2,0:0:0:0:
19,264,160829,2,0,P|37:251|200:269,1,146.999995513916,2|0,3:1|0:0,0:0:0:0:
502,287,161175,2,0,P|483:299|321:282,1,146.999995513916,10|0,0:0|0:0,0:0:0:0:
286,20,161522,5,2,3:1:0:0:
256,190,161696,1,0,0:0:0:0:
256,190,161782,1,0,0:0:0:0:
256,190,161869,1,8,0:0:0:0:
421,132,162042,2,0,P|387:123|340:118,1,73.4999977569581
124,105,162216,5,2,3:1:0:0:
201,337,162389,1,2,0:3:0:0:
436,244,162563,2,0,P|397:226|358:321,1,157.5,10|0,0:0|0:0,0:0:0:0:
363,338,162910,6,0,P|259:262|65:319,1,293.999991027832,6|10,3:2|0:0,0:0:0:0:
227,33,163430,1,2,0:0:0:0:
101,168,163603,1,2,3:1:0:0:
322,140,163777,1,0,0:0:0:0:
322,140,163863,1,0,0:0:0:0:
322,140,163950,2,0,B|356:185|356:185|335:309,1,146.999995513916,10|0,0:0|0:0,0:0:0:0:
170,112,164297,6,0,B|246:177|306:113|370:51|479:112,1,293.999991027832,2|10,3:1|0:0,0:0:0:0:
386,340,164817,1,2,3:2:0:0:
389,288,164904,1,0,3:0:0:0:
393,237,164990,1,2,3:1:0:0:
491,364,165164,1,2,0:0:0:0:
280,273,165337,2,0,P|226:292|126:288,1,146.999995513916,10|0,0:0|0:0,0:0:0:0:
77,8,165684,6,0,P|48:80|171:40,1,293.999991027832,2|10,3:1|0:0,0:0:0:0:
413,16,166204,1,2,0:0:0:0:
279,202,166378,1,2,3:1:0:0:
510,283,166551,1,0,0:0:0:0:
510,283,166638,1,0,0:0:0:0:
510,283,166725,2,0,P|442:325|395:273,1,157.5,10|0,0:0|0:0,0:0:0:0:
408,182,167071,6,0,P|374:111|218:120,1,220.499993270874,2|0,3:1|0:0,0:0:0:0:
208,221,167418,2,0,L|223:-35,1,220.499993270874,10|0,0:1|0:0,0:0:0:0:
14,46,167765,1,2,0:0:0:0:
92,67,167852,1,2,0:0:0:0:
120,141,167938,1,2,0:0:0:0:
87,215,168025,1,2,0:0:0:0:
11,245,168112,2,0,L|-36:282,1,36.749998878479,2|0,0:0|0:0,0:0:0:0:
42,315,168199,2,0,L|24:369,1,36.749998878479,2|0,0:0|0:0,0:0:0:0:
116,340,168285,2,0,L|131:387,1,36.749998878479,2|0,0:0|0:0,0:0:0:0:
189,319,168372,2,0,L|229:341,1,36.749998878479,2|0,0:0|0:0,0:0:0:0:
230,240,168458,6,0,P|236:215|244:124,2,105,0|2|0,3:0|0:0|0:0,0:0:0:0:
287,384,168979,1,2,0:0:0:0:
427,288,169152,2,0,P|431:182|449:79,1,210,2|0,0:1|0:0,0:0:0:0:
328,198,169673,1,2,0:0:0:0:
119,43,169846,6,0,P|125:137|126:254,1,210,10|2,0:0|0:0,0:0:0:0:
231,188,170366,1,2,0:0:0:0:
203,334,170540,1,2,0:1:0:0:
305,286,170713,1,2,0:0:0:0:
425,346,170886,2,0,P|413:287|410:218,1,105,8|0,0:0|0:0,0:0:0:0:
435,37,171233,6,0,P|392:44|315:51,1,105,2|0,3:1|0:0,0:0:0:0:
142,76,171580,2,0,L|137:37,2,26.25,8|0|0,0:0|0:0|0:0,0:0:0:0:
109,194,171753,2,0,L|116:228,2,26.25,0|0|0,3:0|0:0|0:0,0:0:0:0:
42,105,171927,1,2,0:1:0:0:
209,161,172100,1,2,0:0:0:0:
302,96,172274,2,0,L|344:90,6,26.25,8|0|0|0|0|0|0,0:0|0:0|0:0|0:0|0:0|0:0|0:0,0:0:0:0:
391,38,172621,5,2,3:1:0:0:
366,177,172794,1,8,0:0:0:0:
494,343,172967,1,8,0:0:0:0:
512,313,173054,1,2,0:0:0:0:
505,280,173141,1,2,0:0:0:0:
484,254,173227,1,2,0:0:0:0:
444,246,173314,2,0,P|396:260|339:273,1,105,2|0,0:1|0:0,0:0:0:0:
80,259,173661,2,0,P|129:266|186:278,1,105,8|0,0:0|0:0,0:0:0:0:
262,363,174008,6,0,B|300:296|209:213|260:141,1,210,4|2,3:2|0:0,0:0:0:0:
430,46,174528,2,0,P|351:56|203:36,1,210,2|0,3:2|0:0,0:0:0:0:
101,14,175048,2,0,L|105:42,6,26.25,8|0|0|0|0|0|0,0:0|0:0|0:0|0:0|0:0|0:0|0:0,0:0:0:0:
53,208,175395,6,0,P|121:137|223:169,1,210,2|0,3:1|0:0,0:0:0:0:
286,373,175915,2,0,L|287:306,1,52.5,2|0,0:0|0:0,0:0:0:0:
290,233,176089,2,0,L|408:205,1,105,2|0,3:1|0:0,0:0:0:0:
491,94,176436,2,0,L|484:137,6,26.25,8|0|0|0|0|0|0,0:0|0:0|0:0|0:0|0:0|0:0|0:0,0:0:0:0:
493,203,176782,6,0,P|454:112|515:12,1,210,2|0,3:1|0:0,0:0:0:0:
345,113,177303,2,0,P|286:117|222:110,1,105,0|0,3:0|0:0,0:0:0:0:
125,262,177649,2,0,P|134:211|138:151,1,105,8|0,0:0|0:0,0:0:0:0:
71,79,177996,1,2,0:0:0:0:
247,239,178170,6,0,B|244:262|244:262|258:290,3,52.5,2|0|0|0,3:1|0:0|0:0|0:0,0:0:0:0:
432,360,178516,2,0,B|435:337|435:337|421:309,3,52.5,2|0|0|0,3:1|0:0|0:0|0:0,0:0:0:0:
338,331,178863,1,2,0:0:0:0:
337,288,178950,1,2,0:0:0:0:
347,247,179037,1,2,0:0:0:0:
368,210,179123,1,2,0:0:0:0:
399,175,179210,1,2,0:0:0:0:
420,123,179297,1,2,0:0:0:0:
418,70,179384,1,2,0:0:0:0:
375,24,179470,1,2,0:0:0:0:
294,11,179557,6,0,P|251:97|275:227,1,210,4|8,3:2|0:0,0:0:0:0:
168,357,180077,2,0,P|170:305|168:253,1,105,2|0,3:2|0:0,0:0:0:0:
76,177,180424,1,2,0:0:0:0:
20,284,180597,2,0,L|21:238,6,26.25,8|0|0|0|0|0|0,0:0|0:0|0:0|0:0|0:0|0:0|0:0,0:0:0:0:
55,63,180944,5,2,3:1:0:0:
174,109,181118,1,2,0:0:0:0:
174,109,181204,1,2,0:0:0:0:
174,109,181291,2,0,L|247:104,1,52.5,2|0,0:0|0:0,0:0:0:0:
336,112,181464,2,0,L|393:123,1,52.5,2|0,0:0|0:0,0:0:0:0:
501,99,181638,1,2,0:1:0:0:
157,317,181985,5,8,0:0:0:0:
260,210,182158,1,0,3:0:0:0:
259,251,182245,1,0,3:0:0:0:
257,292,182331,2,0,P|351:338|439:277,1,210,2|0,3:1|0:0,0:0:0:0:
350,109,182852,2,0,L|363:227,1,105,2|8,0:0|0:0,0:0:0:0:
41,30,183199,6,0,B|74:114|-18:181|53:285,1,236.250009012223,4|0,3:0|0:0,0:0:0:0:
38,25,183545,2,0,B|-20:134|151:214|78:353,1,315.000012016297,4|0,3:0|0:0,0:0:0:0:
246,231,184066,1,2,0:0:0:0:
279,205,184152,1,2,0:0:0:0:
321,205,184239,1,2,0:0:0:0:
360,219,184326,1,2,0:0:0:0:
387,250,184412,1,2,0:0:0:0:
409,350,184586,1,0,0:0:0:0:
475,280,184759,1,2,0:0:0:0:
313,350,184933,1,2,0:0:0:0:
247,108,185106,6,0,P|262:181|232:318,1,210,4|0,3:2|0:0,0:0:0:0:
139,365,185626,1,2,3:2:0:0:
92,186,185800,2,0,P|96:246|107:304,1,105,10|0,0:0|0:0,0:0:0:0:
179,198,186147,2,0,P|174:137|164:80,1,105,10|0,0:0|0:0,0:0:0:0:
304,32,186493,6,0,P|395:19|530:36,1,210,2|8,3:1|0:0,0:0:0:0:
491,68,186927,1,2,0:0:0:0:
473,106,187014,1,2,0:0:0:0:
470,147,187100,1,2,0:0:0:0:
486,185,187187,1,0,0:1:0:0:
487,299,187360,1,0,0:0:0:0:
340,219,187534,1,2,0:0:0:0:
486,335,187707,1,2,0:0:0:0:
111,133,187881,6,0,B|117:44|35:-20|35:-20|-32:103|42:163|108:184|108:184|276:231|319:23|252:-31|504:-24|430:148,1,918.75,2|0,3:1|0:0,0:0:0:0:
215,271,189268,2,0,B|131:248|23:344|72:426|261:382|228:270|228:270|293:165|445:216|507:307|530:259|665:93|424:92|305:161,1,918.75,2|0,3:1|0:0,0:0:0:0:
17,222,190655,2,0,B|-128:2|120:-126|309:-70|507:98|236:265|125:256|56:206|-21:91|110:38|182:91,1,918.75,4|0,3:2|0:0,0:0:0:0:
376,112,192042,5,2,3:2:0:0:
333,198,192216,1,2,0:0:0:0:
394,278,192389,1,10,0:0:0:0:
342,365,192563,1,2,3:2:0:0:
498,292,192736,6,0,L|505:241,1,26.25,8|8,0:0|0:0,0:0:0:0:
258,266,192910,2,0,L|251:172,1,78.7500030040742,8|0,0:0|0:0,0:0:0:0:
2,276,193083,2,0,L|-21:172,3,94.499997116089,2|2|0|2,0:0|0:0|0:0|0:0,0:0:0:0:
137,87,193430,6,0,B|253:32|375:55|375:55|399:104|378:179,1,357.000006809235,4|8,3:2|0:0,0:0:0:0:
147,230,193950,1,2,3:1:0:0:
431,296,194123,2,0,P|346:285|260:309,1,157.500006008148,0|2,0:0|3:2,0:0:0:0:
161,374,194470,1,8,0:0:0:0:
15,260,194644,1,2,3:2:0:0:
346,175,194817,5,0,3:0:0:0:
171,100,194990,2,0,P|182:185|158:271,1,157.500006008148,2|10,0:2|0:0,0:0:0:0:
351,20,195337,2,0,P|362:105|338:191,1,157.500006008148,2|0,3:1|3:0,0:0:0:0:
61,47,195684,1,2,3:2:0:0:
144,330,195858,1,10,0:2:0:0:
431,265,196031,1,2,3:2:0:0:
512,0,196204,6,0,L|474:167,1,157.500006008148,6|2,3:2|0:0,0:0:0:0:
449,246,196464,1,2,0:0:0:0:
388,145,196551,1,8,0:0:0:0:
145,348,196725,2,0,P|156:263|132:177,1,157.500006008148,2|0,3:1|3:0,0:0:0:0:
26,16,197071,2,0,L|120:30,1,78.7500030040742,2|0,3:2|0:0,0:0:0:0:
338,97,197245,2,0,L|252:118,1,78.7500030040742,10|0,0:0|0:0,0:0:0:0:
36,296,197418,1,2,3:2:0:0:
415,268,197592,6,0,P|397:248|363:265,2,39.3750015020371,8|0|0,3:0|0:0|0:0,0:0:0:0:
241,348,197765,2,0,P|233:272|267:100,1,236.250009012223,8|0,3:1|0:0,0:0:0:0:
406,118,198112,2,0,B|314:34|188:169|86:57,1,315.000012016297,4|0,3:2|0:0,0:0:0:0:
20,280,198632,1,10,0:0:0:0:
60,294,198719,1,2,0:0:0:0:
126,292,198805,1,2,0:0:0:0:
196,262,198892,1,2,0:0:0:0:
267,284,198979,6,0,P|352:295|438:271,1,157.500006008148,4|0,3:2|0:0,0:0:0:0:
506,210,199326,1,8,0:0:0:0:
131,132,199499,2,0,P|216:143|302:119,1,157.500006008148,2|0,3:1|0:0,0:0:0:0:
461,54,199846,1,0,0:0:0:0:
223,19,200019,1,10,0:0:0:0:
215,255,200193,1,2,3:2:0:0:
38,114,200366,6,0,P|27:199|51:285,1,157.500006008148,0|0,3:0|0:0,0:0:0:0:
286,84,200713,1,8,0:0:0:0:
444,299,200886,6,0,L|456:187,1,78.7500030040742,2|0,3:1|0:0,0:0:0:0:
467,111,201060,1,8,3:0:0:0:
284,242,201233,2,0,L|296:130,1,78.7500030040742,0|0,3:0|0:0,0:0:0:0:
308,54,201407,1,8,0:0:0:0:
136,191,201580,2,0,L|148:79,1,78.7500030040742,0|0,3:0|0:0,0:0:0:0:
159,4,201753,1,4,3:2:0:0:
145,291,201927,5,0,0:0:0:0:
99,322,202014,1,2,0:0:0:0:
48,300,202100,1,8,0:0:0:0:
240,192,202274,1,2,0:0:0:0:
286,161,202360,1,2,0:0:0:0:
337,183,202447,1,8,3:0:0:0:
292,362,202621,1,8,3:0:0:0:
125,146,202794,1,8,0:0:0:0:
467,159,202967,1,8,3:0:0:0:
9,298,203141,5,8,0:0:0:0:
215,274,203314,2,0,P|224:195|219:117,1,157.500006008148,2|0,0:0|0:0,0:0:0:0:
57,43,203661,2,0,B|129:11|129:11|367:48,1,283.499991348267,12|0,0:0|0:0,0:0:0:0:
427,60,204008,1,2,0:0:0:0:
453,97,204094,1,2,0:0:0:0:
457,161,204181,1,8,3:2:0:0:
410,215,204268,1,2,3:2:0:0:
339,237,204355,1,2,3:2:0:0:
253,205,204441,1,2,3:2:0:0:
210,123,204528,6,0,B|250:11|354:27|354:27|393:124|293:191,1,377.999988464356,4|8,3:2|0:0,0:0:0:0:
0,329,205048,1,2,3:1:0:0:
35,124,205222,1,8,3:0:0:0:
198,197,205395,1,8,3:0:0:0:
107,365,205568,1,8,0:0:0:0:
1,224,205742,1,0,0:0:0:0:
453,282,205915,5,4,3:2:0:0:
316,352,206089,2,0,P|327:267|303:181,1,157.500006008148,2|8,0:0|0:0,0:0:0:0:
225,77,206436,1,2,3:1:0:0:
147,272,206609,2,0,L|98:373,1,78.7500030040742,8|0,3:0|0:0,0:0:0:0:
387,136,206782,2,0,L|478:123,1,78.7500030040742,8|0,3:0|0:0,0:0:0:0:
97,68,206956,2,0,L|11:54,1,78.7500030040742,10|0,0:2|0:0,0:0:0:0:
364,0,207129,1,10,3:2:0:0:
276,291,207303,5,4,3:2:0:0:
257,134,207476,1,2,0:0:0:0:
257,134,207563,1,2,0:0:0:0:
257,134,207649,1,10,0:0:0:0:
428,375,207823,2,0,P|417:290|441:204,1,157.500006008148,2|0,0:1|0:0,0:0:0:0:
507,64,208170,5,2,3:2:0:0:
143,6,208343,1,10,0:0:0:0:
51,368,208516,1,2,0:0:0:0:
357,72,208690,6,0,P|391:65|424:68,2,39.3750015020371,8|0|0,3:0|0:0|0:0,0:0:0:0:
276,203,208863,2,0,P|197:224|17:212,1,236.250009012223,8|0,3:0|0:0,0:0:0:0:
9,51,209210,2,0,B|74:157|-62:211|49:372,1,315.000012016297,12|0,0:2|3:0,0:0:0:0:
235,316,209644,1,0,3:0:0:0:
132,373,209730,1,8,0:0:0:0:
448,349,209904,1,8,0:0:0:0:
169,137,210077,6,0,P|153:74|146:-4,1,131.25,2|0,3:2|0:0,0:0:0:0:
338,151,210424,2,0,P|353:88|361:10,1,131.25,2|0,3:2|0:0,0:0:0:0:
128,238,210771,2,0,B|72:226|39:272|-5:247,1,131.25,2|0,3:2|0:0,0:0:0:0:
365,282,211118,2,0,B|420:270|454:316|498:291,1,131.25,2|0,3:2|0:0,0:0:0:0:
176,321,211464,2,0,P|138:337|139:375,1,84,2|0,3:2|0:0,0:0:0:0:
269,330,211811,2,0,P|307:346|306:384,1,84,2|0,3:2|0:0,0:0:0:0:
337,213,212158,5,0,3:0:0:0:
138,113,212331,1,0,3:0:0:0:
162,173,212418,1,0,3:0:0:0:
189,232,212505,1,8,0:0:0:0:
325,19,212678,1,2,3:2:0:0:
297,326,212852,5,0,3:0:0:0:
274,157,213025,1,2,0:0:0:0:
361,279,213199,5,8,0:0:0:0:
209,203,213372,1,2,0:0:0:0:
359,199,213545,5,0,3:0:0:0:
211,283,213719,1,2,0:0:0:0:
291,156,213892,5,8,0:0:0:0:
279,326,214066,1,2,0:0:0:0:
161,117,214239,5,0,3:0:0:0:
185,110,214326,1,2,0:0:0:0:
209,103,214412,1,2,0:0:0:0:
233,96,214499,1,2,0:0:0:0:
257,89,214586,1,2,0:0:0:0:
285,81,214673,1,2,0:0:0:0:
317,72,214759,1,2,0:0:0:0:
353,62,214846,1,2,0:0:0:0:
393,51,214933,5,8,0:0:0:0:
366,88,215019,1,2,0:0:0:0:
356,137,215106,1,2,0:0:0:0:
365,190,215193,1,2,0:0:0:0:
399,237,215279,2,0,L|434:248,1,21,2|0,0:0|0:0,0:0:0:0:
362,303,215366,2,0,L|391:331,1,31.4999990386963,2|0,0:0|0:0,0:0:0:0:
276,321,215452,2,0,L|282:375,1,42,2|0,0:0|0:0,0:0:0:0:
193,293,215539,2,0,L|167:348,1,52.5,2|0,0:0|0:0,0:0:0:0:
169,188,215626,6,0,B|135:66|61:-7|287:-36|376:37|320:132,1,420,4|8,3:2|0:0,0:0:0:0:
186,383,216147,1,2,3:1:0:0:
50,220,216320,2,0,L|27:124,1,78.7500030040742,8|0,3:0|0:0,0:0:0:0:
329,242,216493,2,0,L|376:173,1,78.7500030040742,8|0,3:0|0:0,0:0:0:0:
186,383,216667,1,8,0:0:0:0:
164,100,216840,1,2,0:0:0:0:
447,383,217014,6,0,B|499:293|485:153|317:67|206:177,1,420,4|8,3:2|0:0,0:0:0:0:
233,312,217534,1,2,3:1:0:0:
384,119,217707,2,0,L|500:76,1,78.7500030040742,8|0,3:0|0:0,0:0:0:0:
108,108,217881,2,0,L|8:89,1,78.7500030040742,8|0,3:0|0:0,0:0:0:0:
381,321,218054,5,8,0:0:0:0:
59,303,218227,1,2,0:0:0:0:
239,0,218401,6,0,B|350:96|255:184|154:286|276:398,1,420,4|8,3:2|0:0,0:0:0:0:
500,232,218921,2,0,P|450:204|317:239,1,157.500006008148,2|0,3:1|0:0,0:0:0:0:
66,325,219268,1,0,3:0:0:0:
66,325,219355,1,0,3:0:0:0:
66,325,219441,2,0,L|80:225,1,78.7500030040742,8|0,0:0|0:0,0:0:0:0:
99,35,219615,1,2,0:0:0:0:
381,359,219788,6,0,P|369:314|380:241,1,105,2|0,3:1|0:0,0:0:0:0:
465,78,219962,2,0,L|457:140,1,39.3750015020371,2|0,0:0|0:0,0:0:0:0:
383,95,220048,2,0,L|385:140,1,39.3750015020371,2|0,0:0|0:0,0:0:0:0:
308,118,220135,2,0,L|300:163,1,39.3750015020371,2|0,0:0|0:0,0:0:0:0:
0,219,220308,2,0,P|79:174|218:248,1,236.250009012223,4|0,3:2|0:0,0:0:0:0:
297,296,220655,5,0,3:0:0:0:
293,241,220742,1,0,3:0:0:0:
287,186,220829,1,10,0:0:0:0:
319,112,220915,1,2,0:0:0:0:
400,100,221002,1,2,0:0:0:0:
485,133,221089,1,2,0:0:0:0:
512,216,221175,6,0,B|422:277|311:235|311:235|233:283|293:382,1,357.000006809235,4|0,3:2|0:0,0:0:0:0:
398,0,221696,2,0,P|384:66|404:172,1,157.500006008148,2|8,3:1|3:0,0:0:0:0:
502,59,222042,1,8,3:0:0:0:
296,139,222216,1,8,0:0:0:0:
103,66,222389,1,2,0:0:0:0:
108,348,222563,6,0,P|129:267|92:175,1,157.500006008148,4|0,3:2|0:0,0:0:0:0:
36,135,222823,1,2,0:0:0:0:
36,135,222910,1,10,0:0:0:0:
236,47,223083,1,2,3:1:0:0:
246,275,223256,1,8,3:0:0:0:
239,80,223430,1,8,3:0:0:0:
442,216,223603,5,8,0:0:0:0:
52,121,223777,1,2,0:0:0:0:
455,17,223950,6,0,B|497:96|335:181|458:328,1,315.000012016297,4|8,3:2|0:0,0:0:0:0:
507,173,224470,1,2,0:0:0:0:
341,319,224644,1,8,3:0:0:0:
158,0,224817,6,0,P|166:55|162:112,1,94.499997116089,2|0,3:0|0:0,0:0:0:0:
27,239,224990,2,0,P|117:201|311:241,1,283.499991348267,2|0,3:0|0:0,0:0:0:0:
389,309,225337,1,8,3:0:0:0:
467,9,225511,2,0,P|504:124|470:242,1,236.250009012223,10|0,0:0|0:0,0:0:0:0:
366,120,225858,6,0,B|255:69|255:69|25:102,1,315,4|0,3:2|0:0,0:0:0:0:
21,180,226204,1,2,0:0:0:0:
13,221,226291,1,2,0:0:0:0:
25,268,226378,1,10,0:0:0:0:
69,307,226464,1,2,3:2:0:0:
153,306,226551,1,2,3:2:0:0:
232,270,226638,1,2,3:2:0:0:
318,305,226725,6,0,B|355:269|390:179|368:114|308:79|234:77|202:151|253:214,1,357.000006809235,4|8,3:2|0:0,0:0:0:0:
212,380,227245,1,2,0:0:0:0:
452,220,227418,1,2,3:1:0:0:
157,238,227592,1,2,0:0:0:0:
444,374,227765,1,8,0:0:0:0:
352,79,227938,5,8,3:0:0:0:
324,201,228025,1,8,3:0:0:0:
292,328,228112,1,4,3:2:0:0:
448,127,228285,1,2,0:0:0:0:
183,192,228459,1,8,0:0:0:0:
119,16,228632,1,2,0:0:0:0:
0,226,228805,6,0,L|118:216,1,89.2500017023087,2|0,3:1|0:0,0:0:0:0:
291,194,228979,1,2,0:0:0:0:
39,352,229152,2,0,L|157:342,1,89.2500017023087,8|0,0:0|0:0,0:0:0:0:
330,320,229326,1,2,0:0:0:0:
506,9,229499,6,0,B|416:163|416:163|308:15,1,357.000006809235,4|8,3:2|0:0,0:0:0:0:
127,229,230019,2,0,P|111:157|135:27,1,178.500003404617,2|0,3:1|0:0,0:0:0:0:
309,188,230366,1,8,3:0:0:0:
48,384,230540,1,8,0:0:0:0:
512,382,230713,1,2,0:0:0:0:
483,0,230886,6,0,P|494:42|476:128,1,105,2|0,3:2|0:0,0:0:0:0:
470,265,231060,2,0,P|455:220|438:194,1,52.5,2|0,0:0|0:0,0:0:0:0:
378,268,231147,2,0,P|380:221|372:191,1,52.5,2|0,0:0|0:0,0:0:0:0:
294,264,231233,2,0,P|304:218|302:187,1,52.5,2|0,0:0|0:0,0:0:0:0:
23,336,231407,2,0,L|96:51,1,283.499991348267,4|0,3:2|0:0,0:0:0:0:
182,31,231753,1,8,0:0:0:0:
190,71,231840,1,8,0:0:0:0:
204,133,231927,1,8,0:0:0:0:
379,48,232100,1,2,3:2:0:0:
322,356,232274,6,0,P|389:384|481:347,1,157.500006008148,6|0,3:2|0:0,0:0:0:0:
153,237,232621,2,0,P|104:278|60:375,1,157.500006008148,10|0,0:0|0:0,0:0:0:0:
368,101,232967,2,0,B|406:63|499:97|528:42,1,157.500006008148,2|0,3:2|0:0,0:0:0:0:
199,55,233314,2,0,P|108:64|37:99,1,157.500006008148,10|0,0:0|0:0,0:0:0:0:
361,379,233661,2,0,P|337:333|300:222,1,157.500006008148,2|0,3:2|0:0,0:0:0:0:
333,0,234008,2,0,P|322:64|236:136,1,157.500006008148,10|0,0:0|0:0,0:0:0:0:
21,237,234355,1,0,3:0:0:0:
221,213,234528,1,0,3:0:0:0:
221,213,234615,1,0,3:0:0:0:
221,213,234701,1,8,0:0:0:0:
0,130,234875,1,0,0:0:0:0:
327,135,235048,5,4,3:2:0:0:
184,323,235222,1,2,0:0:0:0:
205,21,235395,1,8,0:0:0:0:
391,371,235568,1,2,0:0:0:0:
331,129,235742,5,0,3:0:0:0:
178,330,235915,1,2,0:0:0:0:
197,5,236089,1,8,0:0:0:0:
399,384,236262,1,2,0:0:0:0:
404,0,236436,5,2,3:2:0:0:
309,73,236522,1,2,0:0:0:0:
309,171,236609,1,2,0:0:0:0:
392,255,236696,1,2,0:0:0:0:
481,278,236782,1,10,0:0:0:0:
512,231,236869,1,2,0:0:0:0:
511,182,236956,1,2,0:0:0:0:
477,148,237042,1,2,0:0:0:0:
434,148,237129,1,2,3:2:0:0:
405,168,237216,1,2,3:2:0:0:
390,197,237303,1,2,3:2:0:0:
389,220,237389,1,2,3:2:0:0:
393,237,237476,1,10,0:2:0:0:
384,264,237563,1,2,3:2:0:0:
343,291,237649,1,2,3:2:0:0:
290,288,237736,1,2,3:2:0:0:
233,252,237823,6,0,P|225:205|229:164,1,78.7500030040742,2|0,0:0|0:0,0:0:0:0:
273,28,238170,2,0,P|284:68|288:106,1,78.7500030040742,2|0,0:0|0:0,0:0:0:0:
139,190,238516,2,0,P|157:152|183:112,1,78.7500030040742,2|0,0:0|0:0,0:0:0:0:
395,175,238863,2,0,P|344:172|310:188,1,78.7500030040742,2|0,0:0|0:0,0:0:0:0:
46,197,239210,6,0,L|63:104,1,78.7500030040742,2|0,0:0|0:0,0:0:0:0:
146,121,239557,2,0,P|102:100|64:112,1,78.7500030040742,2|0,0:0|0:0,0:0:0:0:
311,122,239904,2,0,P|326:89|362:46,1,78.7500030040742,2|0,0:0|0:0,0:0:0:0:
408,240,240251,2,0,P|446:246|500:233,1,78.7500030040742,2|0,0:0|0:0,0:0:0:0:
224,343,240597,6,0,B|153:279|190:215|303:108|206:32,1,315,4|0,3:2|0:0,0:0:0:0:
138,84,241291,1,8,0:0:0:0:
364,156,241464,1,8,3:0:0:0:
30,164,241638,1,8,0:0:0:0:
390,20,241811,1,8,3:0:0:0:
461,346,241985,6,0,L|448:209,1,105,4|0,3:2|0:0,0:0:0:0:
211,40,242331,2,0,L|62:23,1,105,8|0,0:0|0:0,0:0:0:0:
192,384,242678,2,0,L|221:243,1,105,0|0,3:0|0:0,0:0:0:0:
467,80,243025,2,0,L|333:122,1,105,8|0,0:0|0:0,0:0:0:0:
13,167,243372,6,0,L|364:217,1,315,4|0,3:2|0:0,0:0:0:0:
423,151,244066,1,8,0:1:0:0:
298,318,244239,1,8,3:0:0:0:
168,38,244412,1,8,0:0:0:0:
58,337,244586,1,8,3:0:0:0:
291,166,244759,6,0,P|314:113|276:0,1,157.5,4|0,3:2|0:0,0:0:0:0:
70,95,245106,2,0,P|134:111|247:98,1,157.5,10|0,0:2|0:0,0:0:0:0:
401,31,245453,1,8,3:0:0:0:
173,197,245626,1,2,0:0:0:0:
470,290,245800,2,0,P|488:221|458:122,1,157.5,2|0,3:0|0:0,0:0:0:0:
334,230,246147,6,0,P|229:287|44:210,1,315,4|0,3:2|0:0,0:0:0:0:
225,126,246840,1,8,0:0:0:0:
24,330,247014,1,8,3:0:0:0:
23,33,247187,1,8,0:0:0:0:
217,321,247360,1,8,3:0:0:0:
371,26,247534,6,0,L|324:143,1,105,4|0,3:2|0:0,0:0:0:0:
433,376,247881,2,0,L|428:240,1,105,8|0,0:0|0:0,0:0:0:0:
102,178,248227,2,0,L|243:158,1,105,2|0,3:1|0:0,0:0:0:0:
512,185,248574,2,0,L|370:193,1,105,8|0,0:0|0:0,0:0:0:0:
194,341,248921,6,0,L|204:26,1,315,4|0,3:2|0:0,0:0:0:0:
286,42,249615,1,8,0:0:0:0:
92,166,249788,1,8,3:0:0:0:
377,258,249962,1,8,0:0:0:0:
37,357,250135,1,8,3:0:0:0:
319,184,250308,6,0,P|376:160|439:167,1,105,4|0,3:2|0:0,0:0:0:0:
130,255,250655,2,0,P|72:231|10:238,1,105,8|0,0:0|0:0,0:0:0:0:
273,308,251002,1,8,3:0:0:0:
229,95,251175,1,2,0:0:0:0:
249,346,251349,1,8,0:0:0:0:
258,56,251522,1,2,0:0:0:0:
256,192,251696,12,0,255337,0:0:0:0:
256,192,255511,12,2,261407,0:0:0:0:
