osu file format v14

[General]
AudioFilename: Asymmetry.mp3
AudioLeadIn: 0
PreviewTime: 67202
Countdown: 0
SampleSet: Normal
StackLeniency: 0.7
Mode: 0
LetterboxInBreaks: 0
WidescreenStoryboard: 0

[Editor]
DistanceSpacing: 1
BeatDivisor: 2
GridSize: 4
TimelineZoom: 2

[Metadata]
Title:Asymmetry
TitleUnicode:アシンメトリー
Artist:Horie Yui
ArtistUnicode:堀江由衣
Creator:Hanazawa Kana
Version:Normal
Source:K RETURN OF KINGS
Tags:櫛名 アンナ Kushina Anna Opening op full version katsu Yoyupond Hi_Hello Misure ProEzreal __Ag FaiVillager
BeatmapID:918583
BeatmapSetID:410999

[Difficulty]
HPDrainRate:4
CircleSize:3.5
OverallDifficulty:4
ApproachRate:5
SliderMultiplier:1
SliderTickRate:1

[Events]
//Background and Video events
0,0,"02.png",0,0
//Break Periods
2,167980,178372
//Storyboard Layer 0 (Background)
//Storyboard Layer 1 (Fail)
//Storyboard Layer 2 (Pass)
//Storyboard Layer 3 (Foreground)
//Storyboard Sound Samples

[TimingPoints]
681,416.666666666667,4,1,1,50,1,0
11722,428.571428571429,4,1,1,70,1,0
12364,458.015267175573,4,1,1,60,1,0
12822,422.535211267606,4,1,1,60,1,0
13244,468.75,4,1,1,60,1,0
14139,346.820809248555,4,1,1,60,1,0
15873,346.820809248555,4,1,1,60,1,0
17260,-100,4,1,1,50,0,0
29745,-100,4,1,1,40,0,0
51942,-100,4,1,1,50,0,0
67202,-100,4,1,1,70,0,1
83849,-100,4,2,1,30,0,0
86624,-125,4,1,1,30,0,0
88358,-100,4,1,1,5,0,0
89399,-100,4,1,1,60,0,0
100497,-100,4,1,1,40,0,0
119919,-100,4,1,1,50,0,0
126855,-100,4,1,1,70,0,1
143503,-100,4,2,1,60,0,0
146277,-100,4,1,1,60,0,0
168474,-125,4,1,1,40,0,0
184774,-100,4,1,1,50,0,0
190670,-125,4,1,1,60,0,0
192057,-100,4,1,1,60,0,0
193445,-100,4,1,1,70,0,1
237838,-100,4,2,1,40,0,0
240612,-100,4,1,1,50,0,0
251711,-100,4,1,1,30,0,0
252057,-100,4,1,1,40,0,0
255526,-100,4,1,1,5,0,0
255699,-100,4,1,1,30,0,0
261422,-100,4,1,1,5,0,0

[Colours]
Combo1 : 152,164,248
Combo2 : 243,97,97
Combo3 : 104,137,174
Combo4 : 254,210,107

[HitObjects]
220,324,15873,6,0,L|100:324,1,100,0|8,0:0|0:0,0:0:0:0:
52,248,16566,2,0,P|88:196|84:148,1,100,0|8,0:0|0:0,0:0:0:0:
80,60,17260,6,0,P|136:56|194:82,1,100
176,172,17953,2,0,P|228:168|276:128,1,100,0|8,0:0|0:0,0:0:0:0:
328,60,18647,1,0,0:0:0:0:
404,124,18994,1,0,0:0:0:0:
364,216,19341,1,0,0:0:0:0:
264,208,19688,1,8,0:0:0:0:
234,112,20034,6,8,P|186:88|122:80,1,100,0|8,0:0|0:0,0:0:0:0:
41,66,20728,2,0,P|57:122|97:162,1,100,0|8,0:0|0:0,0:0:0:0:
170,204,21422,1,0,0:0:0:0:
253,149,21768,1,0,0:0:0:0:
331,211,22115,1,0,0:0:0:0:
400,139,22462,1,8,0:0:0:0:
427,235,22809,6,8,P|419:283|376:323,1,100,0|8,0:0|0:0,0:0:0:0:
292,276,23503,2,0,P|228:288|184:312,1,100,0|8,0:0|0:0,0:0:0:0:
108,344,24196,1,0,0:0:0:0:
28,284,24543,1,0,0:0:0:0:
28,184,24890,1,0,0:0:0:0:
92,104,25237,1,8,0:0:0:0:
192,84,25583,5,0,0:0:0:0:
188,184,25930,2,0,L|136:196,2,50
288,176,26624,1,8,0:0:0:0:
260,272,26971,2,0,P|215:295|156:296,1,100
76,252,27664,2,0,P|52:196|40:124,1,100,0|8,0:0|0:0,0:0:0:0:
32,60,28358,1,12,0:0:0:0:
4,312,29745,6,0,P|68:356|152:332,2,150,0|8|0,0:0|0:0|0:0,0:0:0:0:
88,256,31133,2,0,P|144:196|232:196,2,150,0|8|0,0:0|0:0|0:0,0:0:0:0:
184,288,32520,2,0,P|256:324|332:308,1,150,0|8,0:0|0:0,0:0:0:0:
504,152,33907,6,0,P|449:144|380:148,1,100
308,168,34601,1,8,0:0:0:0:
240,108,34948,1,0,0:0:0:0:
312,40,35294,2,0,B|384:8|488:32,2,150,0|8|0,0:0|0:0|0:0,0:0:0:0:
280,136,36682,2,0,P|200:104|152:56,2,150,0|8|0,0:0|0:0|0:0,0:0:0:0:
380,116,38069,2,0,P|364:196|288:240,2,150,0|8|0,0:0|0:0|0:0,0:0:0:0:
280,132,39456,6,0,P|216:120|168:128,1,100,0|8,0:0|0:0,0:0:0:0:
204,224,40150,2,0,P|144:224|76:192,1,100,0|8,0:0|0:0,0:0:0:0:
28,148,40844,6,0,P|56:72|132:16,2,150,0|8|0,0:0|0:0|0:0,0:0:0:0:
124,180,42231,2,0,P|100:252|36:312,2,150,0|8|0,0:0|0:0|0:0,0:0:0:0:
132,80,43618,2,0,P|196:108|219:201,2,150,0|8|0,0:0|0:0|0:0,0:0:0:0:
40,44,45005,6,0,P|32:96|66:156,1,100,0|8,0:0|0:0,0:0:0:0:
98,226,45699,2,0,L|206:246,1,100,0|8,0:0|0:0,0:0:0:0:
284,208,46393,6,0,P|368:204|420:124,2,150,0|8|0,0:0|0:0|0:0,0:0:0:0:
320,112,47780,2,0,P|324:44|384:-12,2,150,0|8|0,0:0|0:0|0:0,0:0:0:0:
416,84,49167,2,0,P|460:96|516:128,1,100,0|8,0:0|0:0,0:0:0:0:
432,204,49861,2,0,P|368:184|312:192,1,100,0|8,0:0|0:0,0:0:0:0:
240,216,50555,5,0,0:0:0:0:
252,116,50901,1,0,0:0:0:0:
252,116,51075,2,0,P|256:72|232:16,1,100
187,6,51595,1,8,0:0:0:0:
182,105,51942,6,0,L|165:212,1,100,0|8,0:0|0:0,0:0:0:0:
133,242,52462,1,0,0:0:0:0:
93,268,52636,2,0,P|52:228|36:188,1,100,0|8,0:0|0:0,0:0:0:0:
36,88,53329,6,0,P|52:36|92:-4,1,100,0|8,0:0|0:0,0:0:0:0:
129,17,53849,1,0,0:0:0:0:
152,64,54023,2,0,P|216:80|268:80,1,100,0|8,0:0|0:0,0:0:0:0:
340,120,54716,6,0,L|408:228,1,100,0|8,0:0|0:0,0:0:0:0:
375,251,55237,1,0,0:0:0:0:
352,296,55410,2,0,P|268:316|228:288,1,100,0|8,0:0|0:0,0:0:0:0:
171,263,56104,2,0,P|85:301|64:376,2,150,0|8|0,0:0|0:0|0:0,0:0:0:0:
232,200,57491,6,0,P|264:140|260:100,1,100,0|8,0:0|0:0,0:0:0:0:
244,64,58011,1,0,0:0:0:0:
196,52,58185,2,0,L|92:64,1,100,0|8,0:0|0:0,0:0:0:0:
44,148,58878,2,0,P|102:154|152:192,1,100,0|8,0:0|0:0,0:0:0:0:
152,224,59399,2,0,L|264:264,1,100
292,240,59919,1,8,0:0:0:0:
392,240,60266,6,0,P|373:297|328:336,1,100,0|8,0:0|0:0,0:0:0:0:
252,364,60959,2,0,P|183:357|130:337,1,100,0|8,0:0|0:0,0:0:0:0:
120,310,61479,1,0,0:0:0:0:
116,259,61653,2,0,L|188:158,1,100,0|8,0:0|0:0,0:0:0:0:
208,92,62346,6,0,P|148:64|84:72,1,100,0|8,0:0|0:0,0:0:0:0:
40,132,63040,2,0,L|-28:132,2,50,0|0|8,0:0|0:0|0:0,0:0:0:0:
104,208,63734,1,0,0:0:0:0:
104,208,63907,2,0,P|186:210|244:152,1,150,8|0,0:0|0:0,0:0:0:0:
449,235,65815,6,0,L|503:226,2,50
316,300,66682,2,0,L|288:236,1,50,0|8,0:0|0:0,0:0:0:0:
240,172,67202,6,0,B|296:160|380:176,1,100,0|8,0:0|0:0,0:0:0:0:
385,188,67722,2,0,P|401:242|372:300,1,100
352,317,68242,1,8,0:0:0:0:
274,253,68589,6,0,P|198:253|138:281,1,100,0|8,0:0|0:0,0:0:0:0:
136,291,69109,2,0,P|78:309|36:303,1,100
9,263,69630,1,8,0:0:0:0:
10,166,69977,6,0,L|130:186,1,100,0|8,0:0|0:0,0:0:0:0:
158,185,70497,2,0,P|177:122|157:86,1,100
117,75,71017,2,0,L|135:0,1,50,8|0,0:0|0:0,0:0:0:0:
178,29,71364,2,0,P|235:39|301:25,1,100,0|8,0:0|0:0,0:0:0:0:
323,16,71884,2,0,P|347:72|352:154,1,100
345,159,72404,1,8,0:0:0:0:
332,258,72751,6,0,P|381:258|441:236,1,100,0|8,0:0|0:0,0:0:0:0:
471,215,73271,2,0,L|480:101,1,100
462,67,73792,1,8,0:0:0:0:
356,48,74138,6,0,P|304:48|242:61,1,100,0|8,0:0|0:0,0:0:0:0:
206,62,74659,2,0,P|182:132|191:193,1,100
221,190,75179,1,8,0:0:0:0:
269,180,75352,1,0,0:0:0:0:
312,208,75526,2,0,B|320:260|300:336,1,100,0|8,0:0|0:0,0:0:0:0:
168,248,76393,6,0,L|176:316,2,50
124,228,76913,2,0,P|144:140|236:116,2,150,0|8|0,0:0|0:0|0:0,0:0:0:0:
24,236,78300,6,0,L|4:128,1,100,0|8,0:0|0:0,0:0:0:0:
20,88,78820,2,0,P|68:40|128:24,1,100
148,28,79341,1,8,0:0:0:0:
156,128,79688,6,0,L|172:244,1,100,0|8,0:0|0:0,0:0:0:0:
164,276,80208,2,0,P|216:320|292:332,1,100
292,312,80728,1,8,0:0:0:0:
304,212,81075,6,0,P|324:156|372:128,1,100,0|8,0:0|0:0,0:0:0:0:
392,100,81595,2,0,L|284:72,1,100
252,48,82115,2,0,L|192:72,1,50,8|0,0:0|0:0,0:0:0:0:
192,116,82462,2,0,P|180:176|144:216,1,100,0|8,0:0|0:0,0:0:0:0:
112,224,82982,2,0,L|36:128,1,100
0,132,83503,1,8,0:0:0:0:
8,232,83849,6,0,L|40:364,1,100
128,360,84543,2,0,P|200:328|224:300,1,100
288,244,85237,2,0,L|412:256,1,100
452,176,85930,2,0,L|344:164,1,100
276,140,86624,6,0,P|428:76|288:56,1,400
44,176,89399,6,0,L|160:176,1,100,0|8,0:0|0:0,0:0:0:0:
228,232,90092,2,0,L|344:204,1,100,0|8,0:0|0:0,0:0:0:0:
404,148,90786,5,0,0:0:0:0:
332,76,91133,1,0,0:0:0:0:
236,96,91479,1,0,0:0:0:0:
136,92,91826,1,8,0:0:0:0:
72,168,92173,6,0,P|128:220|180:240,1,100,0|8,0:0|0:0,0:0:0:0:
212,308,92867,2,0,P|248:248|252:208,1,100,0|8,0:0|0:0,0:0:0:0:
244,120,93560,5,0,0:0:0:0:
184,40,93907,1,0,0:0:0:0:
284,40,94254,1,0,0:0:0:0:
380,20,94601,1,8,0:0:0:0:
436,100,94948,6,0,P|416:176|392:220,1,100,0|8,0:0|0:0,0:0:0:0:
316,240,95641,2,0,P|316:188|332:144,1,100,0|8,0:0|0:0,0:0:0:0:
368,56,96335,5,0,0:0:0:0:
272,32,96682,1,0,0:0:0:0:
172,40,97029,1,0,0:0:0:0:
96,104,97375,1,8,0:0:0:0:
68,200,97722,6,0,B|128:224|192:224,1,100,0|8,0:0|0:0,0:0:0:0:
260,192,98416,2,0,B|268:252|236:304,1,100,0|8,0:0|0:0,0:0:0:0:
188,372,99109,5,0,0:0:0:0:
104,320,99456,1,0,0:0:0:0:
168,244,99803,1,0,0:0:0:0:
116,160,100150,1,8,0:0:0:0:
175,79,100497,6,0,P|256:120|267:212,2,150,0|8|0,0:0|0:0|0:0,0:0:0:0:
176,179,101884,2,0,P|116:243|124:329,2,150,0|8|0,0:0|0:0|0:0,0:0:0:0:
211,272,103271,5,0,0:0:0:0:
310,278,103618,1,0,0:0:0:0:
296,180,103965,1,0,0:0:0:0:
393,202,104312,1,8,0:0:0:0:
424,108,104659,2,0,L|496:108,2,50
384,76,105179,2,0,P|315:100|256:160,1,150,8|0,0:0|0:0,0:0:0:0:
164,124,106046,6,0,P|168:196|232:252,2,150,0|8|0,0:0|0:0|0:0,0:0:0:0:
260,152,107433,2,0,P|328:156|388:236,2,150,0|8|0,0:0|0:0|0:0,0:0:0:0:
284,248,108820,2,0,L|168:256,1,100,0|8,0:0|0:0,0:0:0:0:
112,196,109514,2,0,P|104:140|128:88,1,100,0|8,0:0|0:0,0:0:0:0:
204,44,110208,5,0,0:0:0:0:
304,24,110555,1,0,0:0:0:0:
396,76,110901,1,0,0:0:0:0:
436,168,111248,1,8,0:0:0:0:
384,252,111595,6,0,P|328:208|312:152,1,100,0|8,0:0|0:0,0:0:0:0:
291,140,112115,1,0,0:0:0:0:
242,128,112289,2,0,L|130:156,1,100,0|8,0:0|0:0,0:0:0:0:
56,256,112982,6,0,P|120:300|184:292,1,100,0|8,0:0|0:0,0:0:0:0:
188,292,113503,2,0,L|292:324,1,100
332,324,114023,1,8,0:0:0:0:
428,352,114370,6,0,P|428:288|400:248,1,100,0|8,0:0|0:0,0:0:0:0:
381,217,114890,1,0,0:0:0:0:
388,167,115063,2,0,L|420:57,1,100,0|8,0:0|0:0,0:0:0:0:
316,96,115757,2,0,P|260:130|163:127,2,150,0|8|0,0:0|0:0|0:0,0:0:0:0:
234,38,117144,6,0,L|94:16,1,100,0|8,0:0|0:0,0:0:0:0:
85,25,117664,2,0,B|44:80|42:143|43:143,1,100
42,166,118185,1,8,0:0:0:0:
56,264,118531,6,0,L|193:227,1,100,0|8,0:0|0:0,0:0:0:0:
200,223,119052,1,0,0:0:0:0:
242,235,119225,2,0,P|308:202|330:171,1,100,0|8,0:0|0:0,0:0:0:0:
398,116,119919,6,0,L|392:236,1,100,0|8,0:0|0:0,0:0:0:0:
388,315,120612,2,0,P|326:334|281:330,1,100,0|8,0:0|0:0,0:0:0:0:
242,322,121133,1,0,0:0:0:0:
199,296,121306,2,0,L|84:321,1,100,0|8,0:0|0:0,0:0:0:0:
19,259,122000,6,0,L|38:134,1,100,0|8,0:0|0:0,0:0:0:0:
35,60,122693,2,0,L|-25:2,2,50,0|0|8,0:0|0:0|0:0,0:0:0:0:
132,82,123387,1,0,0:0:0:0:
132,82,123560,1,8,0:0:0:0:
258,162,124081,6,0,L|298:126,1,50
345,130,124427,2,0,L|413:184,1,50,0|8,0:0|0:0,0:0:0:0:
423,191,124774,2,0,L|462:70,1,100,0|8,0:0|0:0,0:0:0:0:
365,48,125468,5,0,0:0:0:0:
365,48,125641,1,0,0:0:0:0:
365,48,125815,1,8,0:0:0:0:
215,64,126335,2,0,L|150:92,1,50,0|8,0:0|0:0,0:0:0:0:
95,150,126855,6,0,P|111:207|150:261,1,100,0|8,0:0|0:0,0:0:0:0:
182,242,127375,2,0,P|240:201|294:184,1,100
316,196,127896,1,8,0:0:0:0:
408,236,128242,6,0,L|448:116,1,100,0|8,0:0|0:0,0:0:0:0:
396,112,128763,2,0,P|332:88|312:64,1,100
276,32,129283,1,8,0:0:0:0:
208,108,129630,6,0,L|88:84,1,100,0|8,0:0|0:0,0:0:0:0:
68,64,130150,2,0,P|56:128|28:196,1,100
72,204,130670,2,0,L|132:188,1,50,8|0,0:0|0:0,0:0:0:0:
172,200,131017,2,0,P|172:260|128:316,1,100,0|8,0:0|0:0,0:0:0:0:
136,340,131537,2,0,L|248:340,1,100
280,316,132057,1,8,0:0:0:0:
380,320,132404,6,0,P|414:277|426:233,1,100,0|8,0:0|0:0,0:0:0:0:
408,188,132925,2,0,P|372:148|352:100,1,100
352,56,133445,1,8,0:0:0:0:
252,44,133792,6,0,L|132:72,1,100,0|8,0:0|0:0,0:0:0:0:
152,116,134312,2,0,P|160:180|148:232,1,100
140,264,134832,1,8,0:0:0:0:
148,312,135005,1,0,0:0:0:0:
188,340,135179,2,0,P|280:340|336:288,1,150,0|8,0:0|0:0,0:0:0:0:
380,224,136046,6,0,L|452:216,2,50
340,192,136566,2,0,P|372:146|384:52,2,150,0|8|0,0:0|0:0|0:0,0:0:0:0:
280,112,137953,6,0,L|200:216,1,100,0|8,0:0|0:0,0:0:0:0:
204,240,138474,2,0,P|288:248|320:284,1,100
332,292,138994,1,8,0:0:0:0:
240,332,139341,6,0,L|120:344,1,100,0|8,0:0|0:0,0:0:0:0:
92,348,139861,2,0,P|40:320|24:264,1,100
20,236,140381,1,8,0:0:0:0:
48,140,140728,6,0,P|116:109|172:132,1,100,0|8,0:0|0:0,0:0:0:0:
184,132,141248,2,0,L|228:240,1,100
260,260,141768,2,0,P|320:248|336:232,1,50,8|0,0:0|0:0,0:0:0:0:
336,212,142115,2,0,L|372:80,1,100,0|8,0:0|0:0,0:0:0:0:
408,140,142636,2,0,L|440:276,1,100
420,284,143156,1,8,0:0:0:0:
356,360,143503,6,0,P|288:364|216:360,1,100
252,264,144196,2,0,P|202:263|144:276,1,100
60,304,144890,2,0,L|72:176,1,100
164,172,145583,2,0,P|231:171|288:148,1,100
332,92,146277,5,0,0:0:0:0:
136,248,146971,1,0,0:0:0:0:
104,52,147664,1,8,0:0:0:0:
304,72,148358,2,0,L|320:128,2,50
240,148,149052,5,0,0:0:0:0:
232,348,149745,1,0,0:0:0:0:
420,280,150439,1,8,0:0:0:0:
436,80,151133,2,0,L|380:92,2,50
488,164,151826,5,0,0:0:0:0:
320,276,152520,1,0,0:0:0:0:
276,80,153214,1,8,0:0:0:0:
100,176,153907,2,0,L|148:220,2,50
64,268,154601,5,0,0:0:0:0:
256,328,155294,1,0,0:0:0:0:
304,132,155988,1,8,0:0:0:0:
456,260,156682,1,0,0:0:0:0:
496,64,157375,6,0,P|416:56|360:72,1,100,0|8,0:0|0:0,0:0:0:0:
364,96,157896,1,0,0:0:0:0:
336,136,158069,2,0,P|276:152|212:152,1,100,0|8,0:0|0:0,0:0:0:0:
144,120,158763,6,0,L|184:256,1,100,0|8,0:0|0:0,0:0:0:0:
212,244,159283,1,0,0:0:0:0:
260,236,159456,2,0,P|306:231|364:240,1,100,0|8,0:0|0:0,0:0:0:0:
452,204,160150,6,0,P|448:280|412:328,1,100,0|8,0:0|0:0,0:0:0:0:
392,324,160670,1,0,0:0:0:0:
340,320,160844,2,0,L|228:348,1,100,0|8,0:0|0:0,0:0:0:0:
144,340,161537,5,0,0:0:0:0:
76,264,161884,1,0,0:0:0:0:
88,164,162231,1,0,0:0:0:0:
156,88,162578,1,8,0:0:0:0:
248,52,162925,6,0,L|372:72,1,100,0|8,0:0|0:0,0:0:0:0:
392,92,163445,1,0,0:0:0:0:
420,136,163618,2,0,P|404:192|416:248,1,100,0|8,0:0|0:0,0:0:0:0:
452,324,164312,6,0,L|336:356,1,100,0|8,0:0|0:0,0:0:0:0:
308,336,164832,1,0,0:0:0:0:
292,288,165005,2,0,P|296:240|276:164,1,100,0|8,0:0|0:0,0:0:0:0:
240,100,165699,5,0,0:0:0:0:
328,56,166046,2,0,L|388:64,2,50
240,12,166740,1,8,0:0:0:0:
140,24,167086,5,0,0:0:0:0:
108,120,167433,1,0,0:0:0:0:
168,200,167780,1,8,0:0:0:0:
388,80,179572,6,0,P|404:140|344:236,1,160,0|8,0:0|0:0,0:0:0:0:
204,256,180959,2,0,L|48:204,1,160,0|8,0:0|0:0,0:0:0:0:
204,156,182346,2,0,P|308:244|296:328,1,200,0|8,0:0|0:0,0:0:0:0:
268,368,183560,1,0,0:0:0:0:
380,112,185121,6,0,P|380:168|364:232,1,100,0|8,0:0|0:0,0:0:0:0:
284,264,185815,2,0,P|284:184|296:144,1,100,0|8,0:0|0:0,0:0:0:0:
312,68,186508,1,0,0:0:0:0:
68,332,187896,6,0,P|132:344|188:336,1,100,0|8,0:0|0:0,0:0:0:0:
252,288,188589,2,0,L|224:168,1,100,0|8,0:0|0:0,0:0:0:0:
256,96,189283,1,0,0:0:0:0:
128,200,190670,6,0,P|93:256|212:244,1,240,0|8,0:0|0:0,0:0:0:0:
252,176,192057,2,0,L|248:88,2,50,0|0|8,0:0|0:0|0:0,0:0:0:0:
264,32,192751,2,0,L|336:0,2,50,0|0|8,0:0|0:0|0:0,0:0:0:0:
348,104,193445,6,0,B|360:164|328:236,1,100,0|8,0:0|0:0,0:0:0:0:
292,212,193965,2,0,P|232:224|180:280,1,100
168,284,194485,1,8,0:0:0:0:
80,332,194832,6,0,L|52:208,1,100,0|8,0:0|0:0,0:0:0:0:
64,184,195352,2,0,P|80:120|68:68,1,100
48,44,195873,1,8,0:0:0:0:
148,28,196219,6,0,P|216:36|272:60,1,100,0|8,0:0|0:0,0:0:0:0:
260,96,196740,2,0,P|232:152|232:208,1,100
236,240,197260,2,0,L|312:260,1,50,8|0,0:0|0:0,0:0:0:0:
316,292,197607,2,0,P|280:328|216:332,1,100,0|8,0:0|0:0,0:0:0:0:
184,336,198127,2,0,L|144:216,1,100
160,192,198647,1,8,0:0:0:0:
128,96,198994,6,0,P|80:132|56:192,1,100,0|8,0:0|0:0,0:0:0:0:
60,216,199514,2,0,L|68:324,1,100
96,356,200034,1,8,0:0:0:0:
196,372,200381,6,0,P|240:372|312:328,1,100,0|8,0:0|0:0,0:0:0:0:
316,308,200901,2,0,P|368:288|436:300,1,100
460,296,201422,1,8,0:0:0:0:
500,264,201595,1,0,0:0:0:0:
508,212,201768,6,0,P|472:132|388:108,2,150,0|8|0,0:0|0:0|0:0,0:0:0:0:
407,208,203156,2,0,P|324:224|262:181,2,150,0|8|0,0:0|0:0|0:0,0:0:0:0:
346,128,204543,6,0,P|298:100|242:100,1,100,0|8,0:0|0:0,0:0:0:0:
208,116,205063,2,0,P|152:148|108:160,1,100
68,160,205583,1,8,0:0:0:0:
52,260,205930,6,0,P|116:252|176:276,1,100,0|8,0:0|0:0,0:0:0:0:
188,296,206451,2,0,L|300:264,1,100
320,232,206971,1,8,0:0:0:0:
396,168,207318,6,0,P|404:108|444:56,1,100,0|8,0:0|0:0,0:0:0:0:
396,32,207838,2,0,L|284:52,1,100
248,44,208358,2,0,L|216:124,1,50,8|0,0:0|0:0,0:0:0:0:
196,128,208705,2,0,P|132:144|64:128,1,100,0|8,0:0|0:0,0:0:0:0:
56,116,209225,2,0,L|84:248,1,100
112,248,209745,1,8,0:0:0:0:
204,288,210092,6,0,P|264:284|316:264,1,100,0|8,0:0|0:0,0:0:0:0:
364,192,210786,2,0,L|368:80,1,100,0|8,0:0|0:0,0:0:0:0:
460,56,211479,2,0,L|456:180,1,100,0|8,0:0|0:0,0:0:0:0:
436,252,212173,2,0,P|404:300|368:320,1,100,0|8,0:0|0:0,0:0:0:0:
268,316,212867,5,0,0:0:0:0:
184,260,213214,1,8,0:0:0:0:
276,220,213560,5,0,0:0:0:0:
356,160,213907,1,0,0:0:0:0:
356,60,214254,1,8,0:0:0:0:
324,360,215641,6,0,P|248:348|184:352,1,100,0|8,0:0|0:0,0:0:0:0:
176,340,216162,2,0,P|137:288|100:260,1,100
80,228,216682,1,8,0:0:0:0:
176,204,217029,6,0,P|232:188|280:132,1,100,0|8,0:0|0:0,0:0:0:0:
288,116,217549,2,0,P|340:84|416:64,1,100
428,76,218069,1,8,0:0:0:0:
440,184,218416,6,0,L|412:296,1,100,0|8,0:0|0:0,0:0:0:0:
380,316,218936,2,0,P|312:276|252:284,1,100
244,260,219456,2,0,L|208:224,1,50,8|0,0:0|0:0,0:0:0:0:
208,176,219803,2,0,P|280:160|332:120,1,100,0|8,0:0|0:0,0:0:0:0:
344,124,220323,2,0,L|208:72,1,100
200,84,220844,1,8,0:0:0:0:
107,120,221190,6,0,L|80:235,1,100,0|8,0:0|0:0,0:0:0:0:
83,267,221711,2,0,B|138:296|138:296|187:298,1,100
225,293,222231,1,8,0:0:0:0:
257,198,222578,6,0,L|279:91,1,100,0|8,0:0|0:0,0:0:0:0:
325,87,223098,2,0,P|383:95|422:132,1,100
436,165,223618,1,8,0:0:0:0:
424,213,223792,1,0,0:0:0:0:
409,257,223965,2,0,P|327:276|225:273,1,150,0|8,0:0|0:0,0:0:0:0:
210,191,224832,6,0,L|266:189,2,50
163,209,225352,2,0,P|97:161|87:73,2,150,0|8|0,0:0|0:0|0:0,0:0:0:0:
201,116,226740,6,0,L|338:103,1,100,0|8,0:0|0:0,0:0:0:0:
350,109,227260,2,0,P|394:164|402:199,1,100
424,236,227780,1,8,0:0:0:0:
497,168,228127,6,0,L|500:52,1,100,0|8,0:0|0:0,0:0:0:0:
472,26,228647,2,0,P|408:12|361:19,1,100
325,27,229167,1,8,0:0:0:0:
309,125,229514,6,0,P|288:199|261:228,1,100,0|8,0:0|0:0,0:0:0:0:
228,235,230034,2,0,P|169:210|138:177,1,100
103,155,230555,2,0,L|55:201,1,50,8|0,0:0|0:0,0:0:0:0:
29,223,230901,6,0,L|17:81,1,100,0|8,0:0|0:0,0:0:0:0:
31,74,231422,2,0,B|108:70|167:46,1,100
173,33,231942,1,8,0:0:0:0:
265,72,232289,5,0,0:0:0:0:
303,164,232636,1,8,0:0:0:0:
288,262,232982,1,0,0:0:0:0:
219,335,233329,1,8,0:0:0:0:
136,279,233676,5,0,0:0:0:0:
174,186,234023,1,8,0:0:0:0:
213,93,234370,1,0,0:0:0:0:
253,1,234716,1,8,0:0:0:0:
346,35,235063,6,0,P|403:53|466:46,1,100,0|8,0:0|0:0,0:0:0:0:
475,146,235757,2,0,L|412:269,1,100,0|8,0:0|0:0,0:0:0:0:
329,226,236451,2,0,L|269:340,1,100,0|8,0:0|0:0,0:0:0:0:
198,259,237144,2,0,L|253:161,1,100,0|8,0:0|0:0,0:0:0:0:
240,76,237838,5,0,0:0:0:0:
140,88,238185,2,0,P|112:136|104:188,1,100
152,268,238878,1,0,0:0:0:0:
252,276,239225,2,0,P|260:216|280:164,1,100
332,96,239919,1,0,0:0:0:0:
424,144,240266,1,0,0:0:0:0:
420,244,240612,6,0,P|372:264|308:256,1,100,0|8,0:0|0:0,0:0:0:0:
237,212,241306,2,0,L|201:268,1,50
175,290,241653,2,0,L|111:286,1,50,0|8,0:0|0:0,0:0:0:0:
97,244,242000,6,0,L|144:143,1,100,0|8,0:0|0:0,0:0:0:0:
220,94,242693,1,0,0:0:0:0:
310,135,243040,1,0,0:0:0:0:
406,109,243387,6,0,P|406:157|366:237,1,100,0|8,0:0|0:0,0:0:0:0:
288,200,244081,2,0,L|236:244,1,50
231,278,244427,2,0,L|267:342,1,50,0|8,0:0|0:0,0:0:0:0:
300,344,244774,6,0,P|376:344|432:312,1,100,0|8,0:0|0:0,0:0:0:0:
440,245,245468,2,0,P|416:185|380:145,1,100
294,165,246162,6,0,P|238:181|182:189,1,100,0|8,0:0|0:0,0:0:0:0:
204,88,246855,2,0,L|212:32,1,50
168,12,247202,2,0,L|100:32,1,50,0|8,0:0|0:0,0:0:0:0:
80,64,247549,6,0,P|80:128|96:200,1,100,0|8,0:0|0:0,0:0:0:0:
128,252,248242,1,0,0:0:0:0:
204,188,248589,1,0,0:0:0:0:
300,168,248936,2,0,P|312:232|300:280,1,100,0|8,0:0|0:0,0:0:0:0:
280,364,249630,2,0,L|232:340,1,50
212,296,249977,2,0,L|144:288,1,50,0|8,0:0|0:0,0:0:0:0:
116,280,250323,6,0,P|118:219|142:151,1,100,0|8,0:0|0:0,0:0:0:0:
202,114,251017,2,0,P|250:90|313:92,1,100,0|8,0:0|0:0,0:0:0:0:
392,112,251711,1,0,0:0:0:0:
256,192,252057,12,0,255526,0:0:0:0:
256,192,255699,12,0,261422,0:0:0:0:
