osu file format v14

[General]
AudioFilename: Asymmetry.mp3
AudioLeadIn: 0
PreviewTime: 67202
Countdown: 0
SampleSet: Soft
StackLeniency: 0.7
Mode: 0
LetterboxInBreaks: 0
WidescreenStoryboard: 0

[Editor]
DistanceSpacing: 0.7
BeatDivisor: 4
GridSize: 4
TimelineZoom: 1.9

[Metadata]
Title:Asymmetry
TitleUnicode:アシンメトリー
Artist:Horie Yui
ArtistUnicode:堀江由衣
Creator:Hanazawa Kana
Version:Insane
Source:K RETURN OF KINGS
Tags:櫛名 アンナ Kushina Anna Opening op full version katsu Yoyupond Hi_Hello Misure ProEzreal __Ag FaiVillager
BeatmapID:918582
BeatmapSetID:410999

[Difficulty]
HPDrainRate:6
CircleSize:4
OverallDifficulty:8
ApproachRate:8.5
SliderMultiplier:1.6
SliderTickRate:1

[Events]
//Background and Video events
0,0,"02.png",0,0
//Break Periods
//Storyboard Layer 0 (Background)
//Storyboard Layer 1 (Fail)
//Storyboard Layer 2 (Pass)
//Storyboard Layer 3 (Foreground)
//Storyboard Sound Samples

[TimingPoints]
681,416.666666666667,4,2,1,60,1,0
11722,428.571428571429,4,2,1,60,1,0
12364,458.015267175573,4,2,1,60,1,0
12822,422.535211267606,4,2,1,60,1,0
13244,468.75,4,2,1,60,1,0
14139,346.820809248555,4,2,1,60,1,0
15873,346.820809248555,4,2,1,60,1,0
17260,-100,4,2,1,60,0,0
18647,-100,4,2,1,70,0,0
28358,-100,4,2,1,40,0,0
35294,-100,4,2,1,50,0,0
38936,-100,4,2,1,30,0,0
40844,-100,4,2,1,40,0,0
46393,-100,4,2,1,50,0,0
51942,-100,4,2,1,60,0,0
64254,-100,4,2,1,30,0,0
65468,-100,4,2,1,5,0,0
65815,-100,4,2,1,60,0,0
67202,-100,4,2,1,70,0,1
83849,-100,4,2,1,30,0,0
86624,-200,4,2,1,30,0,0
88705,-100,4,2,1,20,0,0
88792,-100,4,2,1,25,0,0
88878,-100,4,2,1,30,0,0
88965,-100,4,2,1,35,0,0
89052,-100,4,2,1,40,0,0
89138,-100,4,2,1,45,0,0
89225,-100,4,2,1,50,0,0
89312,-100,4,2,1,55,0,0
89399,-100,4,2,1,60,0,0
100497,-100,4,2,1,40,0,0
106046,-100,4,2,1,50,0,0
111595,-100,4,2,1,60,0,0
123907,-100,4,2,1,30,0,0
125468,-100,4,2,1,60,0,0
126855,-100,4,2,1,70,0,1
143503,-100,4,2,1,30,0,0
146277,-100,4,2,1,60,0,0
168474,-200,4,2,1,40,0,0
174023,-200,4,2,1,50,0,0
179572,-200,4,2,1,60,0,0
182000,-200,4,2,1,60,0,0
185121,-200,4,2,1,60,0,0
192057,-200,4,2,1,40,0,0
193445,-100,4,2,1,70,0,1
237838,-100,4,2,1,60,0,0
246162,-100,4,2,1,50,0,0
251711,-100,4,2,1,30,0,0
252057,-100,4,2,1,40,0,0
255526,-100,4,2,1,5,0,0
255699,-100,4,2,1,30,0,0
261422,-100,4,2,1,5,0,0

[Colours]
Combo1 : 152,164,248
Combo2 : 243,97,97
Combo3 : 104,137,174
Combo4 : 254,210,107

[HitObjects]
300,178,15873,6,0,P|251:185|206:176,1,80,2|0,0:0|0:0,0:0:0:0:
91,161,16219,2,0,P|68:192|58:234,1,80,8|0,0:0|0:0,0:0:0:0:
115,341,16566,1,2,0:0:0:0:
142,360,16652,1,0,0:0:0:0:
174,373,16739,1,0,0:0:0:0:
208,379,16826,1,0,0:0:0:0:
242,376,16912,1,8,0:0:0:0:
274,365,16999,1,0,0:0:0:0:
304,348,17086,1,0,0:0:0:0:
328,324,17172,1,0,0:0:0:0:
351,298,17260,6,0,P|368:252|367:210,1,80,2|0,0:0|0:0,0:0:0:0:
176,219,17607,2,0,P|224:235|272:232,1,80,8|0,0:0|0:0,0:0:0:0:
368,221,17953,5,2,0:0:0:0:
245,307,18127,1,0,0:0:0:0:
246,170,18300,1,8,0:0:0:0:
394,324,18474,1,0,0:0:0:0:
484,150,18647,2,0,P|428:132|386:137,1,80,2|0,0:0|0:0,0:0:0:0:
239,102,18994,2,0,P|247:52|285:10,1,80,8|0,0:0|0:0,0:0:0:0:
299,209,19341,2,0,P|255:229|214:232,1,80,2|0,0:0|0:0,0:0:0:0:
44,199,19688,2,0,P|82:172|138:163,1,80,8|0,0:0|0:0,0:0:0:0:
242,155,20034,5,2,0:0:0:0:
146,278,20208,1,0,0:0:0:0:
114,163,20381,1,8,0:0:0:0:
258,280,20555,1,0,0:0:0:0:
251,144,20728,5,2,0:0:0:0:
138,292,20901,1,0,0:0:0:0:
106,148,21075,1,8,0:0:0:0:
267,286,21248,1,0,0:0:0:0:
272,123,21422,6,0,P|230:118|181:126,1,80,2|0,0:0|0:0,0:0:0:0:
84,163,21768,1,8,0:0:0:0:
188,225,21942,1,0,0:0:0:0:
24,308,22115,2,0,L|16:227,1,80,2|0,0:0|0:0,0:0:0:0:
188,225,22462,2,0,P|141:254|105:252,1,80,8|0,0:0|0:0,0:0:0:0:
144,115,22809,6,0,P|188:99|224:99,1,80,2|0,0:0|0:0,0:0:0:0:
235,285,23156,2,0,P|205:262|186:208,1,80,8|0,0:0|0:0,0:0:0:0:
163,52,23503,1,2,0:0:0:0:
123,187,23676,1,0,0:0:0:0:
277,146,23849,1,8,0:0:0:0:
115,190,24023,1,0,0:0:0:0:
286,141,24196,6,0,P|333:130|386:141,1,80,2|0,0:0|0:0,0:0:0:0:
388,279,24543,2,0,P|356:250|342:207,1,80,8|0,0:0|0:0,0:0:0:0:
502,261,24890,2,0,P|507:307|484:352,1,80,2|0,0:0|0:0,0:0:0:0:
309,343,25237,2,0,L|217:298,1,80,8|0,0:0|0:0,0:0:0:0:
149,163,25583,5,2,0:0:0:0:
311,200,25757,1,0,0:0:0:0:
149,163,25930,2,0,B|100:155|41:166,1,80,8|0,0:0|0:0,0:0:0:0:
168,300,26277,5,2,0:0:0:0:
312,200,26451,1,0,0:0:0:0:
168,300,26624,2,0,P|99:313|62:313,1,80,8|0,0:0|0:0,0:0:0:0:
96,96,26971,5,2,0:0:0:0:
228,213,27144,1,2,0:0:0:0:
85,224,27318,1,2,0:0:0:0:
237,94,27491,1,2,0:0:0:0:
67,86,27664,5,2,0:0:0:0:
214,236,27838,1,2,0:0:0:0:
20,261,28011,1,12,0:0:0:0:
20,261,28358,5,0,0:0:0:0:
164,323,28531,1,0,0:0:0:0:
172,300,28705,1,0,0:0:0:0:
180,277,28878,1,0,0:0:0:0:
185,253,29052,1,2,0:0:0:0:
186,229,29225,1,12,0:0:0:0:
65,136,29572,5,0,0:0:0:0:
238,135,29745,2,0,P|247:171|227:228,1,80,2|0,0:0|0:0,0:0:0:0:
70,140,30092,1,0,0:0:0:0:
225,61,30266,2,0,L|391:49,1,160,8|0,0:0|0:0,0:0:0:0:
471,181,30786,1,0,0:0:0:0:
347,289,30959,1,0,0:0:0:0:
231,191,31133,6,0,B|262:123|337:113|381:151|388:173,1,160,2|0,0:0|0:0,0:0:0:0:
265,325,31653,2,0,B|174:346|174:346|96:305,1,160,8|0,0:0|0:0,0:0:0:0:
7,228,32173,5,0,0:0:0:0:
128,111,32346,1,0,0:0:0:0:
172,258,32520,1,2,0:0:0:0:
35,146,32693,1,0,0:0:0:0:
173,267,32867,1,0,0:0:0:0:
34,140,33040,1,12,0:0:0:0:
173,267,33387,6,0,L|246:344,2,80
261,191,33907,2,0,L|179:111,1,80,2|0,0:0|0:0,0:0:0:0:
210,4,34254,2,0,L|276:68,1,80,0|2,0:0|0:0,0:0:0:0:
114,118,34601,2,0,L|19:121,2,80,0|0|8,0:0|0:0|0:0,0:0:0:0:
244,276,35294,6,0,P|300:336|396:312,1,160,2|0,0:0|0:0,0:0:0:0:
418,158,35815,2,0,P|350:182|342:290,1,160,8|0,0:0|0:0,0:0:0:0:
407,240,36335,1,0,0:0:0:0:
265,167,36508,1,0,0:0:0:0:
147,274,36682,1,2,0:0:0:0:
3,235,36855,2,0,B|-13:136|-13:136|50:74,1,160,2|8,0:0|0:0,0:0:0:0:
312,118,37549,5,0,0:0:0:0:
377,270,37722,1,2,0:0:0:0:
259,203,37896,1,0,0:0:0:0:
419,148,38069,2,0,P|475:140|511:152,2,80,2|2|0,0:0|0:0|0:0,0:0:0:0:
300,246,38589,5,12,0:0:0:0:
20,252,38936,6,2,L|-3:164,2,80,2|8|2,0:0|0:0|0:0,0:0:0:0:
149,285,39456,5,2,0:0:0:0:
255,153,39630,1,2,0:0:0:0:
128,164,39803,1,8,0:0:0:0:
274,266,39977,1,2,0:0:0:0:
141,289,40150,5,2,0:0:0:0:
256,144,40323,1,2,0:0:0:0:
112,164,40497,1,8,0:0:0:0:
281,292,40670,1,2,0:0:0:0:
163,304,40844,6,0,P|92:306|52:347,1,120,2|0,0:0|0:0,0:0:0:0:
37,360,41190,1,2,0:0:0:0:
32,208,41364,1,12,0:0:0:0:
232,68,41711,6,0,P|248:120|244:152,2,80,0|2|0,0:0|0:0|0:0,0:0:0:0:
164,192,42231,2,0,P|224:236|316:208,1,160,8|0,0:0|0:0,0:0:0:0:
152,104,42751,2,0,P|88:152|100:252,1,160,12|0,0:0|0:0,0:0:0:0:
209,325,43271,2,0,P|149:301|113:309,1,80
31,324,43618,1,2,0:0:0:0:
219,149,43792,1,0,0:0:0:0:
0,161,43965,1,0,0:0:0:0:
83,193,44138,2,0,B|133:193|133:193|165:251|247:247,1,160,8|0,0:0|0:0,0:0:0:0:
223,246,44659,1,0,0:0:0:0:
219,149,44832,6,0,P|295:105|391:133,1,160
419,191,45352,1,0,0:0:0:0:
310,195,45526,1,2,0:0:0:0:
492,130,45699,2,0,P|514:191|499:238,1,80
460,327,46046,2,0,P|416:309|359:317,1,80
185,269,46393,5,2,0:0:0:0:
230,133,46566,1,2,0:0:0:0:
202,280,46740,1,2,0:0:0:0:
219,122,46913,1,8,0:0:0:0:
219,122,47433,5,2,0:0:0:0:
307,108,47607,1,0,0:0:0:0:
388,148,47780,1,8,0:0:0:0:
413,229,47953,2,0,P|354:226|324:200,1,80
388,148,48300,2,0,B|445:139|469:162|502:192|493:241,1,160,12|0,0:0|0:0,0:0:0:0:
308,380,48820,2,0,P|300:344|308:292,1,80
270,110,49167,6,0,L|227:190,1,80,2|0,0:0|0:0,0:0:0:0:
148,315,49514,2,0,P|96:315|58:288,1,80,8|0,0:0|0:0,0:0:0:0:
161,108,49861,2,0,P|177:152|173:196,1,80,2|0,0:0|0:0,0:0:0:0:
148,315,50208,1,8,0:0:0:0:
428,208,50555,6,2,P|376:212|328:232,1,80
268,280,50901,1,2,0:0:0:0:
400,288,51075,2,0,B|408:172|340:116,1,160,8|0,0:0|0:0,0:0:0:0:
280,60,51595,1,2,0:0:0:0:
220,152,51768,1,2,0:0:0:0:
152,68,51942,6,0,B|192:48|241:63|241:63|295:82|320:80,1,160,8|0,0:0|0:0,0:0:0:0:
436,112,52462,1,2,0:0:0:0:
432,244,52636,2,0,L|396:336,2,80,0|0|8,0:0|0:0|0:0,0:0:0:0:
284,96,53156,5,0,0:0:0:0:
216,212,53329,2,0,B|264:236|309:222|309:222|346:196|384:196,1,160,8|0,0:0|0:0,0:0:0:0:
508,200,53849,1,2,0:0:0:0:
404,296,54023,2,0,P|312:332|312:332,2,80,0|0|8,0:0|0:0|0:0,0:0:0:0:
392,108,54543,5,0,0:0:0:0:
344,216,54716,2,0,B|312:236|260:240|260:240|192:160,1,160,8|0,0:0|0:0,0:0:0:0:
124,60,55237,1,2,0:0:0:0:
100,208,55410,2,0,L|84:292,2,80,0|0|8,0:0|0:0|0:0,0:0:0:0:
196,156,55930,5,0,0:0:0:0:
132,56,56104,1,8,0:0:0:0:
36,124,56277,2,0,L|0:284,1,160,0|0,0:0|0:0,0:0:0:0:
224,320,56797,2,0,P|224:232|140:224,1,160
108,332,57318,5,0,0:0:0:0:
224,320,57491,2,0,P|300:304|388:324,1,160,8|0,0:0|0:0,0:0:0:0:
512,372,58011,1,2,0:0:0:0:
460,252,58185,2,0,L|415:159,2,80,0|0|8,0:0|0:0|0:0,0:0:0:0:
379,320,58705,5,0,0:0:0:0:
348,168,58878,2,0,P|376:120|488:144,1,160,8|0,0:0|0:0,0:0:0:0:
392,288,59399,2,0,P|336:312|264:272,1,120,2|0,0:0|0:0,0:0:0:0:
248,256,59745,2,0,P|244:208|260:172,1,80,8|0,0:0|0:0,0:0:0:0:
352,68,60092,5,0,0:0:0:0:
224,84,60266,2,0,L|132:68,1,80,2|0,0:0|0:0,0:0:0:0:
188,152,60612,2,0,L|88:132,1,80,8|0,0:0|0:0,0:0:0:0:
152,216,60959,2,0,L|48:196,1,80,2|0,0:0|0:0,0:0:0:0:
73,200,61306,1,2,0:0:0:0:
217,143,61479,1,2,0:0:0:0:
336,212,61653,6,0,L|304:292,1,80,2|0,0:0|0:0,0:0:0:0:
120,316,62000,2,0,P|140:272|160:232,1,80,8|0,0:0|0:0,0:0:0:0:
264,184,62346,2,0,L|224:276,1,80,2|0,0:0|0:0,0:0:0:0:
180,172,62693,2,0,L|220:88,1,80,8|0,0:0|0:0,0:0:0:0:
328,48,63040,5,2,0:0:0:0:
458,150,63214,1,2,0:0:0:0:
336,201,63387,1,8,0:0:0:0:
111,269,63734,1,2,0:0:0:0:
242,298,63907,1,8,0:0:0:0:
8,328,64254,5,0,0:0:0:0:
56,212,64427,2,0,P|128:192|184:248,1,160
112,268,64948,1,0,0:0:0:0:
260,304,65121,2,0,P|336:318|432:272,1,160
172,112,65815,6,0,L|260:116,2,80
256,296,66682,1,2,0:0:0:0:
180,152,66855,1,8,0:0:0:0:
444,96,67202,6,2,P|440:148|383:243,1,160,2|8,0:0|0:0,0:0:0:0:
227,108,67722,2,2,P|264:125|289:179,1,80
290,290,68069,1,2,0:0:0:0:
152,282,68242,2,0,L|143:185,1,80,12|0,0:0|0:0,0:0:0:0:
247,55,68589,6,0,P|283:29|409:77,1,160,2|8,0:0|0:0,0:0:0:0:
338,215,69109,2,2,P|311:172|315:128,1,80
456,217,69456,1,2,0:0:0:0:
313,340,69630,2,0,L|199:315,1,80,12|0,0:0|0:0,0:0:0:0:
80,257,69977,5,2,0:0:0:0:
206,184,70150,1,2,0:0:0:0:
86,109,70323,1,8,0:0:0:0:
236,48,70497,2,0,P|304:40|348:56,1,80,2|0,0:0|0:0,0:0:0:0:
488,124,70844,1,2,0:0:0:0:
318,231,71017,1,8,0:0:0:0:
361,110,71190,1,2,0:0:0:0:
455,259,71364,6,2,P|413:299|360:320,1,80
360,316,71624,1,0,0:0:0:0:
323,312,71711,1,0,0:0:0:0:
207,208,71884,2,0,L|306:214,1,80,8|0,0:0|0:0,0:0:0:0:
401,133,72231,1,0,0:0:0:0:
325,96,72404,2,0,L|241:94,1,80
149,132,72751,5,2,0:0:0:0:
92,268,72925,1,2,0:0:0:0:
120,108,73098,1,8,0:0:0:0:
121,311,73271,2,0,P|185:339|225:343,1,80,2|0,0:0|0:0,0:0:0:0:
354,262,73618,1,2,0:0:0:0:
283,209,73792,2,0,L|182:198,1,80,8|0,0:0|0:0,0:0:0:0:
200,88,74138,5,2,0:0:0:0:
408,120,74312,1,2,0:0:0:0:
184,72,74485,1,8,0:0:0:0:
424,136,74659,2,0,B|404:184|388:232|388:232|340:268|300:264,1,160,2|0,0:0|0:0,0:0:0:0:
220,268,75179,5,2,0:0:0:0:
320,32,75352,1,2,0:0:0:0:
293,202,75526,2,2,P|249:189|218:160,1,80
398,105,75873,1,2,0:0:0:0:
472,187,76046,2,0,L|439:269,1,80,8|0,0:0|0:0,0:0:0:0:
294,356,76393,6,2,P|243:347|193:319,1,80
238,194,76740,2,0,P|282:204|325:232,1,80,0|4,0:0|0:0,0:0:0:0:
332,241,77000,1,0,0:0:0:0:
352,259,77086,1,0,0:0:0:0:
375,273,77173,1,0,0:0:0:0:
401,281,77260,1,0,0:0:0:0:
428,278,77346,1,0,0:0:0:0:
440,256,77433,5,4,0:0:0:0:
448,232,77520,1,0,0:0:0:0:
452,208,77607,1,0,0:0:0:0:
452,184,77693,1,0,0:0:0:0:
448,160,77780,1,0,0:0:0:0:
440,136,77867,1,0,0:0:0:0:
428,116,77953,1,0,0:0:0:0:
412,96,78040,1,0,0:0:0:0:
396,80,78127,1,0,0:0:0:0:
376,64,78214,1,0,0:0:0:0:
355,51,78300,6,2,P|291:31|188:50,1,160,2|8,0:0|0:0,0:0:0:0:
194,236,78820,2,2,P|222:194|228:151,1,80
89,144,79167,1,2,0:0:0:0:
25,242,79341,2,0,L|38:325,1,80,8|0,0:0|0:0,0:0:0:0:
211,366,79688,6,2,P|324:354|353:292,1,160,2|8,0:0|0:0,0:0:0:0:
214,225,80208,2,2,P|242:270|266:293,1,80
451,261,80555,1,2,0:0:0:0:
383,190,80728,2,0,P|337:200|288:220,1,80,8|0,0:0|0:0,0:0:0:0:
237,318,81075,5,2,0:0:0:0:
281,137,81248,1,2,0:0:0:0:
244,334,81422,1,8,0:0:0:0:
286,126,81595,2,0,P|335:120|385:140,1,80,2|0,0:0|0:0,0:0:0:0:
189,252,81942,1,2,0:0:0:0:
240,48,82115,1,2,0:0:0:0:
276,196,82289,1,8,0:0:0:0:
404,80,82462,1,2,0:0:0:0:
404,80,82549,1,2,0:0:0:0:
404,80,82636,1,8,0:0:0:0:
404,80,82982,6,2,B|400:132|400:132|384:168,1,80
316,256,83329,1,2,0:0:0:0:
292,148,83503,1,12,0:0:0:0:
88,116,83849,6,0,L|172:108,1,80
144,196,84196,2,0,L|236:188,1,80
408,76,84543,2,0,L|376:152,1,80
456,168,84890,2,0,L|420:260,1,80
172,344,85237,6,0,L|260:340,1,80
224,256,85583,2,0,L|312:252,1,80
424,160,85930,2,0,L|328:168,1,80
372,88,86277,2,0,L|276:96,1,80
87,147,86624,6,0,B|108:169|108:169|89:184|89:184|119:190|119:190|97:219|97:219|125:221|125:221|105:251|105:251|133:248|133:248|113:277|113:277|142:287|142:287,1,280
108,252,88705,5,0,0:0:0:0:
124,268,88792,1,0,0:0:0:0:
144,284,88878,1,0,0:0:0:0:
164,296,88965,1,0,0:0:0:0:
188,304,89052,1,0,0:0:0:0:
208,312,89138,1,0,0:0:0:0:
232,316,89225,1,0,0:0:0:0:
256,320,89312,1,0,0:0:0:0:
280,324,89399,6,0,L|376:328,1,80,2|0,0:0|0:0,0:0:0:0:
440,224,89745,2,0,L|340:220,1,80,8|0,0:0|0:0,0:0:0:0:
228,212,90092,1,2,0:0:0:0:
344,116,90266,2,0,L|432:120,2,80,0|8|0,0:0|0:0|0:0,0:0:0:0:
496,172,90786,6,0,P|509:134|504:84,1,80,2|0,0:0|0:0,0:0:0:0:
310,184,91133,2,0,P|328:224|369:256,1,80,8|0,0:0|0:0,0:0:0:0:
392,360,91479,2,0,P|328:368|292:352,1,80,2|0,0:0|0:0,0:0:0:0:
192,304,91826,1,12,0:0:0:0:
232,72,92173,5,2,0:0:0:0:
360,100,92346,2,0,L|448:68,2,80,2|8|0,0:0|0:0|0:0,0:0:0:0:
232,72,92867,1,2,0:0:0:0:
360,188,93040,2,0,L|464:160,2,80,2|8|0,0:0|0:0|0:0,0:0:0:0:
444,88,93560,6,0,P|496:112|516:148,1,80,2|0,0:0|0:0,0:0:0:0:
404,232,93907,2,0,P|413:186|457:158,1,80,2|0,0:0|0:0,0:0:0:0:
412,344,94254,2,0,L|308:332,1,80,2|0,0:0|0:0,0:0:0:0:
304,196,94601,2,0,L|216:184,1,80,8|0,0:0|0:0,0:0:0:0:
172,336,94948,6,0,L|288:332,1,80,2|0,0:0|0:0,0:0:0:0:
292,304,95208,1,0,0:0:0:0:
336,268,95294,2,0,L|424:264,1,80,8|0,0:0|0:0,0:0:0:0:
500,352,95641,1,2,0:0:0:0:
480,220,95815,2,0,L|468:120,2,80,0|8|0,0:0|0:0|0:0,0:0:0:0:
300,228,96335,6,0,L|196:228,1,80,2|0,0:0|0:0,0:0:0:0:
380,160,96682,1,8,0:0:0:0:
244,52,97029,1,2,0:0:0:0:
236,76,97115,1,0,0:0:0:0:
232,100,97202,1,0,0:0:0:0:
228,124,97289,1,0,0:0:0:0:
228,148,97375,2,0,P|228:200|240:240,1,80,8|0,0:0|0:0,0:0:0:0:
392,196,97722,6,0,P|348:180|304:180,1,80,2|0,0:0|0:0,0:0:0:0:
136,184,98069,1,8,0:0:0:0:
168,332,98242,1,0,0:0:0:0:
296,272,98416,2,0,P|352:276|392:296,1,80,2|0,0:0|0:0,0:0:0:0:
508,368,98763,2,0,P|496:309|480:280,1,80,8|0,0:0|0:0,0:0:0:0:
352,152,99109,5,2,0:0:0:0:
205,109,99283,1,2,0:0:0:0:
178,222,99456,1,2,0:0:0:0:
287,165,99630,1,2,0:0:0:0:
329,266,99803,1,2,0:0:0:0:
184,304,99977,1,2,0:0:0:0:
176,284,100063,1,2,0:0:0:0:
168,260,100150,1,2,0:0:0:0:
160,236,100237,1,2,0:0:0:0:
152,212,100323,1,2,0:0:0:0:
144,188,100410,1,2,0:0:0:0:
136,164,100497,6,0,P|116:96|104:56,1,80,8|0,0:0|0:0,0:0:0:0:
244,60,100844,2,0,L|268:144,1,80,0|8,0:0|0:0,0:0:0:0:
428,312,101537,5,2,0:0:0:0:
312,208,101711,1,2,0:0:0:0:
288,356,101884,1,2,0:0:0:0:
432,308,102057,2,0,P|420:252|392:216,1,80,8|0,0:0|0:0,0:0:0:0:
312,208,102404,2,0,L|208:256,1,80,8|0,0:0|0:0,0:0:0:0:
144,232,102751,2,0,L|108:136,2,80
144,316,103271,5,2,0:0:0:0:
186,155,103445,1,2,0:0:0:0:
128,340,103618,1,2,0:0:0:0:
194,142,103792,1,0,0:0:0:0:
288,248,103965,2,0,P|232:252|184:240,1,80,8|0,0:0|0:0,0:0:0:0:
136,60,104312,2,0,P|184:92|200:144,1,80,8|0,0:0|0:0,0:0:0:0:
236,228,104659,5,2,0:0:0:0:
172,332,104832,1,2,0:0:0:0:
124,216,105005,1,2,0:0:0:0:
308,284,105179,1,2,0:0:0:0:
324,114,105352,2,0,P|268:126|240:142,1,80,8|0,0:0|0:0,0:0:0:0:
185,181,105699,1,8,0:0:0:0:
24,284,106046,6,2,P|80:268|112:268,1,80,2|2,0:0|0:0,0:0:0:0:
256,268,106393,1,2,0:0:0:0:
148,376,106566,1,8,0:0:0:0:
232,88,106913,2,0,L|320:88,2,80,0|2|0,0:0|0:0|0:0,0:0:0:0:
172,192,107433,1,2,0:0:0:0:
220,332,107607,1,2,0:0:0:0:
324,208,107780,1,2,0:0:0:0:
172,264,107953,1,8,0:0:0:0:
92,64,108300,5,0,0:0:0:0:
40,188,108474,1,0,0:0:0:0:
168,172,108647,1,0,0:0:0:0:
244,68,108820,2,2,P|284:112|292:168,1,80,2|2,0:0|0:0,0:0:0:0:
300,256,109167,2,2,P|348:240|380:204,1,80,2|2,0:0|0:0,0:0:0:0:
412,112,109514,2,2,P|476:144|492:184,1,80,2|2,0:0|0:0,0:0:0:0:
512,252,109861,1,8,0:0:0:0:
156,305,110208,5,2,0:0:0:0:
200,208,110381,2,2,P|248:208|300:224,1,80
336,288,110728,2,0,B|388:264|384:180|332:152,1,160,8|0,0:0|0:0,0:0:0:0:
228,104,111248,1,2,0:0:0:0:
104,252,111422,5,2,0:0:0:0:
196,324,111595,2,0,P|292:328|344:268,1,160,8|0,0:0|0:0,0:0:0:0:
384,148,112115,1,2,0:0:0:0:
456,232,112289,2,0,L|432:336,2,80,0|0|8,0:0|0:0|0:0,0:0:0:0:
364,56,112809,5,0,0:0:0:0:
264,92,112982,2,0,P|304:156|404:156,1,160,8|0,0:0|0:0,0:0:0:0:
364,56,113503,1,2,0:0:0:0:
224,20,113676,2,0,L|136:16,2,80,0|0|8,0:0|0:0|0:0,0:0:0:0:
240,168,114196,5,0,0:0:0:0:
200,256,114370,2,0,P|124:292|56:252,1,160,8|0,0:0|0:0,0:0:0:0:
128,204,114890,1,2,0:0:0:0:
280,252,115063,2,0,L|364:264,2,80,0|0|8,0:0|0:0|0:0,0:0:0:0:
273,140,115583,5,0,0:0:0:0:
181,205,115757,1,2,0:0:0:0:
165,99,115930,2,0,P|224:48|321:58,1,160,8|0,0:0|0:0,0:0:0:0:
405,190,116451,2,0,P|317:225|232:224,1,160
124,128,116971,5,0,0:0:0:0:
120,220,117144,2,0,B|32:208|28:140|32:104,1,160,8|0,0:0|0:0,0:0:0:0:
220,128,117664,1,2,0:0:0:0:
252,244,117838,2,0,L|204:340,2,80,0|0|8,0:0|0:0|0:0,0:0:0:0:
400,128,118358,5,0,0:0:0:0:
308,120,118531,2,0,B|305:167|340:232|424:220,1,160,8|0,0:0|0:0,0:0:0:0:
416,328,119052,2,0,P|333:312|284:312,1,120,2|0,0:0|0:0,0:0:0:0:
248,320,119399,2,0,P|200:320|156:312,1,80,0|8,0:0|0:0,0:0:0:0:
254,115,119745,5,0,0:0:0:0:
260,208,119919,2,0,P|224:240|180:244,1,80,2|0,0:0|0:0,0:0:0:0:
92,124,120266,2,0,P|136:84|180:76,1,80,8|0,0:0|0:0,0:0:0:0:
140,296,120612,2,0,P|112:256|108:220,1,80,2|0,0:0|0:0,0:0:0:0:
92,124,120959,1,8,0:0:0:0:
200,192,121133,1,2,0:0:0:0:
38,271,121306,1,12,0:0:0:0:
348,60,121653,6,0,P|344:108|316:152,1,80,2|0,0:0|0:0,0:0:0:0:
232,240,122000,2,0,P|264:280|308:304,1,80,2|0,0:0|0:0,0:0:0:0:
204,116,122346,2,0,P|152:132|116:180,1,80,2|0,0:0|0:0,0:0:0:0:
76,256,122693,5,2,0:0:0:0:
172,324,122867,1,2,0:0:0:0:
172,324,123040,1,8,0:0:0:0:
316,312,123387,1,2,0:0:0:0:
316,312,123560,1,8,0:0:0:0:
240,16,123907,5,0,0:0:0:0:
312,100,124081,2,0,P|308:168|220:216,1,160,2|0,0:0|0:0,0:0:0:0:
236,132,124601,1,0,0:0:0:0:
332,260,124774,2,0,P|396:312|488:316,1,160,8|0,0:0|0:0,0:0:0:0:
468,152,125468,2,2,L|420:236,2,80
124,344,126162,5,0,0:0:0:0:
108,324,126248,1,0,0:0:0:0:
96,304,126335,1,0,0:0:0:0:
88,280,126422,1,0,0:0:0:0:
84,256,126508,1,0,0:0:0:0:
80,232,126595,1,0,0:0:0:0:
80,208,126682,1,0,0:0:0:0:
88,184,126768,1,0,0:0:0:0:
96,160,126855,6,0,B|120:116|120:116|163:67|228:72,1,160,2|8,0:0|0:0,0:0:0:0:
384,220,127375,2,2,P|336:236|296:232,1,80
153,174,127722,1,2,0:0:0:0:
216,71,127896,2,0,P|272:71|316:83,1,80,8|0,0:0|0:0,0:0:0:0:
444,280,128242,6,0,P|396:280|280:216,1,160,2|8,0:0|0:0,0:0:0:0:
364,52,128763,2,2,P|364:104|352:148,1,80
316,248,129109,1,2,0:0:0:0:
424,348,129283,2,0,P|448:296|448:244,1,80,8|0,0:0|0:0,0:0:0:0:
424,104,129630,5,2,0:0:0:0:
274,140,129803,1,2,0:0:0:0:
448,104,129977,1,8,0:0:0:0:
252,139,130150,2,0,P|252:207|260:231,1,80,2|0,0:0|0:0,0:0:0:0:
276,344,130497,1,2,0:0:0:0:
74,275,130670,1,8,0:0:0:0:
255,217,130844,1,2,0:0:0:0:
184,352,131017,6,2,B|153:333|153:333|140:280,1,80
140,248,131277,1,0,0:0:0:0:
152,216,131364,1,0,0:0:0:0:
237,97,131537,2,0,L|321:93,1,80,8|0,0:0|0:0,0:0:0:0:
379,200,131884,1,0,0:0:0:0:
293,255,132057,2,0,L|204:257,1,80,8|0,0:0|0:0,0:0:0:0:
88,224,132404,5,2,0:0:0:0:
184,136,132578,1,2,0:0:0:0:
52,100,132751,1,2,0:0:0:0:
204,148,132925,2,0,P|200:204|192:248,1,80,8|0,0:0|0:0,0:0:0:0:
108,336,133271,1,2,0:0:0:0:
33,199,133445,2,0,P|83:187|113:190,1,80,8|0,0:0|0:0,0:0:0:0:
273,194,133792,5,2,0:0:0:0:
408,160,133965,1,2,0:0:0:0:
328,48,134138,1,2,0:0:0:0:
416,176,134312,2,0,P|376:212|340:220,1,80,8|0,0:0|0:0,0:0:0:0:
188,216,134659,1,2,0:0:0:0:
328,120,134832,1,2,0:0:0:0:
288,320,135005,1,2,0:0:0:0:
140,152,135179,6,0,P|76:184|40:284,1,160,2|0,0:0|0:0,0:0:0:0:
116,368,135699,2,0,L|207:347,1,80,8|0,0:0|0:0,0:0:0:0:
312,186,136046,1,0,0:0:0:0:
386,283,136219,2,0,P|342:311|314:315,1,80,2|0,0:0|0:0,0:0:0:0:
138,236,136566,2,0,P|181:207|235:206,1,80,12|0,0:0|0:0,0:0:0:0:
328,213,136913,1,0,0:0:0:0:
292,327,137086,5,4,0:0:0:0:
268,332,137173,1,0,0:0:0:0:
244,332,137260,1,0,0:0:0:0:
220,328,137346,1,0,0:0:0:0:
196,320,137433,1,0,0:0:0:0:
176,308,137520,1,0,0:0:0:0:
156,296,137607,1,0,0:0:0:0:
136,280,137693,1,0,0:0:0:0:
120,264,137780,1,0,0:0:0:0:
104,244,137867,1,0,0:0:0:0:
92,224,137953,6,0,P|67:176|88:66,1,160,2|8,0:0|0:0,0:0:0:0:
274,90,138474,2,2,P|229:112|186:113,1,80
314,15,138820,1,2,0:0:0:0:
391,95,138994,2,0,L|356:192,1,80,8|0,0:0|0:0,0:0:0:0:
348,328,139341,6,0,B|386:377|452:384|452:384|476:335,1,160,2|8,0:0|0:0,0:0:0:0:
476,154,139861,2,2,L|445:236,1,80
348,328,140208,1,2,0:0:0:0:
300,228,140381,2,0,P|308:181|330:149,1,80,8|0,0:0|0:0,0:0:0:0:
408,72,140728,5,2,0:0:0:0:
252,110,140901,1,2,0:0:0:0:
432,56,141075,1,2,0:0:0:0:
232,119,141248,2,0,P|228:175|239:222,1,80,8|0,0:0|0:0,0:0:0:0:
279,327,141595,1,2,0:0:0:0:
313,126,141768,1,8,0:0:0:0:
446,189,141942,1,2,0:0:0:0:
303,246,142115,6,2,L|192:252,1,80
184,252,142375,1,0,0:0:0:0:
148,256,142462,1,0,0:0:0:0:
162,96,142636,2,0,L|254:88,1,80,8|0,0:0|0:0,0:0:0:0:
333,181,142982,1,2,0:0:0:0:
286,194,143069,1,2,0:0:0:0:
240,205,143156,1,8,0:0:0:0:
80,296,143503,6,0,P|88:216|88:216,1,80
164,172,143849,1,0,0:0:0:0:
368,320,144196,2,0,L|280:320,1,80
216,256,144543,1,0,0:0:0:0:
300,56,144890,6,0,L|336:136,1,80
288,236,145237,2,0,L|248:148,1,80
196,240,145497,1,0,0:0:0:0:
204,264,145583,2,0,P|264:320|331:304,1,120
336,304,145930,1,0,0:0:0:0:
416,172,146277,6,0,P|364:168|316:172,1,80,2|0,0:0|0:0,0:0:0:0:
276,236,146537,1,0,0:0:0:0:
256,256,146624,2,0,P|216:236|192:176,1,80,8|0,0:0|0:0,0:0:0:0:
160,112,146971,5,2,0:0:0:0:
60,160,147144,1,0,0:0:0:0:
60,160,147231,1,0,0:0:0:0:
60,160,147318,2,0,L|-4:216,1,80,8|0,0:0|0:0,0:0:0:0:
160,112,147664,5,2,0:0:0:0:
188,248,147838,1,0,0:0:0:0:
188,248,147925,1,0,0:0:0:0:
188,248,148011,1,2,0:0:0:0:
272,152,148185,1,0,0:0:0:0:
308,284,148358,1,2,0:0:0:0:
384,152,148531,1,0,0:0:0:0:
436,296,148705,2,0,L|532:332,1,80,8|0,0:0|0:0,0:0:0:0:
384,152,149052,5,2,0:0:0:0:
260,112,149225,1,0,0:0:0:0:
260,112,149312,1,0,0:0:0:0:
260,112,149399,2,0,L|160:132,1,80,8|0,0:0|0:0,0:0:0:0:
384,152,149745,5,2,0:0:0:0:
272,252,149919,1,0,0:0:0:0:
272,252,150005,1,0,0:0:0:0:
272,252,150092,2,0,L|172:268,1,80,8|0,0:0|0:0,0:0:0:0:
384,152,150439,5,2,0:0:0:0:
208,80,150612,1,0,0:0:0:0:
208,80,150699,1,0,0:0:0:0:
208,80,150786,1,2,0:0:0:0:
230,301,150959,1,0,0:0:0:0:
132,152,151133,1,2,0:0:0:0:
328,236,151306,1,0,0:0:0:0:
344,48,151479,2,0,P|296:32|256:24,1,80,8|0,0:0|0:0,0:0:0:0:
64,88,151826,6,0,P|56:128|64:184,1,80,2|0,0:0|0:0,0:0:0:0:
96,276,152086,1,0,0:0:0:0:
116,288,152173,2,0,P|168:288|208:280,1,80,8|0,0:0|0:0,0:0:0:0:
332,208,152520,6,0,P|332:160|308:112,1,80,2|0,0:0|0:0,0:0:0:0:
224,176,152780,1,0,0:0:0:0:
216,208,152867,2,0,P|264:216|312:216,1,80,8|0,0:0|0:0,0:0:0:0:
444,204,153214,5,2,0:0:0:0:
336,72,153387,1,0,0:0:0:0:
336,72,153474,1,0,0:0:0:0:
336,72,153560,1,2,0:0:0:0:
264,224,153734,1,0,0:0:0:0:
428,112,153907,1,2,0:0:0:0:
323,266,154081,1,0,0:0:0:0:
248,88,154254,2,0,P|289:79|360:89,1,80,8|0,0:0|0:0,0:0:0:0:
492,137,154601,5,2,0:0:0:0:
424,308,154774,1,0,0:0:0:0:
424,308,154861,1,0,0:0:0:0:
424,308,154948,2,0,P|364:328|336:332,1,80,8|0,0:0|0:0,0:0:0:0:
193,300,155294,5,2,0:0:0:0:
408,156,155468,1,0,0:0:0:0:
408,156,155555,1,0,0:0:0:0:
408,156,155641,2,0,P|404:204|383:244,1,80,8|0,0:0|0:0,0:0:0:0:
283,323,155988,5,2,0:0:0:0:
152,124,156162,1,0,0:0:0:0:
152,124,156248,1,0,0:0:0:0:
152,124,156335,1,2,0:0:0:0:
312,148,156508,1,0,0:0:0:0:
200,236,156682,1,2,0:0:0:0:
264,56,156855,1,0,0:0:0:0:
380,212,157029,1,8,0:0:0:0:
200,312,157375,6,0,P|192:264|192:216,1,80,2|0,0:0|0:0,0:0:0:0:
208,152,157636,1,0,0:0:0:0:
208,152,157722,1,8,0:0:0:0:
312,176,157896,1,2,0:0:0:0:
280,312,158069,2,0,P|216:320|168:316,1,80,2|0,0:0|0:0,0:0:0:0:
116,296,158416,1,8,0:0:0:0:
76,80,158763,6,0,P|136:80|184:92,1,80,2|0,0:0|0:0,0:0:0:0:
240,112,159023,1,0,0:0:0:0:
240,112,159109,1,8,0:0:0:0:
120,216,159283,1,2,0:0:0:0:
212,208,159456,2,0,P|256:256|252:300,1,80,2|0,0:0|0:0,0:0:0:0:
224,352,159803,1,8,0:0:0:0:
376,304,160150,6,0,P|384:260|412:216,1,80,2|0,0:0|0:0,0:0:0:0:
488,156,160497,1,8,0:0:0:0:
472,292,160670,1,2,0:0:0:0:
312,232,160844,2,0,P|284:224|204:216,1,80,2|0,0:0|0:0,0:0:0:0:
104,248,161190,1,8,0:0:0:0:
280,348,161537,6,0,L|368:348,1,80,2|0,0:0|0:0,0:0:0:0:
376,164,161884,2,0,L|264:164,1,80,8|0,0:0|0:0,0:0:0:0:
216,272,162231,2,0,L|316:272,1,80,2|0,0:0|0:0,0:0:0:0:
448,220,162578,1,8,0:0:0:0:
280,24,162925,5,2,0:0:0:0:
176,264,163271,1,8,0:0:0:0:
120,160,163445,1,2,0:0:0:0:
260,140,163618,2,0,P|268:180|268:224,1,80,2|0,0:0|0:0,0:0:0:0:
264,332,163965,2,0,P|316:344|364:328,1,80,8|0,0:0|0:0,0:0:0:0:
448,292,164312,5,2,0:0:0:0:
160,44,164659,1,8,0:0:0:0:
151,153,164832,1,2,0:0:0:0:
248,216,165005,2,0,P|304:204|352:176,1,80,2|0,0:0|0:0,0:0:0:0:
464,104,165352,2,0,P|476:152|468:208,1,80,8|0,0:0|0:0,0:0:0:0:
464,304,165699,5,2,0:0:0:0:
104,144,166046,1,8,0:0:0:0:
184,64,166219,1,2,0:0:0:0:
208,176,166393,1,2,0:0:0:0:
324,272,166740,1,8,0:0:0:0:
308,48,167086,5,2,0:0:0:0:
412,96,167433,1,2,0:0:0:0:
424,208,167780,1,8,0:0:0:0:
80,292,168474,6,2,B|108:268|120:256|148:260|148:260|184:312|232:248|232:248|216:192,1,240
192,96,169861,2,2,B|232:76|284:88|284:88|296:156|296:156|328:157|372:144,1,240
484,112,171248,2,2,P|496:148|484:192,1,80
433,291,171768,1,8,0:0:0:0:
350,257,171942,2,2,P|334:209|344:172,1,80
372,80,172636,2,2,L|288:80,1,80
128,156,173156,1,8,0:0:0:0:
210,225,173329,2,2,B|290:201,1,80
344,128,174023,6,2,B|380:144|400:168|400:168|356:212|356:212|396:252|396:252|332:276,1,240
208,296,175410,2,2,B|200:252|208:220|208:220|268:204|268:204|288:144|288:144|240:116,1,240
108,176,176797,2,2,B|132:200|132:200|180:220|180:220|220:172|220:172|280:208|280:208|312:192,1,240
408,112,178185,6,2,P|360:88|320:84,1,80
208,85,178705,1,8,0:0:0:0:
247,178,178878,2,2,L|336:204,1,80
424,232,179572,6,2,B|432:268|424:308|424:308|352:320|352:320|332:272|332:272|284:264,1,240
172,248,180959,2,2,B|180:192|204:156|204:156|256:160|296:172|296:172|352:144,1,240
456,96,182346,5,8,0:0:0:0:
392,292,182693,2,2,L|344:296,1,40
260,223,183214,1,8,0:0:0:0:
170,361,183560,2,2,B|121:368|121:368|56:358|35:331|35:331|56:292|54:280|54:280|104:282|116:232,1,280
144,103,185121,6,2,P|216:109|295:168,1,160
372,288,186508,6,2,P|297:290|224:236,1,160
316,48,187896,6,2,P|342:101|313:199,1,160
112,196,189283,6,2,P|182:163|273:176,1,160
316,336,190670,6,2,B|240:308|240:308|196:336|196:336|136:304|136:304|132:260,1,240
244,88,192057,5,2,0:0:0:0:
396,88,192231,1,2,0:0:0:0:
208,128,192404,1,8,0:0:0:0:
420,60,192925,5,2,0:0:0:0:
376,280,193098,1,8,0:0:0:0:
118,282,193445,6,0,P|99:232|136:125,1,160,2|8,0:0|0:0,0:0:0:0:
288,214,193965,2,2,P|236:220|196:210,1,80
322,114,194312,1,2,0:0:0:0:
418,198,194485,2,0,L|378:297,1,80,8|0,0:0|0:0,0:0:0:0:
280,351,194832,6,2,P|233:331|121:358,1,160,2|10,0:0|0:0,0:0:0:0:
47,262,195352,2,2,L|59:177,1,80
157,88,195699,1,2,0:0:0:0:
217,214,195873,2,0,P|163:208|120:187,1,80,8|0,0:0|0:0,0:0:0:0:
228,128,196219,5,2,0:0:0:0:
114,289,196393,1,2,0:0:0:0:
248,124,196566,1,2,0:0:0:0:
132,302,196740,2,0,P|175:311|241:303,1,80,8|0,0:0|0:0,0:0:0:0:
368,272,197086,1,2,0:0:0:0:
148,172,197260,1,2,0:0:0:0:
300,56,197433,1,2,0:0:0:0:
272,228,197607,6,2,P|220:234|172:200,1,80
148,172,197867,1,0,0:0:0:0:
148,172,197953,1,0,0:0:0:0:
332,132,198127,2,0,L|421:144,1,80,8|0,0:0|0:0,0:0:0:0:
460,296,198474,1,2,0:0:0:0:
356,348,198647,2,0,P|301:341|264:312,1,80,8|0,0:0|0:0,0:0:0:0:
280,184,198994,5,2,0:0:0:0:
168,328,199167,1,2,0:0:0:0:
312,180,199341,1,8,0:0:0:0:
128,332,199514,2,0,P|82:335|40:316,1,80,2|0,0:0|0:0,0:0:0:0:
164,156,199861,1,2,0:0:0:0:
248,232,200034,2,0,P|293:247|352:236,1,80,8|0,0:0|0:0,0:0:0:0:
456,180,200381,5,2,0:0:0:0:
296,148,200555,1,2,0:0:0:0:
484,184,200728,1,8,0:0:0:0:
260,140,200901,2,0,P|204:160|180:196,1,80,2|0,0:0|0:0,0:0:0:0:
144,324,201248,1,2,0:0:0:0:
272,252,201422,1,8,0:0:0:0:
331,365,201595,1,0,0:0:0:0:
440,287,201768,6,2,P|461:245|462:188,1,80
380,108,202115,1,2,0:0:0:0:
325,232,202289,2,0,L|226:244,1,80,8|0,0:0|0:0,0:0:0:0:
72,324,202636,5,2,0:0:0:0:
168,220,202809,1,2,0:0:0:0:
40,168,202982,1,2,0:0:0:0:
41,49,203156,2,0,B|111:15|111:15|201:28,1,160,12|0,0:0|0:0,0:0:0:0:
344,64,203676,5,4,0:0:0:0:
364,76,203763,1,0,0:0:0:0:
384,92,203849,1,0,0:0:0:0:
396,112,203936,1,0,0:0:0:0:
404,136,204023,1,0,0:0:0:0:
408,160,204109,1,0,0:0:0:0:
408,184,204196,1,0,0:0:0:0:
404,208,204283,1,0,0:0:0:0:
396,232,204370,1,0,0:0:0:0:
384,252,204456,1,0,0:0:0:0:
372,272,204543,6,0,P|340:304|216:313,1,160,2|8,0:0|0:0,0:0:0:0:
274,159,205063,2,2,P|283:211|271:261,1,80
162,126,205410,1,2,0:0:0:0:
317,59,205583,2,0,L|409:66,1,80,8|0,0:0|0:0,0:0:0:0:
391,244,205930,6,0,P|310:233|272:319,1,160,2|8,0:0|0:0,0:0:0:0:
475,291,206451,2,2,L|473:206,1,80
371,85,206797,1,2,0:0:0:0:
229,196,206971,2,0,P|180:204|128:192,1,80,8|0,0:0|0:0,0:0:0:0:
201,95,207318,5,2,0:0:0:0:
361,205,207491,1,2,0:0:0:0:
218,87,207664,1,8,0:0:0:0:
360,224,207838,2,0,P|312:248|256:248,1,80,2|0,0:0|0:0,0:0:0:0:
140,208,208185,5,2,0:0:0:0:
280,352,208358,1,2,0:0:0:0:
328,132,208531,1,2,0:0:0:0:
108,284,208705,1,8,0:0:0:0:
108,284,208878,2,0,P|155:285|212:280,1,80,2|0,0:0|0:0,0:0:0:0:
344,260,209225,5,2,0:0:0:0:
344,260,209312,1,2,0:0:0:0:
344,260,209399,1,2,0:0:0:0:
448,312,209572,1,2,0:0:0:0:
448,312,209659,1,2,0:0:0:0:
448,312,209745,1,12,0:0:0:0:
260,332,210092,6,0,L|180:292,1,80,2|0,0:0|0:0,0:0:0:0:
256,244,210439,2,0,L|168:200,1,80,8|0,0:0|0:0,0:0:0:0:
112,40,210786,2,0,L|68:116,1,80,2|0,0:0|0:0,0:0:0:0:
111,189,211133,2,0,L|152:120,1,80,8|0,0:0|0:0,0:0:0:0:
339,78,211479,6,0,L|412:112,1,80,2|0,0:0|0:0,0:0:0:0:
344,164,211826,2,0,L|256:120,1,80,8|0,0:0|0:0,0:0:0:0:
192,204,212173,2,0,L|208:288,1,80,2|0,0:0|0:0,0:0:0:0:
296,344,212520,2,0,L|276:240,1,80,8|0,0:0|0:0,0:0:0:0:
305,127,212867,5,2,0:0:0:0:
401,82,213040,1,2,0:0:0:0:
430,205,213214,2,0,P|382:211|335:205,1,80,8|2,0:0|0:0,0:0:0:0:
192,192,213560,5,2,0:0:0:0:
305,127,213734,1,2,0:0:0:0:
302,285,213907,2,0,P|256:298|212:298,1,80,8|2,0:0|0:0,0:0:0:0:
75,91,214254,5,2,0:0:0:0:
192,192,214427,1,2,0:0:0:0:
49,272,214601,2,0,P|34:218|48:172,1,80,8|2,0:0|0:0,0:0:0:0:
184,48,214948,5,2,0:0:0:0:
202,41,215034,1,2,0:0:0:0:
225,36,215121,1,2,0:0:0:0:
249,34,215208,1,2,0:0:0:0:
272,34,215294,1,12,0:0:0:0:
296,35,215381,1,2,0:0:0:0:
319,41,215468,1,2,0:0:0:0:
342,46,215555,1,2,0:0:0:0:
364,55,215641,6,0,P|429:83|483:164,1,160,2|8,0:0|0:0,0:0:0:0:
376,276,216162,2,2,P|360:243|381:174,1,80
470,312,216508,1,2,0:0:0:0:
300,354,216682,2,0,L|207:345,1,80,8|0,0:0|0:0,0:0:0:0:
117,212,217029,6,8,P|183:211|218:130,1,160,10|8,0:0|0:0,0:0:0:0:
26,184,217549,2,2,L|3:274,1,80
111,348,217896,1,2,0:0:0:0:
240,259,218069,2,0,P|287:242|337:247,1,80,8|0,0:0|0:0,0:0:0:0:
428,323,218416,5,2,0:0:0:0:
306,162,218589,1,2,0:0:0:0:
459,189,218763,1,8,0:0:0:0:
323,325,218936,2,0,P|267:330|216:323,1,80,2|0,0:0|0:0,0:0:0:0:
106,302,219283,1,2,0:0:0:0:
240,48,219456,1,8,0:0:0:0:
282,228,219630,1,2,0:0:0:0:
88,160,219803,6,2,P|144:140|188:144,1,80
376,112,220150,1,0,0:0:0:0:
288,56,220323,2,0,L|204:64,1,80,12|0,0:0|0:0,0:0:0:0:
348,288,220670,5,2,0:0:0:0:
348,288,220757,1,2,0:0:0:0:
348,288,220844,2,0,P|342:238|304:200,1,80,8|0,0:0|0:0,0:0:0:0:
216,194,221190,5,2,0:0:0:0:
279,44,221364,1,2,0:0:0:0:
195,206,221537,1,8,0:0:0:0:
297,34,221711,2,0,P|345:49|388:80,1,80,2|0,0:0|0:0,0:0:0:0:
440,212,222057,1,2,0:0:0:0:
332,184,222231,2,0,L|244:180,1,80,8|0,0:0|0:0,0:0:0:0:
172,96,222578,5,2,0:0:0:0:
388,124,222751,1,2,0:0:0:0:
152,88,222925,1,8,0:0:0:0:
412,144,223098,2,0,P|416:188|389:241,1,80,2|0,0:0|0:0,0:0:0:0:
320,316,223445,1,2,0:0:0:0:
185,212,223618,1,8,0:0:0:0:
304,212,223792,1,2,0:0:0:0:
167,328,223965,6,0,P|121:326|76:308,1,80,2|0,0:0|0:0,0:0:0:0:
59,292,224225,1,0,0:0:0:0:
44,256,224312,1,2,0:0:0:0:
184,208,224485,2,0,P|223:218|272:248,1,80,8|0,0:0|0:0,0:0:0:0:
368,332,224832,5,2,0:0:0:0:
433,264,225005,2,0,P|427:206|411:173,1,80,8|0,0:0|0:0,0:0:0:0:
344,60,225352,1,2,0:0:0:0:
197,115,225526,1,2,0:0:0:0:
285,179,225699,1,2,0:0:0:0:
253,24,225873,5,4,0:0:0:0:
229,25,225959,1,0,0:0:0:0:
205,29,226046,1,0,0:0:0:0:
181,34,226133,1,0,0:0:0:0:
160,45,226219,1,0,0:0:0:0:
139,57,226306,1,0,0:0:0:0:
120,72,226393,1,0,0:0:0:0:
105,90,226479,1,0,0:0:0:0:
94,112,226566,1,0,0:0:0:0:
86,134,226653,1,0,0:0:0:0:
81,157,226740,6,0,P|72:195|69:261,1,80,2|0,0:0|0:0,0:0:0:0:
127,348,227086,1,8,0:0:0:0:
254,292,227260,2,2,P|262:235|262:199,1,80,2|2,0:0|0:0,0:0:0:0:
203,96,227607,1,2,0:0:0:0:
105,191,227780,1,8,0:0:0:0:
221,294,227953,5,2,0:0:0:0:
221,294,228040,1,2,0:0:0:0:
221,294,228127,2,0,P|272:301|314:299,1,80,6|0,0:0|0:0,0:0:0:0:
415,240,228474,1,8,0:0:0:0:
320,116,228647,2,2,P|306:161|314:205,1,80
380,308,228994,1,0,0:0:0:0:
460,168,229167,1,8,0:0:0:0:
304,48,229341,5,2,0:0:0:0:
304,48,229427,1,2,0:0:0:0:
304,48,229514,2,0,L|204:56,1,80,6|0,0:0|0:0,0:0:0:0:
160,166,229861,1,8,0:0:0:0:
262,206,230034,2,0,P|307:207|352:188,1,80,2|0,0:0|0:0,0:0:0:0:
468,136,230381,1,2,0:0:0:0:
358,335,230555,1,2,0:0:0:0:
229,127,230728,1,2,0:0:0:0:
123,305,230901,5,6,0:0:0:0:
146,320,230988,1,2,0:0:0:0:
173,325,231075,1,2,0:0:0:0:
201,324,231162,1,2,0:0:0:0:
227,317,231248,1,2,0:0:0:0:
252,305,231335,1,0,0:0:0:0:
275,289,231422,1,6,0:0:0:0:
302,286,231508,1,2,0:0:0:0:
329,289,231595,1,2,0:0:0:0:
355,298,231682,1,2,0:0:0:0:
374,318,231768,1,2,0:0:0:0:
400,333,231855,1,2,0:0:0:0:
427,335,231942,1,8,0:0:0:0:
154,138,232289,6,2,L|238:135,1,80
257,61,232636,2,0,L|336:31,1,80,8|0,0:0|0:0,0:0:0:0:
423,42,232982,2,0,L|453:119,1,80,2|0,0:0|0:0,0:0:0:0:
502,171,233329,2,0,L|468:263,1,80,8|0,0:0|0:0,0:0:0:0:
97,322,233676,2,0,L|140:254,1,80,2|0,0:0|0:0,0:0:0:0:
204,220,234023,2,0,L|290:233,1,80,8|0,0:0|0:0,0:0:0:0:
352,138,234370,2,0,L|259:136,1,80,2|0,0:0|0:0,0:0:0:0:
206,100,234716,2,0,L|131:142,1,80,8|0,0:0|0:0,0:0:0:0:
67,271,235063,5,2,0:0:0:0:
153,293,235237,1,2,0:0:0:0:
226,249,235410,1,8,0:0:0:0:
155,203,235583,1,2,0:0:0:0:
97,127,235757,5,2,0:0:0:0:
199,129,235930,1,2,0:0:0:0:
226,249,236104,1,8,0:0:0:0:
155,203,236277,1,2,0:0:0:0:
285,318,236451,5,2,0:0:0:0:
262,204,236624,1,2,0:0:0:0:
381,226,236797,1,8,0:0:0:0:
449,138,236971,1,2,0:0:0:0:
344,140,237144,5,2,0:0:0:0:
262,204,237318,1,2,0:0:0:0:
381,226,237491,1,8,0:0:0:0:
449,138,237664,1,2,0:0:0:0:
403,59,237838,6,0,P|347:64|311:91,1,80
243,223,238185,1,0,0:0:0:0:
243,223,238531,2,0,P|234:166|242:127,1,80,0|0,0:0|0:0,0:0:0:0:
353,62,238878,1,0,0:0:0:0:
353,62,239225,2,0,P|363:131|357:160,1,80,0|0,0:0|0:0,0:0:0:0:
342,235,239572,1,0,0:0:0:0:
138,119,239919,5,0,0:0:0:0:
272,73,240266,1,0,0:0:0:0:
376,176,240612,2,0,P|343:227|255:273,1,160,2|8,0:0|0:0,0:0:0:0:
4,179,241306,1,2,0:0:0:0:
77,88,241479,5,2,0:0:0:0:
177,103,241653,1,2,0:0:0:0:
105,179,241826,1,2,0:0:0:0:
208,199,242000,2,0,P|303:195|357:146,1,160,2|8,0:0|0:0,0:0:0:0:
412,60,242693,1,2,0:0:0:0:
231,32,243040,1,2,0:0:0:0:
98,88,243214,1,0,0:0:0:0:
98,88,243300,1,0,0:0:0:0:
98,88,243387,6,0,B|113:169|113:169|186:212,1,160,2|8,0:0|0:0,0:0:0:0:
398,194,244081,1,2,0:0:0:0:
433,109,244254,1,2,0:0:0:0:
364,58,244427,1,2,0:0:0:0:
282,61,244601,1,2,0:0:0:0:
222,117,244774,2,0,P|238:167|265:209,1,80,2|0,0:0|0:0,0:0:0:0:
307,283,245121,2,0,P|256:314|210:318,1,80,2|0,0:0|0:0,0:0:0:0:
127,324,245468,2,0,P|138:266|163:235,1,80,2|0,0:0|0:0,0:0:0:0:
217,181,245815,2,0,P|169:149|132:146,1,80,8|0,0:0|0:0,0:0:0:0:
57,129,246162,6,8,P|56:205|108:276,1,160,10|8,0:0|0:0,0:0:0:0:
325,217,246855,1,2,0:0:0:0:
264,140,247029,5,2,0:0:0:0:
200,208,247202,1,2,0:0:0:0:
112,176,247375,1,2,0:0:0:0:
76,260,247549,2,0,P|131:288|233:288,1,160,2|8,0:0|0:0,0:0:0:0:
363,256,248242,1,2,0:0:0:0:
226,162,248589,1,2,0:0:0:0:
352,85,248763,1,0,0:0:0:0:
352,85,248849,1,0,0:0:0:0:
352,85,248936,6,0,B|361:180|361:180|309:234,1,160,2|8,0:0|0:0,0:0:0:0:
188,239,249630,1,2,0:0:0:0:
153,164,249803,1,2,0:0:0:0:
220,113,249977,1,2,0:0:0:0:
281,165,250150,1,2,0:0:0:0:
337,107,250323,2,0,P|382:121|414:149,1,80,2|0,0:0|0:0,0:0:0:0:
446,275,250670,2,0,P|400:264|364:240,1,80,2|0,0:0|0:0,0:0:0:0:
250,135,251017,2,0,P|208:169|195:198,1,80,2|0,0:0|0:0,0:0:0:0:
176,284,251364,1,8,0:0:0:0:
348,200,251711,1,2,0:0:0:0:
256,192,252057,12,0,255526,0:0:0:0:
256,192,255699,12,0,261422,0:0:0:0:
