osu file format v14

[General]
AudioFilename: Asymmetry.mp3
AudioLeadIn: 0
PreviewTime: 67202
Countdown: 0
SampleSet: Normal
StackLeniency: 0.7
Mode: 0
LetterboxInBreaks: 0
WidescreenStoryboard: 0

[Editor]
DistanceSpacing: 1.2
BeatDivisor: 4
GridSize: 4
TimelineZoom: 2.3

[Metadata]
Title:Asymmetry
TitleUnicode:アシンメトリー
Artist:Horie Yui
ArtistUnicode:堀江由衣
Creator:Hanazawa Kana
Version:Hard
Source:K RETURN OF KINGS
Tags:櫛名 アンナ Kushina Anna Opening op full version katsu Yoyupond Hi_Hello Misure ProEzreal __Ag FaiVillager
BeatmapID:923604
BeatmapSetID:410999

[Difficulty]
HPDrainRate:5
CircleSize:4
OverallDifficulty:6
ApproachRate:8
SliderMultiplier:1.4
SliderTickRate:1

[Events]
//Background and Video events
0,0,"02.png",0,0
//Break Periods
//Storyboard Layer 0 (Background)
//Storyboard Layer 1 (Fail)
//Storyboard Layer 2 (Pass)
//Storyboard Layer 3 (Foreground)
//Storyboard Sound Samples

[TimingPoints]
681,416.666666666667,4,1,1,60,1,0
11722,428.571428571429,4,1,1,60,1,0
12364,458.015267175573,4,1,1,60,1,0
12822,422.535211267606,4,1,1,60,1,0
13244,468.75,4,1,1,60,1,0
14139,346.820809248555,4,1,1,60,1,0
15873,346.820809248555,4,1,1,60,1,0
29745,-100,4,1,1,40,0,0
51768,-100,4,1,1,50,0,0
57318,-100,4,1,1,60,0,0
64254,-100,4,2,1,60,0,0
67202,-100,4,1,1,70,0,1
83849,-200,4,1,1,30,0,0
87664,-200,4,1,1,5,0,0
88705,-100,4,1,1,60,0,0
100497,-100,4,1,1,40,0,0
111595,-100,4,1,1,50,0,0
117144,-100,4,1,1,60,0,0
126855,-100,4,1,1,70,0,1
143503,-200,4,1,1,30,0,0
146277,-100,4,1,1,60,0,0
168474,-200,4,1,1,30,0,0
171248,-100,4,1,1,40,0,0
184601,-100,4,1,1,50,0,0
193445,-100,4,1,1,70,0,1
237838,-200,4,1,1,30,0,0
240612,-100,4,1,1,50,0,0
246162,-100,4,1,1,40,0,0
251711,-100,4,1,1,30,0,0
252057,-100,4,1,1,40,0,0
255526,-100,4,1,1,5,0,0
255699,-100,4,1,1,30,0,0
261422,-100,4,1,1,5,0,0

[Colours]
Combo1 : 152,164,248
Combo2 : 243,97,97
Combo3 : 104,137,174
Combo4 : 254,210,107

[HitObjects]
436,68,15873,5,0,0:0:0:0:
436,68,16219,1,8,0:0:0:0:
352,212,16566,2,0,L|395:214,3,35,0|0|0|0,0:0|0:0|0:0|0:0,0:0:0:0:
440,232,16913,2,0,L|445:286,3,35,8|0|0|0,0:0|0:0|0:0|0:0,0:0:0:0:
428,316,17260,6,0,B|380:316|324:292|324:292|288:304,1,140,0|0,0:0|0:0,0:0:0:0:
212,324,17780,1,0,0:0:0:0:
188,244,17953,2,0,L|272:220,1,70,0|0,0:0|0:0,0:0:0:0:
268,140,18300,2,0,L|192:160,1,70,8|0,0:0|0:0,0:0:0:0:
120,184,18647,6,0,P|112:248|112:276,1,70,0|0,0:0|2:0,0:0:0:0:
116,336,18994,1,0,0:0:0:0:
116,336,19167,1,0,0:0:0:0:
200,324,19341,2,0,P|208:280|208:176,1,140,0|8,0:0|0:0,0:0:0:0:
108,52,20034,6,0,P|160:40|188:40,1,70,0|0,0:0|2:0,0:0:0:0:
260,40,20381,1,8,0:0:0:0:
260,40,20555,1,0,0:0:0:0:
344,40,20728,2,0,P|340:84|288:172,1,140,0|8,0:0|0:0,0:0:0:0:
225,214,21248,1,0,0:0:0:0:
328,244,21422,6,0,L|429:221,1,70,0|0,0:0|2:0,0:0:0:0:
449,164,21768,1,8,0:0:0:0:
391,321,22115,2,0,L|298:345,1,70,0|0,0:0|2:0,0:0:0:0:
240,321,22462,1,8,0:0:0:0:
84,257,22809,6,0,L|75:175,1,70,0|0,0:0|2:0,0:0:0:0:
132,124,23156,2,0,P|196:118|231:132,1,70,8|0,0:0|0:0,0:0:0:0:
282,140,23503,1,0,0:0:0:0:
282,140,23676,1,0,0:0:0:0:
330,208,23849,1,8,0:0:0:0:
330,208,24023,1,0,0:0:0:0:
349,289,24196,6,0,B|303:298|269:261|269:261|209:245,1,140,0|8,0:0|0:0,0:0:0:0:
136,233,24716,1,0,0:0:0:0:
143,316,24890,2,0,P|174:334|226:349,1,70,0|0,0:0|2:0,0:0:0:0:
287,366,25237,2,0,L|379:358,1,70,8|0,0:0|2:0,0:0:0:0:
429,319,25583,6,0,P|429:268|441:234,1,70,0|0,0:0|2:0,0:0:0:0:
469,173,25930,1,8,0:0:0:0:
469,173,26104,1,0,0:0:0:0:
388,196,26277,2,0,L|300:214,1,70,0|0,0:0|0:0,0:0:0:0:
266,144,26624,2,0,L|166:163,1,70,8|0,0:0|0:0,0:0:0:0:
117,185,26971,5,0,0:0:0:0:
76,266,27144,1,0,0:0:0:0:
15,187,27318,2,0,P|26:145|49:114,1,70,8|0,0:0|0:0,0:0:0:0:
130,81,27664,2,0,L|212:85,2,70,0|0|8,0:0|0:0|0:0,0:0:0:0:
293,122,28358,5,12,0:0:0:0:
376,133,28531,2,0,L|461:118,2,70,0|8|0,0:0|0:0|0:0,0:0:0:0:
334,206,29052,2,0,P|282:220|257:232,1,70,0|8,0:0|0:0,0:0:0:0:
44,344,29745,6,0,P|105:370|184:348,1,140,0|0,0:0|0:0,0:0:0:0:
243,305,30266,1,8,0:0:0:0:
273,140,30612,1,0,0:0:0:0:
357,139,30786,1,0,0:0:0:0:
388,216,30959,1,0,0:0:0:0:
323,270,31133,2,0,L|243:270,1,70,0|8,0:0|0:0,0:0:0:0:
103,192,31653,6,0,P|120:146|48:112,1,140,8|8,0:0|0:0,0:0:0:0:
26,190,32173,2,0,L|-1:277,1,70,0|0,0:0|0:0,0:0:0:0:
12,340,32520,1,0,0:0:0:0:
12,340,32693,1,0,0:0:0:0:
93,317,32867,1,0,0:0:0:0:
93,317,33040,1,8,0:0:0:0:
224,211,33387,6,0,L|237:132,2,70,0|8|0,0:0|0:0|0:0,0:0:0:0:
224,295,33907,2,0,P|178:281|143:246,1,70,0|0,0:0|0:0,0:0:0:0:
144,185,34254,2,0,L|160:90,1,70,0|0,0:0|0:0,0:0:0:0:
223,65,34601,1,8,0:0:0:0:
304,86,34774,1,0,0:0:0:0:
247,148,34948,1,0,0:0:0:0:
294,306,35294,6,0,P|340:305|390:295,1,70,0|0,0:0|0:0,0:0:0:0:
443,275,35641,1,0,0:0:0:0:
480,199,35815,2,0,B|468:133|468:133|408:87,1,140,8|0,0:0|0:0,0:0:0:0:
335,49,36335,1,0,0:0:0:0:
308,128,36508,2,0,L|371:177,2,70,0|0|8,0:0|0:0|0:0,0:0:0:0:
145,82,37202,6,0,L|53:118,1,70,8|0,0:0|0:0,0:0:0:0:
77,191,37549,1,0,0:0:0:0:
159,176,37722,1,0,0:0:0:0:
230,220,37896,1,0,0:0:0:0:
230,220,38069,2,0,P|201:265|164:285,1,70,0|0,0:0|0:0,0:0:0:0:
36,344,38589,1,8,0:0:0:0:
78,181,38936,6,0,L|-12:162,2,70,0|0|8,0:0|0:0|0:0,0:0:0:0:
150,137,39456,1,0,0:0:0:0:
213,192,39630,1,0,0:0:0:0:
213,192,39803,1,8,0:0:0:0:
375,233,40150,5,0,0:0:0:0:
320,168,40323,1,0,0:0:0:0:
320,168,40497,1,8,0:0:0:0:
320,168,40670,1,0,0:0:0:0:
286,245,40844,2,0,B|204:289|204:289|134:269,1,140,0|0,0:0|0:0,0:0:0:0:
81,243,41364,1,8,0:0:0:0:
151,90,41711,6,0,L|231:82,2,70,0|0|0,0:0|0:0|0:0,0:0:0:0:
76,129,42231,1,0,0:0:0:0:
153,185,42404,1,0,0:0:0:0:
153,185,42578,1,0,0:0:0:0:
153,185,42751,1,8,0:0:0:0:
315,143,43098,5,0,0:0:0:0:
351,218,43271,2,0,P|299:226|272:214,1,70,0|0,0:0|0:0,0:0:0:0:
212,175,43618,2,0,B|190:227|212:259|212:259|156:292,1,140,0|0,0:0|0:0,0:0:0:0:
94,328,44138,1,8,0:0:0:0:
60,159,44485,5,0,0:0:0:0:
120,100,44659,1,0,0:0:0:0:
204,100,44832,1,0,0:0:0:0:
276,144,45005,2,0,L|260:220,1,70,0|0,0:0|0:0,0:0:0:0:
168,248,45352,2,0,L|184:176,1,70,8|0,0:0|0:0,0:0:0:0:
100,197,45699,2,0,L|80:281,1,70
100,347,46046,1,8,0:0:0:0:
264,268,46393,5,0,0:0:0:0:
328,212,46566,2,0,P|378:221|408:248,1,70,0|0,0:0|0:0,0:0:0:0:
336,296,46913,2,0,B|272:296|244:256|228:200|254:151|296:144,1,210,8|0,0:0|0:0,0:0:0:0:
352,108,47607,5,0,0:0:0:0:
436,124,47780,1,0,0:0:0:0:
444,208,47953,2,0,P|388:208|356:196,1,70,0|0,0:0|0:0,0:0:0:0:
328,136,48300,2,0,B|291:166|280:208|292:234|316:264|332:276,1,140,8|0,0:0|0:0,0:0:0:0:
380,316,48820,1,0,0:0:0:0:
380,316,48994,1,0,0:0:0:0:
420,244,49167,6,0,P|424:192|412:168,1,70,0|0,0:0|0:0,0:0:0:0:
336,148,49514,2,0,P|336:192|352:224,1,70,8|0,0:0|0:0,0:0:0:0:
417,176,49861,2,0,P|416:144|392:92,1,70,0|0,0:0|0:0,0:0:0:0:
360,36,50208,1,8,0:0:0:0:
220,128,50555,6,0,P|264:136|304:132,1,70,0|0,0:0|0:0,0:0:0:0:
372,124,50901,1,0,0:0:0:0:
332,60,51075,2,0,B|304:36|260:76|224:35|172:36,1,140,0|0,0:0|0:0,0:0:0:0:
112,24,51595,1,8,0:0:0:0:
72,164,51768,5,0,0:0:0:0:
144,116,51942,2,0,B|193:118|234:137|234:137|252:196,1,140,0|8,0:0|0:0,0:0:0:0:
272,264,52462,1,0,0:0:0:0:
188,308,52636,2,0,P|176:268|176:232,2,70,0|0|8,0:0|0:0|0:0,0:0:0:0:
272,292,53156,5,0,0:0:0:0:
284,208,53329,2,0,B|332:200|368:208|368:208|412:268,1,140,0|8,0:0|0:0,0:0:0:0:
440,328,53849,1,0,0:0:0:0:
356,344,54023,2,0,L|280:380,2,70,0|0|8,0:0|0:0|0:0,0:0:0:0:
320,268,54543,5,0,0:0:0:0:
244,300,54716,2,0,B|180:296|160:288|160:288|140:240|140:224,1,140,0|8,0:0|0:0,0:0:0:0:
120,156,55237,1,0,0:0:0:0:
208,136,55410,2,0,L|232:216,2,70,0|0|8,0:0|0:0|0:0,0:0:0:0:
188,56,55930,5,0,0:0:0:0:
269,27,56104,2,0,P|389:95|383:150,1,210,0|8,0:0|0:0,0:0:0:0:
300,112,56797,1,0,0:0:0:0:
104,271,57318,5,0,0:0:0:0:
140,346,57491,2,0,B|198:369|247:356|247:356|239:303,1,140,0|8,0:0|0:0,0:0:0:0:
234,241,58011,1,0,0:0:0:0:
234,241,58185,1,0,0:0:0:0:
312,212,58358,1,0,0:0:0:0:
312,212,58531,1,8,0:0:0:0:
390,241,58705,5,0,0:0:0:0:
461,285,58878,2,0,B|445:143,1,140,0|8,0:0|0:0,0:0:0:0:
402,72,59399,2,0,L|316:87,1,70
287,13,59745,2,0,L|367:-3,1,70,0|8,0:0|0:0,0:0:0:0:
439,3,60092,5,0,0:0:0:0:
484,73,60266,2,0,L|493:156,1,70
462,221,60612,2,0,P|419:234|370:240,1,70,8|0,0:0|0:0,0:0:0:0:
337,176,60959,2,0,L|347:101,2,70,0|0|8,0:0|0:0|0:0,0:0:0:0:
270,227,61479,2,0,L|259:313,1,70
94,319,62000,6,0,P|87:268|71:233,1,70,8|0,0:0|0:0,0:0:0:0:
25,188,62346,2,0,L|22:99,1,70
68,47,62693,2,0,P|115:41|168:47,1,70,8|0,0:0|0:0,0:0:0:0:
221,54,63040,5,0,0:0:0:0:
204,136,63214,1,0,0:0:0:0:
204,136,63387,1,8,0:0:0:0:
356,64,63734,1,0,0:0:0:0:
356,64,63907,1,8,0:0:0:0:
380,232,64254,5,0,0:0:0:0:
328,296,64427,2,0,P|272:296|236:292,1,70,0|0,0:0|0:0,0:0:0:0:
176,276,64774,1,0,0:0:0:0:
204,196,64948,1,0,0:0:0:0:
148,132,65121,2,0,B|120:148|108:168|108:168|100:225|100:280,1,140,0|0,0:0|0:0,0:0:0:0:
240,348,65815,5,0,0:0:0:0:
320,324,65988,1,0,0:0:0:0:
320,324,66162,1,0,0:0:0:0:
356,76,66682,2,0,P|312:76|280:84,1,70,0|8,0:0|0:0,0:0:0:0:
176,208,67202,6,0,P|236:224|320:220,1,140,0|8,0:0|0:0,0:0:0:0:
392,196,67722,2,0,P|372:156|324:144,1,70,0|0,0:0|0:0,0:0:0:0:
272,116,68069,1,0,0:0:0:0:
272,116,68242,1,8,0:0:0:0:
104,136,68589,6,0,P|96:192|96:216,1,70,0|0,0:0|2:0,0:0:0:0:
148,272,68936,1,8,0:0:0:0:
180,196,69109,2,0,L|272:232,1,70,0|0,0:0|0:0,0:0:0:0:
328,240,69456,1,0,0:0:0:0:
328,240,69630,1,8,0:0:0:0:
332,76,69977,5,0,0:0:0:0:
416,84,70150,1,0,0:0:0:0:
380,160,70323,1,8,0:0:0:0:
380,160,70497,2,0,B|316:200|316:200|232:176,1,140,0|0,0:0|0:0,0:0:0:0:
176,148,71017,1,8,0:0:0:0:
200,68,71190,1,0,0:0:0:0:
280,48,71364,2,0,P|276:112|256:140,1,70,0|0,0:0|0:0,0:0:0:0:
116,172,71884,6,0,P|148:216|184:232,1,70,0|0,0:0|0:0,0:0:0:0:
196,147,72231,1,0,0:0:0:0:
127,98,72404,2,0,L|43:90,1,70,8|0,0:0|0:0,0:0:0:0:
0,142,72751,5,0,0:0:0:0:
61,199,72925,1,0,0:0:0:0:
58,282,73098,1,8,0:0:0:0:
24,358,73271,2,0,B|68:370|68:370|180:353,1,140
242,331,73792,1,8,0:0:0:0:
356,208,74138,5,0,0:0:0:0:
426,162,74312,1,0,0:0:0:0:
498,207,74485,1,8,0:0:0:0:
469,286,74659,2,0,B|424:314|424:314|336:319,1,140
255,298,75179,2,0,L|196:245,1,70,8|0,0:0|0:0,0:0:0:0:
122,277,75526,2,0,L|180:334,2,70,0|0|8,0:0|0:0|0:0,0:0:0:0:
120,192,76046,1,0,0:0:0:0:
120,192,76393,5,0,0:0:0:0:
168,123,76566,1,0,0:0:0:0:
250,108,76740,1,0,0:0:0:0:
301,174,76913,2,0,B|347:213|347:213|454:186,1,140
469,264,77433,2,0,L|328:299,1,140,8|0,0:0|0:0,0:0:0:0:
249,283,77953,1,0,0:0:0:0:
81,295,78300,6,0,P|20:239|58:173,1,140,0|8,0:0|0:0,0:0:0:0:
110,155,78820,2,0,L|201:191,1,70
258,194,79167,1,0,0:0:0:0:
312,129,79341,1,8,0:0:0:0:
437,16,79688,6,0,B|464:69|464:69|453:182,1,140,0|8,0:0|0:0,0:0:0:0:
373,160,80208,2,0,L|375:123,2,35
375,244,80555,1,0,0:0:0:0:
375,244,80728,1,8,0:0:0:0:
241,346,81075,5,0,0:0:0:0:
280,271,81248,2,0,L|235:209,1,70,0|8,0:0|0:0,0:0:0:0:
160,182,81595,2,0,P|122:192|95:215,1,70
47,278,81942,2,0,L|69:351,2,70,0|8|0,0:0|0:0|0:0,0:0:0:0:
27,196,82462,2,0,L|37:121,1,70
194,68,82982,6,0,L|136:64,2,35
264,114,83329,1,0,0:0:0:0:
329,61,83503,1,8,0:0:0:0:
368,217,83849,6,0,B|453:203,2,70
277,163,84890,1,0,0:0:0:0:
263,265,85237,2,0,B|309:322,2,70
277,163,86277,1,0,0:0:0:0:
179,232,86624,2,0,B|110:173|110:173|112:46,1,210
80,44,88705,6,0,L|44:65,2,35
180,84,89052,2,0,L|220:80,2,35,0|0|0,0:0|0:0|0:0,0:0:0:0:
105,139,89399,2,0,B|113:232|113:232|95:299,1,140,0|8,0:0|0:0,0:0:0:0:
68,355,89919,1,0,0:0:0:0:
151,350,90092,2,0,L|235:331,1,70
237,252,90439,2,0,P|224:210|223:159,1,70,8|0,0:0|0:0,0:0:0:0:
229,99,90786,2,0,B|176:96|176:96|85:115,1,140
41,274,91479,5,0,0:0:0:0:
41,274,91653,1,0,0:0:0:0:
103,218,91826,1,8,0:0:0:0:
103,218,92000,1,0,0:0:0:0:
144,290,92173,2,0,B|198:306|198:306|280:286,1,140,0|8,0:0|0:0,0:0:0:0:
353,245,92693,1,0,0:0:0:0:
426,205,92867,2,0,B|414:159|414:159|327:107,1,140,0|8,0:0|0:0,0:0:0:0:
258,74,93387,1,0,0:0:0:0:
332,36,93560,6,0,B|485:23,1,140
494,191,94254,2,0,B|513:341,1,140,0|8,0:0|0:0,0:0:0:0:
343,330,94948,6,0,B|289:329|251:354|251:354|207:310,1,140,0|8,0:0|0:0,0:0:0:0:
160,264,95468,1,0,0:0:0:0:
215,201,95641,2,0,L|287:173,2,70,0|0|8,0:0|0:0|0:0,0:0:0:0:
131,185,96162,1,0,0:0:0:0:
189,124,96335,2,0,B|288:87|288:87|347:90,1,140
363,252,97029,2,0,B|283:252|283:252|227:224,1,140,0|8,0:0|0:0,0:0:0:0:
89,317,97722,6,0,L|174:370,2,70,0|0|8,0:0|0:0|0:0,0:0:0:0:
108,149,98416,2,0,L|36:105,2,70,0|0|8,0:0|0:0|0:0,0:0:0:0:
274,175,99109,5,0,0:0:0:0:
274,175,99283,1,0,0:0:0:0:
336,118,99456,1,0,0:0:0:0:
336,118,99630,1,0,0:0:0:0:
356,199,99803,1,0,0:0:0:0:
439,209,99977,2,0,L|465:156,4,35,0|0|8|0|0,0:0|0:0|0:0|0:0|0:0,0:0:0:0:
392,280,100497,6,0,B|352:328|352:328|256:320,1,140
192,308,101017,1,8,0:0:0:0:
204,224,101190,2,0,L|284:232,1,70,0|0,0:0|0:0,0:0:0:0:
356,217,101537,5,0,0:0:0:0:
403,147,101711,1,0,0:0:0:0:
323,121,101884,2,0,L|239:105,1,70
132,196,102404,6,0,B|160:232|160:232|276:244,1,140,8|0,0:0|0:0,0:0:0:0:
328,204,102925,1,0,0:0:0:0:
400,160,103098,1,0,0:0:0:0:
368,84,103271,2,0,L|396:44,2,35,0|0|0,0:0|0:0|0:0,0:0:0:0:
288,108,103618,6,0,P|264:168|264:204,1,70,0|0,0:0|0:0,0:0:0:0:
260,256,103965,1,0,0:0:0:0:
424,216,104312,1,8,0:0:0:0:
280,128,104659,2,0,L|212:156,2,70,0|0|0,0:0|0:0|0:0,0:0:0:0:
360,108,105179,1,8,0:0:0:0:
312,40,105352,2,0,L|212:40,2,70,0|0|0,0:0|0:0|0:0,0:0:0:0:
176,140,106046,6,0,P|152:184|152:224,1,70,0|0,0:0|0:0,0:0:0:0:
152,288,106393,1,0,0:0:0:0:
152,288,106566,1,8,0:0:0:0:
404,296,107086,6,0,P|408:240|408:208,1,70,0|0,0:0|0:0,0:0:0:0:
404,140,107433,1,0,0:0:0:0:
332,184,107607,1,0,0:0:0:0:
292,108,107780,1,0,0:0:0:0:
228,164,107953,1,8,0:0:0:0:
128,300,108300,5,0,0:0:0:0:
212,284,108474,1,0,0:0:0:0:
192,204,108647,1,0,0:0:0:0:
268,168,108820,2,0,P|308:180|336:208,1,70,0|0,0:0|0:0,0:0:0:0:
256,240,109167,2,0,P|196:208|188:192,1,70,8|0,0:0|0:0,0:0:0:0:
120,172,109514,2,0,P|156:136|204:124,1,70,0|0,0:0|0:0,0:0:0:0:
256,112,109861,1,8,0:0:0:0:
424,248,110208,5,0,0:0:0:0:
364,192,110381,1,0,0:0:0:0:
436,148,110555,1,0,0:0:0:0:
372,92,110728,2,0,B|328:88|276:96|276:96|216:128,1,140,0|0,0:0|0:0,0:0:0:0:
178,177,111248,1,8,0:0:0:0:
254,213,111422,5,0,0:0:0:0:
199,276,111595,2,0,B|149:298|149:298|59:272,1,140,0|8,0:0|0:0,0:0:0:0:
3,218,112115,1,0,0:0:0:0:
72,170,112289,1,0,0:0:0:0:
149,201,112462,1,0,0:0:0:0:
231,183,112636,1,8,0:0:0:0:
289,123,112809,5,0,0:0:0:0:
355,71,112982,2,0,B|407:83|435:115|435:115|443:163,1,140,0|8,0:0|0:0,0:0:0:0:
457,244,113503,1,0,0:0:0:0:
452,327,113676,1,0,0:0:0:0:
372,354,113849,1,0,0:0:0:0:
369,269,114023,1,8,0:0:0:0:
341,189,114196,5,0,0:0:0:0:
273,139,114370,2,0,B|241:179|237:223|237:223|185:239,1,140,0|8,0:0|0:0,0:0:0:0:
107,235,114890,1,0,0:0:0:0:
66,161,115063,1,0,0:0:0:0:
24,234,115237,1,0,0:0:0:0:
62,308,115410,1,8,0:0:0:0:
139,339,115583,5,0,0:0:0:0:
220,319,115757,1,0,0:0:0:0:
233,236,115930,2,0,B|232:233|220:193|176:161,1,70
130,124,116277,1,8,0:0:0:0:
192,67,116451,2,0,B|244:63|281:73|281:73|324:135,1,140
351,187,116971,5,0,0:0:0:0:
356,270,117144,2,0,B|320:306|284:318|284:318|228:302,1,140,0|8,0:0|0:0,0:0:0:0:
155,271,117664,1,0,0:0:0:0:
132,189,117838,1,0,0:0:0:0:
198,137,118011,1,0,0:0:0:0:
140,75,118185,1,8,0:0:0:0:
214,37,118358,5,0,0:0:0:0:
300,52,118531,2,0,B|300:100|288:144|288:144|308:192,1,140,0|8,0:0|0:0,0:0:0:0:
388,212,119052,2,0,P|352:268|324:280,1,70,0|0,0:0|0:0,0:0:0:0:
272,304,119399,1,0,0:0:0:0:
204,254,119572,1,8,0:0:0:0:
138,305,119745,5,0,0:0:0:0:
66,260,119919,2,0,B|62:190|62:190|94:103,1,140,0|8,0:0|0:0,0:0:0:0:
130,52,120439,1,0,0:0:0:0:
201,95,120612,2,0,B|164:189|164:189|165:239,1,140,0|8,0:0|0:0,0:0:0:0:
191,308,121133,1,0,0:0:0:0:
268,276,121306,1,0,0:0:0:0:
407,369,121653,6,0,L|453:288,1,70,8|0,0:0|0:0,0:0:0:0:
456,225,122000,1,0,0:0:0:0:
293,182,122346,1,8,0:0:0:0:
440,101,122693,6,0,L|527:105,2,70,0|0|8,0:0|0:0|0:0,0:0:0:0:
283,38,123387,2,0,L|196:37,1,70,0|8,0:0|0:0,0:0:0:0:
97,159,123907,5,0,0:0:0:0:
157,217,124081,2,0,P|190:237|238:241,1,70
292,200,124427,2,0,P|339:195|382:204,1,70,0|8,0:0|0:0,0:0:0:0:
417,261,124774,1,0,0:0:0:0:
152,116,125468,5,0,0:0:0:0:
152,116,125641,1,0,0:0:0:0:
152,116,125815,1,8,0:0:0:0:
200,268,126162,6,0,L|160:272,2,35,0|0|0,0:0|0:0|0:0,0:0:0:0:
280,216,126508,2,0,L|268:168,2,35,8|0|0,0:0|0:0|0:0,0:0:0:0:
292,300,126855,2,0,P|364:320|440:300,1,140,0|8,0:0|0:0,0:0:0:0:
455,227,127375,2,0,L|385:240,1,70
302,230,127722,1,0,0:0:0:0:
302,230,127896,1,8,0:0:0:0:
184,124,128242,6,0,P|240:112|280:116,1,70,0|0,0:0|0:0,0:0:0:0:
336,112,128589,1,8,0:0:0:0:
360,192,128763,2,0,P|308:200|276:192,1,70,0|0,0:0|0:0,0:0:0:0:
212,176,129109,1,0,0:0:0:0:
212,176,129283,1,8,0:0:0:0:
144,292,129630,5,0,0:0:0:0:
72,248,129803,1,0,0:0:0:0:
84,164,129977,1,8,0:0:0:0:
164,132,130150,2,0,L|252:148,1,70,0|0,0:0|0:0,0:0:0:0:
312,172,130497,5,0,0:0:0:0:
324,88,130670,1,8,0:0:0:0:
392,136,130844,1,0,0:0:0:0:
376,220,131017,2,0,P|352:264|316:300,1,70,0|0,0:0|0:0,0:0:0:0:
508,296,131537,6,0,P|508:240|500:200,1,70,0|0,0:0|0:0,0:0:0:0:
480,148,131884,1,0,0:0:0:0:
480,148,132057,1,8,0:0:0:0:
320,200,132404,5,0,0:0:0:0:
252,248,132578,1,0,0:0:0:0:
184,200,132751,1,8,0:0:0:0:
212,120,132925,2,0,P|288:108|372:132,1,140,0|0,0:0|0:0,0:0:0:0:
420,168,133445,1,8,0:0:0:0:
308,292,133792,5,0,0:0:0:0:
388,312,133965,1,0,0:0:0:0:
408,232,134138,1,8,0:0:0:0:
324,216,134312,2,0,B|256:208|240:220|240:220|216:240|184:244,1,140,0|0,0:0|0:0,0:0:0:0:
110,266,134832,1,8,0:0:0:0:
55,202,135005,1,0,0:0:0:0:
120,148,135179,6,0,L|198:145,1,70
161,65,135526,2,0,L|67:66,1,70,0|8,0:0|0:0,0:0:0:0:
22,115,135873,1,0,0:0:0:0:
43,196,136046,5,0,0:0:0:0:
114,239,136219,1,0,0:0:0:0:
192,209,136393,1,0,0:0:0:0:
275,201,136566,2,0,B|351:189|351:189|423:189,1,140
444,267,137086,2,0,L|352:271,1,70,8|0,0:0|0:0,0:0:0:0:
296,296,137433,1,0,0:0:0:0:
296,296,137607,1,0,0:0:0:0:
172,180,137953,6,0,L|140:192,2,35,0|0|0,0:0|0:0|0:0,0:0:0:0:
136,104,138300,1,8,0:0:0:0:
220,96,138474,2,0,P|260:124|276:168,1,70,0|0,0:0|0:0,0:0:0:0:
304,216,138820,1,0,0:0:0:0:
304,216,138994,1,8,0:0:0:0:
144,172,139341,6,0,B|144:136|175:82|175:82|224:72,1,140,0|8,0:0|0:0,0:0:0:0:
304,68,139861,2,0,P|304:112|284:144,1,70,0|0,0:0|0:0,0:0:0:0:
240,200,140208,1,0,0:0:0:0:
240,200,140381,1,8,0:0:0:0:
114,311,140728,6,0,L|38:303,2,70,0|0|8,0:0|0:0|0:0,0:0:0:0:
195,290,141248,2,0,P|199:242|191:198,1,70
186,136,141595,1,0,0:0:0:0:
269,146,141768,1,8,0:0:0:0:
286,228,141942,1,0,0:0:0:0:
326,301,142115,2,0,P|366:305|402:301,1,70
441,140,142636,6,0,P|397:132|353:132,1,70
288,131,142982,1,0,0:0:0:0:
288,131,143156,1,8,0:0:0:0:
183,264,143503,6,0,L|275:292,2,70
176,153,144543,1,0,0:0:0:0:
304,198,144890,2,0,L|381:211,2,70
173,149,145930,1,0,0:0:0:0:
309,50,146277,5,0,0:0:0:0:
384,108,146451,2,0,L|360:164,2,35,0|0|0,0:0|0:0|0:0,0:0:0:0:
288,244,146971,1,0,0:0:0:0:
252,168,147144,2,0,L|296:160,2,35,0|0|0,0:0|0:0|0:0,0:0:0:0:
416,196,147664,5,8,0:0:0:0:
360,260,147838,2,0,L|340:216,2,35,0|0|0,0:0|0:0|0:0,0:0:0:0:
444,276,148185,1,0,0:0:0:0:
388,336,148358,2,0,P|340:336|300:316,1,70,0|0,0:0|0:0,0:0:0:0:
240,304,148705,2,0,P|264:268|296:248,1,70,0|0,0:0|0:0,0:0:0:0:
360,212,149052,5,0,0:0:0:0:
360,128,149225,2,0,L|408:128,2,35,0|0|0,0:0|0:0|0:0,0:0:0:0:
192,140,149745,1,0,0:0:0:0:
236,212,149919,2,0,L|272:188,2,35,0|0|0,0:0|0:0|0:0,0:0:0:0:
108,320,150439,5,8,0:0:0:0:
128,240,150612,2,0,L|168:244,2,35,0|0|0,0:0|0:0|0:0,0:0:0:0:
44,248,150959,1,0,0:0:0:0:
80,172,151133,2,0,P|136:160|156:160,1,70,0|0,0:0|0:0,0:0:0:0:
228,184,151479,2,0,P|228:136|216:108,1,70,0|0,0:0|0:0,0:0:0:0:
172,44,151826,5,0,0:0:0:0:
116,104,152000,1,0,0:0:0:0:
116,104,152173,2,0,P|168:128|196:124,1,70,0|0,0:0|0:0,0:0:0:0:
264,120,152520,5,0,0:0:0:0:
348,128,152693,1,0,0:0:0:0:
348,128,152867,2,0,P|344:184|336:208,1,70,0|0,0:0|0:0,0:0:0:0:
308,276,153214,5,8,0:0:0:0:
240,228,153387,2,0,L|268:180,2,35,0|0|0,0:0|0:0|0:0,0:0:0:0:
220,312,153734,1,0,0:0:0:0:
144,280,153907,2,0,P|152:224|160:204,1,70,0|0,0:0|0:0,0:0:0:0:
212,148,154254,2,0,P|172:132|136:136,1,70,0|0,0:0|0:0,0:0:0:0:
64,152,154601,5,0,0:0:0:0:
84,232,154774,2,0,L|32:260,2,35,0|0|0,0:0|0:0|0:0,0:0:0:0:
244,184,155294,1,0,0:0:0:0:
260,100,155468,2,0,L|300:88,2,35,0|0|0,0:0|0:0|0:0,0:0:0:0:
404,188,155988,5,8,0:0:0:0:
436,268,156162,2,0,L|472:256,2,35,0|0|0,0:0|0:0|0:0,0:0:0:0:
352,268,156508,1,0,0:0:0:0:
320,192,156682,2,0,P|328:136|340:116,1,70,0|0,0:0|0:0,0:0:0:0:
380,52,157029,1,0,0:0:0:0:
412,216,157375,5,0,0:0:0:0:
332,184,157549,2,0,L|360:148,2,35,0|0|8,0:0|0:0|0:0,0:0:0:0:
336,268,157896,1,0,0:0:0:0:
252,252,158069,2,0,P|240:192|268:112,1,140,0|8,0:0|0:0,0:0:0:0:
372,248,158763,6,0,P|320:252|236:220,1,140,0|8,0:0|0:0,0:0:0:0:
180,160,159283,1,0,0:0:0:0:
180,76,159456,2,0,P|228:84|252:104,1,70,0|0,0:0|0:0,0:0:0:0:
256,180,159803,2,0,P|216:172|180:148,1,70,8|0,0:0|0:0,0:0:0:0:
124,108,160150,5,0,0:0:0:0:
284,60,160497,2,0,P|336:80|360:104,1,70,8|0,0:0|0:0,0:0:0:0:
392,160,160844,1,0,0:0:0:0:
224,180,161190,1,8,0:0:0:0:
76,96,161537,6,0,B|128:64|167:55|167:55|228:60,1,140,0|0,0:0|0:0,0:0:0:0:
312,192,162231,2,0,P|268:224|240:228,1,70,0|0,0:0|0:0,0:0:0:0:
168,236,162578,1,8,0:0:0:0:
144,68,162925,5,0,0:0:0:0:
112,148,163098,2,0,L|77:141,2,35,0|0|8,0:0|0:0|0:0,0:0:0:0:
196,140,163445,1,0,0:0:0:0:
280,144,163618,2,0,P|272:96|260:72,1,70,0|0,0:0|0:0,0:0:0:0:
196,140,163965,2,0,P|208:196|220:212,1,70,8|0,0:0|0:0,0:0:0:0:
272,268,164312,5,0,0:0:0:0:
436,224,164659,2,0,L|384:168,1,70,8|0,0:0|0:0,0:0:0:0:
328,116,165005,1,0,0:0:0:0:
232,252,165352,2,0,P|276:272|312:280,1,70,8|0,0:0|0:0,0:0:0:0:
380,292,165699,5,0,0:0:0:0:
400,124,166046,2,0,P|344:136|312:140,1,70,8|0,0:0|0:0,0:0:0:0:
248,140,166393,1,0,0:0:0:0:
88,196,166740,2,0,P|96:264|108:288,1,70,8|0,0:0|0:0,0:0:0:0:
136,336,167086,5,0,0:0:0:0:
272,236,167433,1,0,0:0:0:0:
140,136,167780,1,8,0:0:0:0:
96,300,168474,6,0,B|152:320|152:320|240:308,1,140,0|0,0:0|0:0,0:0:0:0:
328,172,169861,2,0,B|384:192|384:192|392:272,1,140,0|0,0:0|0:0,0:0:0:0:
224,300,171248,5,0,0:0:0:0:
104,184,171595,2,0,L|136:112,1,70,0|0,0:0|0:0,0:0:0:0:
200,72,171942,1,0,0:0:0:0:
328,180,172289,2,0,L|248:192,1,70,0|0,0:0|0:0,0:0:0:0:
212,260,172636,1,0,0:0:0:0:
360,336,172982,2,0,L|424:264,1,70,0|0,0:0|0:0,0:0:0:0:
416,200,173329,1,0,0:0:0:0:
308,72,173676,2,0,L|296:152,1,70,0|0,0:0|0:0,0:0:0:0:
236,196,174023,5,0,0:0:0:0:
380,284,174370,1,0,0:0:0:0:
396,116,174716,1,0,0:0:0:0:
240,56,175063,1,0,0:0:0:0:
236,224,175410,5,0,0:0:0:0:
248,240,176104,1,0,0:0:0:0:
260,256,176797,1,0,0:0:0:0:
228,152,177144,6,0,P|272:152|308:168,1,70,0|0,0:0|0:0,0:0:0:0:
396,208,177664,1,0,0:0:0:0:
408,108,178011,1,0,0:0:0:0:
408,108,178185,5,0,0:0:0:0:
292,48,178531,1,0,0:0:0:0:
216,140,178878,1,0,0:0:0:0:
92,116,179225,1,0,0:0:0:0:
192,20,179572,5,0,0:0:0:0:
204,36,180266,1,8,0:0:0:0:
216,56,180959,1,0,0:0:0:0:
228,72,181653,1,8,0:0:0:0:
196,192,182346,5,0,0:0:0:0:
320,180,182693,2,0,P|312:220|288:256,1,70,0|0,0:0|0:0,0:0:0:0:
192,320,183214,1,8,0:0:0:0:
144,220,183560,1,0,0:0:0:0:
216,80,184601,5,0,0:0:0:0:
300,84,184774,1,0,0:0:0:0:
272,164,184948,1,0,0:0:0:0:
356,172,185121,2,0,P|328:228|244:244,1,140,0|8,0:0|0:0,0:0:0:0:
94,203,185815,2,0,P|122:147|206:131,1,140,0|8,0:0|0:0,0:0:0:0:
348,192,186508,1,0,0:0:0:0:
256,316,187375,5,0,0:0:0:0:
232,236,187549,1,0,0:0:0:0:
284,168,187722,1,0,0:0:0:0:
248,92,187896,2,0,P|188:120|152:200,1,140,0|8,0:0|0:0,0:0:0:0:
232,332,188589,2,0,P|288:312|328:228,1,140,0|8,0:0|0:0,0:0:0:0:
232,108,189283,2,0,B|160:136|140:208|140:208,1,140,0|0,0:0|0:0,0:0:0:0:
252,336,189977,2,0,P|312:320|368:260,1,140,0|0,0:0|0:0,0:0:0:0:
364,96,190670,2,0,B|320:104|288:104|288:104|248:48|248:48|164:56|164:56|144:112|160:160|160:160|268:160,1,420,0|8,0:0|0:0,0:0:0:0:
364,280,192057,5,0,0:0:0:0:
364,280,192231,1,0,0:0:0:0:
364,280,192404,1,8,0:0:0:0:
172,152,192925,1,0,0:0:0:0:
172,152,193098,1,8,0:0:0:0:
336,184,193445,6,0,B|332:232|320:272|320:272|260:292,1,140,0|8,0:0|0:0,0:0:0:0:
188,304,193965,2,0,P|196:256|212:228,1,70,0|0,0:0|0:0,0:0:0:0:
260,172,194312,1,0,0:0:0:0:
260,172,194485,1,8,0:0:0:0:
114,255,194832,6,0,B|70:251|70:251|50:203|54:143,1,140,0|8,0:0|0:0,0:0:0:0:
97,85,195352,2,0,P|149:89|181:117,1,70
232,145,195699,1,0,0:0:0:0:
232,145,195873,1,8,0:0:0:0:
296,299,196219,5,0,0:0:0:0:
346,231,196393,1,0,0:0:0:0:
413,281,196566,1,8,0:0:0:0:
448,204,196740,2,0,B|444:160|444:160|416:108,1,70
371,79,197086,2,0,L|275:63,2,70,0|8|0,0:0|0:0|0:0,0:0:0:0:
320,147,197607,2,0,L|244:143,1,70
110,49,198127,6,0,L|202:53,1,70
263,58,198474,1,0,0:0:0:0:
263,58,198647,1,8,0:0:0:0:
251,225,198994,5,0,0:0:0:0:
167,220,199167,1,0,0:0:0:0:
201,296,199341,1,8,0:0:0:0:
283,313,199514,2,0,P|322:301|353:265,1,70
394,214,199861,1,0,0:0:0:0:
394,214,200034,1,8,0:0:0:0:
272,64,200381,5,0,0:0:0:0:
188,48,200555,1,0,0:0:0:0:
136,112,200728,1,8,0:0:0:0:
216,140,200901,2,0,B|200:192|156:216|156:216|156:272,1,140,0|0,0:0|0:0,0:0:0:0:
140,340,201422,2,0,P|188:344|224:324,1,70,8|0,0:0|0:0,0:0:0:0:
228,256,201768,2,0,B|276:260|320:280,1,70,0|0,0:0|0:0,0:0:0:0:
368,316,202115,1,0,0:0:0:0:
368,316,202289,1,8,0:0:0:0:
400,184,202636,5,0,0:0:0:0:
376,104,202809,1,0,0:0:0:0:
308,156,202982,1,0,0:0:0:0:
268,80,203156,2,0,B|220:100|209:156|209:156|200:228,1,140,0|0,0:0|0:0,0:0:0:0:
252,264,203676,2,0,B|204:296|140:272|140:272|96:227|104:168,1,210,8|0,0:0|0:0,0:0:0:0:
192,44,204543,6,0,P|268:44|328:92,1,140,0|8,0:0|0:0,0:0:0:0:
360,152,205063,2,0,P|312:160|272:152,1,70,0|0,0:0|0:0,0:0:0:0:
208,140,205410,1,0,0:0:0:0:
208,140,205583,1,8,0:0:0:0:
352,56,205930,6,0,B|392:92|400:132|400:132|368:196,1,140,0|8,0:0|0:0,0:0:0:0:
306,220,206451,2,0,L|219:197,1,70
199,127,206797,1,0,0:0:0:0:
199,127,206971,1,8,0:0:0:0:
137,283,207318,5,0,0:0:0:0:
210,322,207491,2,0,P|249:325|290:303,1,70,0|8,0:0|0:0,0:0:0:0:
349,271,207838,2,0,L|342:195,1,70
315,121,208185,1,0,0:0:0:0:
272,193,208358,1,8,0:0:0:0:
197,230,208531,1,0,0:0:0:0:
114,212,208705,2,0,P|74:216|42:240,1,70
182,334,209225,6,0,L|275:335,1,70
330,304,209572,1,0,0:0:0:0:
330,304,209745,1,8,0:0:0:0:
416,156,210092,5,0,0:0:0:0:
344,76,210439,2,0,L|264:112,1,70,8|0,0:0|2:0,2:0:0:0:
192,80,210786,1,0,0:0:0:0:
104,208,211133,2,0,L|188:216,1,70,8|0,0:0|2:0,2:0:0:0:
240,264,211479,1,0,0:0:0:0:
428,280,211826,2,0,L|392:204,1,70,8|0,0:0|2:0,2:0:0:0:
416,128,212173,1,0,0:0:0:0:
224,56,212520,2,0,L|200:156,1,70,8|0,0:0|2:0,2:0:0:0:
252,208,212867,6,0,B|236:248|216:280|216:280|144:280,1,140,0|8,0:0|0:0,0:0:0:0:
68,136,213560,2,0,B|80:92|96:80|96:80|148:64|188:72,1,140,0|8,0:0|0:0,0:0:0:0:
288,124,214254,2,0,L|384:104,2,70,8|0|0,0:0|0:0|0:0,0:0:0:0:
236,192,214774,1,0,0:0:0:0:
316,216,214948,2,0,L|362:203,2,35
280,292,215294,1,8,0:0:0:0:
112,296,215641,6,0,B|104:244|105:200|105:200|128:152,1,140,0|8,0:0|0:0,0:0:0:0:
204,136,216162,2,0,B|204:176|204:176|192:212,1,70,0|0,0:0|0:0,0:0:0:0:
156,280,216508,1,0,0:0:0:0:
240,292,216682,2,0,P|292:284|312:272,1,70,8|0,0:0|0:0,0:0:0:0:
360,208,217029,6,0,B|345:157|328:132|328:132|280:112|248:108,1,140,0|8,0:0|0:0,0:0:0:0:
286,29,217549,2,0,L|362:54,1,70
433,73,217896,1,0,0:0:0:0:
454,153,218069,2,0,P|450:209|430:245,1,70,8|0,0:0|0:0,0:0:0:0:
384,300,218416,5,0,0:0:0:0:
384,300,218589,1,0,0:0:0:0:
300,284,218763,1,8,0:0:0:0:
300,284,218936,2,0,P|304:220|316:200,1,70,0|0,0:0|0:0,0:0:0:0:
352,124,219283,1,0,0:0:0:0:
284,76,219456,1,8,0:0:0:0:
236,144,219630,1,0,0:0:0:0:
160,180,219803,2,0,P|156:136|164:100,1,70,0|0,0:0|0:0,0:0:0:0:
320,192,220323,6,0,P|324:248|312:280,1,70,0|0,0:0|0:0,0:0:0:0:
252,312,220670,2,0,L|208:312,2,35,0|0|8,0:0|0:0|0:0,0:0:0:0:
128,196,221190,5,0,0:0:0:0:
212,204,221364,1,0,0:0:0:0:
196,120,221537,1,8,0:0:0:0:
280,136,221711,2,0,L|356:148,1,70,0|0,0:0|0:0,0:0:0:0:
432,136,222057,1,0,0:0:0:0:
432,136,222231,1,8,0:0:0:0:
480,280,222578,5,0,0:0:0:0:
424,216,222751,1,0,0:0:0:0:
484,156,222925,1,8,0:0:0:0:
440,84,223098,2,0,P|392:88|356:108,1,70,0|0,0:0|0:0,0:0:0:0:
300,144,223445,5,0,0:0:0:0:
316,228,223618,1,8,0:0:0:0:
232,212,223792,1,0,0:0:0:0:
212,132,223965,2,0,P|212:88|220:52,1,70,0|0,0:0|0:0,0:0:0:0:
300,84,224312,1,0,0:0:0:0:
300,84,224485,1,8,0:0:0:0:
416,204,224832,5,0,0:0:0:0:
332,188,225005,1,0,0:0:0:0:
384,124,225179,2,0,P|464:136|504:264,1,210,0|0,0:0|0:0,0:0:0:0:
490,327,225873,2,0,L|402:321,1,70,8|0,0:0|0:0,0:0:0:0:
401,240,226219,2,0,L|448:242,2,35
288,112,226740,6,0,P|216:112|144:156,1,140,0|8,0:0|0:0,0:0:0:0:
112,212,227260,2,0,P|160:228|204:216,1,70,0|0,0:0|0:0,0:0:0:0:
252,188,227607,1,0,0:0:0:0:
324,232,227780,1,8,0:0:0:0:
404,204,227953,5,0,0:0:0:0:
404,204,228127,2,0,P|344:252|260:256,1,140,0|8,0:0|0:0,0:0:0:0:
208,224,228647,2,0,P|232:188|268:176,1,70,0|0,0:0|0:0,0:0:0:0:
340,168,228994,1,0,0:0:0:0:
340,168,229167,1,8,0:0:0:0:
268,320,229514,5,0,0:0:0:0:
220,252,229688,1,0,0:0:0:0:
264,180,229861,1,8,0:0:0:0:
212,112,230034,2,0,P|256:88|352:92,1,140,0|0,0:0|0:0,0:0:0:0:
400,152,230555,1,8,0:0:0:0:
365,228,230728,1,0,0:0:0:0:
289,263,230901,2,0,L|208:246,1,70
76,337,231422,6,0,L|166:359,1,70
227,344,231768,1,0,0:0:0:0:
227,344,231942,1,8,0:0:0:0:
180,192,232289,6,0,P|220:180|256:184,1,70,0|0,0:0|0:0,0:0:0:0:
332,196,232636,1,8,0:0:0:0:
332,196,232982,2,0,P|324:144|316:112,1,70,0|0,0:0|0:0,0:0:0:0:
288,48,233329,1,8,0:0:0:0:
288,48,233676,2,0,B|244:48|208:52,1,70,0|0,0:0|0:0,0:0:0:0:
168,120,234023,1,8,0:0:0:0:
168,120,234370,2,0,P|236:128|260:136,1,70,0|0,0:0|0:0,0:0:0:0:
244,212,234716,1,8,0:0:0:0:
416,232,235063,6,0,P|420:198|420:156,2,70,0|0|8,0:0|0:0|0:0,0:0:0:0:
344,276,235583,1,0,0:0:0:0:
340,192,235757,2,0,P|344:152|344:112,2,70,0|0|8,0:0|0:0|0:0,0:0:0:0:
264,224,236277,1,0,0:0:0:0:
260,140,236451,2,0,P|264:103|264:60,2,70,0|0|8,0:0|0:0|0:0,0:0:0:0:
184,176,236971,6,0,L|168:140,2,35,0|0|0,0:0|0:0|0:0,0:0:0:0:
168,260,237318,2,0,L|184:296,2,35,0|0|8,0:0|0:0|0:0,0:0:0:0:
312,312,237838,6,0,L|324:232,2,70,0|0|0,0:0|0:0|0:0,0:0:0:0:
204,268,238878,1,0,0:0:0:0:
208,152,239225,2,0,L|284:148,2,70,0|0|0,0:0|0:0|0:0,0:0:0:0:
124,220,240266,1,0,0:0:0:0:
212,324,240612,6,0,B|268:336|298:323|298:323|336:288,1,140,0|8,0:0|0:0,0:0:0:0:
436,152,241306,1,0,0:0:0:0:
376,92,241479,5,0,0:0:0:0:
296,116,241653,1,0,0:0:0:0:
320,196,241826,1,8,0:0:0:0:
240,212,242000,2,0,B|248:248|284:276|284:276|258:304|212:300,1,140,0|8,0:0|0:0,0:0:0:0:
64,312,242693,2,0,B|32:296|32:296|28:236|60:188,1,140,0|0,0:0|0:0,0:0:0:0:
120,144,243214,1,0,0:0:0:0:
120,144,243300,1,0,0:0:0:0:
120,144,243387,2,0,B|160:164|188:192|188:192|252:212,1,140,0|8,0:0|0:0,0:0:0:0:
408,232,244081,1,0,0:0:0:0:
424,148,244254,5,0,0:0:0:0:
340,164,244427,1,0,0:0:0:0:
284,228,244601,1,8,0:0:0:0:
248,304,244774,2,0,B|204:324|168:328|168:328|104:312,1,140,0|8,0:0|0:0,0:0:0:0:
36,164,245468,2,0,B|76:140|108:128|108:128|188:136,1,140,0|0,0:0|0:0,0:0:0:0:
252,280,246162,6,0,B|308:276|340:268|340:268|344:204,1,140,0|8,0:0|0:0,0:0:0:0:
348,48,246855,1,0,0:0:0:0:
268,72,247029,5,0,0:0:0:0:
324,136,247202,1,0,0:0:0:0:
328,220,247375,1,8,0:0:0:0:
280,288,247549,2,0,B|240:300|184:304|184:304|132:284,1,140,0|8,0:0|0:0,0:0:0:0:
108,124,248242,2,0,B|164:152|188:196|188:196|200:240,1,140,0|0,0:0|0:0,0:0:0:0:
220,308,248763,5,0,0:0:0:0:
220,308,248849,1,0,0:0:0:0:
220,308,248936,2,0,B|272:308|324:296|324:296|368:264,1,140,0|8,0:0|0:0,0:0:0:0:
460,148,249630,1,0,0:0:0:0:
396,96,249803,5,0,0:0:0:0:
316,120,249977,1,0,0:0:0:0:
256,180,250150,1,8,0:0:0:0:
216,252,250323,2,0,B|208:316|220:344|220:344|268:352,1,140,0|8,0:0|0:0,0:0:0:0:
436,336,251017,2,0,B|440:276|428:232|428:232|392:204,1,140,0|8,0:0|0:0,0:0:0:0:
244,148,251711,1,0,0:0:0:0:
256,192,252057,12,0,255526,0:0:0:0:
256,192,255699,12,0,261422,0:0:0:0:
