osu file format v14

[General]
AudioFilename: Asymmetry.mp3
AudioLeadIn: 0
PreviewTime: 67202
Countdown: 0
SampleSet: Soft
StackLeniency: 0.7
Mode: 0
LetterboxInBreaks: 0
WidescreenStoryboard: 0

[Editor]
DistanceSpacing: 1.1
BeatDivisor: 4
GridSize: 4
TimelineZoom: 1.6

[Metadata]
Title:Asymmetry
TitleUnicode:アシンメトリー
Artist:Horie Yui
ArtistUnicode:堀江由衣
Creator:Hanazawa Kana
Version:Easy
Source:K RETURN OF KINGS
Tags:櫛名 アンナ Kushina Anna Opening op full version katsu Yoyupond Hi_Hello Misure ProEzreal __Ag FaiVillager
BeatmapID:925829
BeatmapSetID:410999

[Difficulty]
HPDrainRate:2
CircleSize:3
OverallDifficulty:2
ApproachRate:3
SliderMultiplier:0.8
SliderTickRate:1

[Events]
//Background and Video events
0,0,"02.png",0,0
//Break Periods
2,64443,65418
2,123933,125415
2,143355,144837
2,167980,183337
//Storyboard Layer 0 (Background)
//Storyboard Layer 1 (Fail)
//Storyboard Layer 2 (Pass)
//Storyboard Layer 3 (Foreground)
//Storyboard Sound Samples

[TimingPoints]
681,416.666666666667,4,2,1,50,1,0
11722,428.571428571429,4,2,1,70,1,0
12364,458.015267175573,4,2,1,60,1,0
12822,422.535211267606,4,2,1,60,1,0
13244,468.75,4,2,1,60,1,0
14139,346.820809248555,4,2,1,60,1,0
15873,346.820809248555,4,2,1,60,1,0
29745,-100,4,2,1,60,0,0
51942,-100,4,2,1,70,0,0
67202,-100,4,2,1,80,0,1
83849,-100,4,2,1,60,0,0
88011,-100,4,2,1,5,0,0
89399,-100,4,2,1,60,0,0
100497,-100,4,2,1,50,0,0
111595,-100,4,2,1,60,0,0
126855,-100,4,2,1,70,0,1
143503,-100,4,2,1,80,0,0
185121,-100,4,2,1,60,0,0
193445,-100,4,2,1,70,0,1
237838,-100,4,2,1,60,0,0
240612,-100,4,2,1,60,0,0
251711,-100,4,2,1,30,0,0
252057,-100,4,2,1,40,0,0
255526,-100,4,2,1,5,0,0
255699,-100,4,2,1,30,0,0
261422,-100,4,2,1,5,0,0

[Colours]
Combo1 : 152,164,248
Combo2 : 243,97,97
Combo3 : 104,137,174
Combo4 : 254,210,107

[HitObjects]
116,64,15873,6,0,P|101:101|100:148,1,80,2|8,0:0|0:0,0:0:0:0:
144,216,16566,2,0,P|216:220|252:208,1,80,2|8,0:0|0:0,0:0:0:0:
296,170,17260,6,2,B|372:114|372:114|375:81|412:50,1,160
460,123,18300,1,8,0:0:0:0:
485,206,18647,2,2,B|442:216|412:196|412:196|369:227|313:250,1,160
256,269,19688,1,8,0:0:0:0:
168,280,20034,6,2,P|196:203|278:183,1,160
352,190,21075,1,8,0:0:0:0:
348,276,21422,2,0,B|340:320|324:352|264:376|220:352|220:352|180:380|128:360,1,240,2|8,0:0|0:0,0:0:0:0:
84,324,22809,6,2,B|81:243|81:243|63:156,1,160
80,78,23849,1,8,0:0:0:0:
164,52,24196,2,2,B|228:44|252:44|252:44|336:52,1,160
408,80,25237,1,8,0:0:0:0:
496,72,25583,6,2,P|480:132|392:168,1,160
312,144,26624,1,8,0:0:0:0:
312,55,26971,2,0,B|262:59|236:81|203:132|238:190|238:190|168:240,1,240,2|8,0:0|0:0,0:0:0:0:
117,262,28358,1,8,0:0:0:0:
120,176,29745,6,2,L|168:52,2,120,2|8|2,0:0|0:0|0:0,0:0:0:0:
196,224,31133,2,2,P|252:252|312:232,2,120,2|8|2,0:0|0:0|0:0,0:0:0:0:
260,164,32520,6,0,L|292:44,1,120,2|8,0:0|0:0,0:0:0:0:
496,124,33907,2,2,L|468:248,2,120,2|8|2,0:0|0:0|0:0,0:0:0:0:
408,136,35294,6,2,L|376:268,2,120,2|8|2,0:0|0:0|0:0,0:0:0:0:
324,112,36682,2,2,P|256:120|220:156,2,120,2|8|2,0:0|0:0|0:0,0:0:0:0:
312,24,38069,6,0,L|188:16,1,120,2|8,0:0|0:0,0:0:0:0:
72,200,39456,2,0,P|120:208|164:224,1,80,2|8,0:0|0:0,0:0:0:0:
224,156,40150,2,0,P|265:170|308:196,1,80,2|8,0:0|0:0,0:0:0:0:
352,260,40844,6,2,L|352:128,2,120,2|8|2,0:0|0:0|0:0,0:0:0:0:
264,244,42231,2,2,P|208:236|128:244,2,120,2|8|2,0:0|0:0|0:0,0:0:0:0:
296,328,43618,6,0,L|432:352,1,120,2|8,0:0|0:0,0:0:0:0:
451,269,44485,2,2,L|363:249,1,80
360,208,45005,2,2,P|380:164|352:88,2,120,2|8|2,0:0|0:0|0:0,0:0:0:0:
292,152,46393,6,2,P|224:139|172:164,2,120,2|8|2,0:0|0:0|0:0,0:0:0:0:
241,224,47780,2,0,B|274:261|327:264|327:264|302:295,1,120,2|8,0:0|0:0,0:0:0:0:
95,312,49167,6,2,B|66:265|71:192|115:160,1,160
184,124,50208,1,8,0:0:0:0:
252,68,50555,2,2,P|194:39|123:63,2,120
336,44,51942,6,2,P|324:112|262:154,1,120
244,144,52636,2,0,L|220:232,1,80,2|8,0:0|0:0,0:0:0:0:
168,288,53329,2,2,P|96:282|36:264,1,120
40,228,54023,2,0,L|32:148,1,80,2|8,0:0|0:0,0:0:0:0:
68,68,54716,6,2,P|129:73|184:100,1,120
212,128,55410,2,0,L|296:132,1,80,2|8,0:0|0:0,0:0:0:0:
356,196,56104,2,0,B|308:32,1,160,2|8,0:0|0:0,0:0:0:0:
476,108,57491,6,2,L|512:224,1,120
492,264,58185,2,0,P|464:272|404:264,1,80,2|8,0:0|0:0,0:0:0:0:
348,212,58878,2,2,L|228:248,1,120
148,220,59745,1,8,0:0:0:0:
60,124,60266,6,2,L|156:100,1,80,2|10,0:0|0:0,0:0:0:0:
212,152,60959,2,0,L|296:152,1,80,2|8,0:0|0:0,0:0:0:0:
348,220,61653,2,2,L|428:252,2,80
292,288,62693,1,8,0:0:0:0:
228,348,63040,2,0,B|-16:320,1,240,2|8,0:0|0:0,0:0:0:0:
68,240,67202,6,2,L|200:272,1,120
216,300,67896,2,0,L|304:284,1,80,0|8,0:0|0:0,0:0:0:0:
344,212,68589,2,2,P|356:149|392:100,1,120
364,68,69283,2,0,L|280:72,1,80,2|8,0:0|0:0,0:0:0:0:
204,108,69977,6,2,L|68:116,2,120,2|8|2,0:0|0:0|0:0,0:0:0:0:
268,48,71364,1,2,0:0:0:0:
300,176,71884,2,0,L|280:304,1,120,8|2,0:0|0:0,0:0:0:0:
352,348,72751,6,2,P|288:384|232:368,2,120,2|8|2,0:0|0:0|0:0,0:0:0:0:
400,276,74138,2,2,L|416:152,2,120,2|8|2,0:0|0:0|0:0,0:0:0:0:
316,239,75526,6,2,P|267:219|188:232,2,120,2|8|2,0:0|0:0|0:0,0:0:0:0:
336,152,76913,2,2,L|356:28,2,120,2|8|2,0:0|0:0|0:0,0:0:0:0:
249,127,78300,6,2,P|188:125|129:134,1,120
99,166,78994,2,0,L|78:253,1,80,2|8,0:0|0:0,0:0:0:0:
106,327,79687,2,2,P|26:315|-6:263,1,120
2,243,80381,2,0,L|11:156,1,80,2|8,0:0|0:0,0:0:0:0:
51,85,81075,6,2,P|107:70|174:103,2,120,2|2|8,0:0|0:0|0:0,0:0:0:0:
102,156,82462,1,8,0:0:0:0:
161,273,82982,2,0,P|213:305|275:312,1,120,2|8,0:0|0:0,0:0:0:0:
256,192,83849,12,0,88011,0:0:0:0:
300,60,89399,6,2,P|300:116|200:184,1,160
140,192,90439,1,8,0:0:0:0:
68,144,90786,2,2,P|64:232|128:278,1,160
200,288,91826,1,8,0:0:0:0:
198,199,92173,6,2,B|246:203|277:231|288:276|288:276|352:276,1,160
409,276,93214,1,8,0:0:0:0:
400,188,93560,2,0,B|302:127|302:127|230:93|168:96,1,240,2|8,0:0|0:0,0:0:0:0:
176,183,94948,6,2,P|260:207|312:287,1,160
250,331,95988,1,8,0:0:0:0:
164,352,96335,2,2,P|72:324|52:252,1,160
37,183,97375,1,8,0:0:0:0:
11,98,97722,6,2,P|85:109|127:187,1,160
132,265,98763,1,8,0:0:0:0:
193,327,99109,2,0,B|278:351|278:351|430:328,1,240,2|8,0:0|0:0,0:0:0:0:
464,247,100497,6,2,L|465:124,2,120,2|8|2,0:0|0:0|0:0,0:0:0:0:
379,220,101885,2,2,L|381:95,2,120,2|8|2,0:0|0:0|0:0,0:0:0:0:
354,304,103272,6,2,P|297:337|237:347,1,120
208,322,103965,2,0,L|176:243,1,80,2|8,0:0|0:0,0:0:0:0:
164,160,104659,2,2,P|102:161|38:180,1,120
22,139,105352,2,0,L|56:63,1,80,2|8,0:0|0:0,0:0:0:0:
142,64,106046,6,2,L|270:50,2,120,2|8|2,0:0|0:0|0:0,0:0:0:0:
179,143,107433,2,2,L|302:129,2,120,2|8|2,0:0|0:0|0:0,0:0:0:0:
171,230,108820,2,0,P|195:289|220:307,1,80,2|8,0:0|0:0,0:0:0:0:
293,311,109514,2,0,L|374:262,1,80,2|8,0:0|0:0,0:0:0:0:
426,209,110208,2,2,L|522:225,2,80
356,154,111248,1,8,0:0:0:0:
288,96,111595,6,2,L|164:82,1,120
138,114,112289,2,0,P|131:156|113:202,1,80,2|8,0:0|0:0,0:0:0:0:
77,269,112982,2,2,L|199:283,1,120
233,258,113676,2,0,L|314:290,1,80,2|8,0:0|0:0,0:0:0:0:
362,356,114370,6,2,B|415:293|373:231,1,120
370,202,115063,2,0,L|393:119,1,80,2|8,0:0|0:0,0:0:0:0:
469,165,115757,2,0,L|484:333,1,160,2|8,0:0|0:0,0:0:0:0:
307,320,117144,6,2,P|255:300|171:308,1,120
147,300,117838,2,0,L|60:278,1,80,2|8,0:0|0:0,0:0:0:0:
41,196,118531,2,2,L|176:174,1,120
194,158,119225,2,0,L|252:97,1,80,2|8,0:0|0:0,0:0:0:0:
335,117,119919,6,0,L|424:113,1,80,2|8,0:0|0:0,0:0:0:0:
436,198,120612,2,0,L|350:202,1,80,2|8,0:0|0:0,0:0:0:0:
293,264,121306,6,2,L|201:248,2,80
367,311,122346,1,8,0:0:0:0:
295,362,122693,6,0,B|155:368|155:368|63:317,1,240,2|8,0:0|0:0,0:0:0:0:
108,92,126855,6,2,P|172:92|252:124,1,120
259,136,127549,2,0,L|343:121,1,80,2|8,0:0|0:0,0:0:0:0:
363,206,128242,2,2,L|229:232,1,120
203,242,128936,2,0,P|145:266|128:284,1,80,2|8,0:0|0:0,0:0:0:0:
55,234,129630,6,2,L|71:108,2,120,0|0|8,0:0|0:0|0:0,0:0:0:0:
51,321,131017,1,8,0:0:0:0:
172,372,131537,2,0,L|305:341,1,120,2|8,0:0|0:0,0:0:0:0:
341,274,132404,6,2,L|468:306,2,120,2|8|2,0:0|0:0|0:0,0:0:0:0:
271,219,133791,2,2,L|137:200,2,120,2|8|2,0:0|0:0|0:0,0:0:0:0:
304,137,135179,6,0,L|135:110,1,160,2|8,0:0|0:0,0:0:0:0:
22,208,136566,2,0,P|31:277|74:323,1,120,2|8,0:0|0:0,0:0:0:0:
268,332,137953,6,2,L|367:249,1,120
395,228,138647,2,0,B|396:180|393:140|392:140,1,80,2|8,0:0|0:0,0:0:0:0:
329,87,139340,2,2,P|390:57|445:82,1,120
476,90,140034,2,8,L|484:173,1,80,10|8,0:0|0:0,0:0:0:0:
487,258,140728,6,2,P|460:321|407:341,2,120,2|8|2,0:0|0:0|0:0,0:0:0:0:
399,253,142115,1,8,0:0:0:0:
290,178,142635,2,0,L|174:241,1,120,2|8,0:0|0:0,0:0:0:0:
275,153,146277,6,0,P|352:156|403:245,1,160,0|8,0:0|0:0,0:0:0:0:
224,229,147664,2,2,P|187:172|189:125,1,80
207,76,148358,1,8,0:0:0:0:
360,162,149052,6,2,P|344:222|316:254,1,80
264,288,149745,1,8,0:0:0:0:
168,136,150439,2,2,P|228:128|264:136,1,80
293,205,151133,2,0,P|241:213|205:209,1,80,8|2,0:0|0:0,0:0:0:0:
125,213,151826,6,2,P|145:277|177:305,1,80
229,328,152520,1,8,0:0:0:0:
272,144,153214,2,2,P|336:144|384:156,1,80
436,172,153907,1,8,0:0:0:0:
324,308,154601,6,2,P|256:304|216:292,1,80
160,272,155294,1,8,0:0:0:0:
316,184,155988,2,0,P|384:164|440:80,1,160,2|8,0:0|0:0,0:0:0:0:
268,44,157375,5,2,0:0:0:0:
184,68,157722,2,2,L|120:44,2,40,2|2|8,0:0|0:0|0:0,0:0:0:0:
232,144,158416,1,2,0:0:0:0:
316,116,158763,5,2,0:0:0:0:
376,180,159109,2,2,L|432:164,2,40,2|2|8,0:0|0:0|0:0,0:0:0:0:
340,260,159803,1,2,0:0:0:0:
268,312,160150,5,2,0:0:0:0:
208,248,160497,2,2,L|156:256,2,40,2|2|8,0:0|0:0|0:0,0:0:0:0:
260,176,161190,1,0,0:0:0:0:
200,112,161537,6,2,P|152:116|84:128,1,80
32,124,162231,2,2,P|28:76|32:36,1,80,10|2,0:0|0:0,0:0:0:0:
116,24,162925,5,2,0:0:0:0:
204,32,163271,2,2,L|272:8,2,40,2|2|8,0:0|0:0|0:0,0:0:0:0:
156,104,163965,1,2,0:0:0:0:
232,148,164312,5,2,0:0:0:0:
160,196,164659,2,2,L|96:216,2,40,2|2|8,0:0|0:0|0:0,0:0:0:0:
236,236,165352,1,2,0:0:0:0:
316,204,165699,5,2,0:0:0:0:
376,140,166046,2,2,L|360:96,2,40,2|2|8,0:0|0:0|0:0,0:0:0:0:
436,204,166740,1,2,0:0:0:0:
443,291,167086,5,2,0:0:0:0:
363,328,167433,1,2,0:0:0:0:
282,292,167780,1,8,0:0:0:0:
32,320,185121,6,2,P|120:328|184:256,1,160
156,108,186508,2,0,P|92:164|92:260,1,160,8|2,0:0|0:0,0:0:0:0:
216,350,187896,2,2,P|223:274|168:202,1,160
345,189,189283,6,0,P|409:145|417:49,1,160,8|2,0:0|0:0,0:0:0:0:
252,25,190670,2,0,P|136:61|128:189,1,240,2|2,0:0|0:0,0:0:0:0:
79,261,193445,6,2,P|62:185|85:133,1,120
112,123,194138,2,0,L|207:98,1,80,2|8,0:0|0:0,0:0:0:0:
277,96,194832,2,2,L|302:224,1,120
322,251,195526,2,0,P|367:250|408:225,1,80,2|8,0:0|0:0,0:0:0:0:
417,148,196220,6,2,L|388:23,2,120,2|2|8,0:0|0:0|0:0,0:0:0:0:
502,169,197607,1,8,0:0:0:0:
475,298,198127,2,0,L|348:265,1,120,2|8,0:0|0:0,0:0:0:0:
271,256,198994,6,2,P|285:316|335:352,2,120,2|8|2,0:0|0:0|0:0,0:0:0:0:
333,194,200381,2,2,L|389:84,2,120,2|8|2,0:0|0:0|0:0,0:0:0:0:
261,142,201769,6,0,L|131:117,2,120,2|8|2,0:0|0:0|0:0,0:0:0:0:
230,224,203156,2,0,P|171:241|100:233,1,120,2|8,0:0|0:0,0:0:0:0:
220,39,204543,6,2,P|247:99|290:140,1,120
322,159,205237,2,0,L|409:148,1,80,2|8,0:0|0:0,0:0:0:0:
488,162,205930,2,2,L|453:288,1,120
416,297,206624,2,0,P|369:295|328:305,1,80,2|8,0:0|0:0,0:0:0:0:
265,353,207318,6,2,L|131:368,2,120,2|2|8,0:0|0:0|0:0,0:0:0:0:
274,265,208705,1,8,0:0:0:0:
346,154,209225,2,0,L|478:174,1,120,2|8,0:0|0:0,0:0:0:0:
482,85,210092,6,2,L|399:70,1,80
315,77,210786,2,0,L|230:61,1,80,8|8,0:0|0:0,0:0:0:0:
159,105,211479,2,2,L|158:198,1,80
224,243,212173,2,0,L|189:325,1,80,8|2,0:0|0:0,0:0:0:0:
286,368,212867,6,2,L|371:370,1,80
400,288,213560,2,0,L|320:285,1,80,8|2,0:0|0:0,0:0:0:0:
353,203,214254,2,2,L|433:205,1,80
497,145,214948,1,8,0:0:0:0:
340,65,215641,6,2,L|205:89,1,120
202,125,216335,2,0,P|193:157|164:206,1,80,2|8,0:0|0:0,0:0:0:0:
109,261,217028,2,2,L|245:251,1,120
258,219,217722,2,0,L|340:215,1,80,2|8,0:0|0:0,0:0:0:0:
407,160,218416,6,2,L|463:43,2,120,2|2|8,0:0|0:0|0:0,0:0:0:0:
466,225,219803,1,8,0:0:0:0:
395,336,220323,2,0,L|265:330,1,120,2|8,0:0|0:0,0:0:0:0:
187,325,221190,6,2,P|211:270|268:244,2,120,2|8|2,0:0|0:0|0:0,0:0:0:0:
103,298,222577,2,2,L|92:168,2,120,2|8|2,0:0|0:0|0:0,0:0:0:0:
17,275,223967,6,8,L|9:148,2,120
37,360,225352,2,0,L|169:390,1,120,2|8,0:0|0:0,0:0:0:0:
369,343,226739,6,2,P|391:285|404:226,1,120
402,184,227433,2,0,L|358:113,1,80,2|8,0:0|0:0,0:0:0:0:
284,69,228126,2,2,L|149:90,1,120
123,102,228820,2,0,P|138:150|156:178,1,80,2|8,0:0|0:0,0:0:0:0:
207,245,229514,6,2,P|148:261|79:213,2,120,2|2|8,0:0|0:0|0:0,0:0:0:0:
280,197,230901,1,8,0:0:0:0:
303,326,231421,2,0,L|436:343,1,120,2|8,0:0|0:0,0:0:0:0:
473,269,232289,6,2,L|493:185,1,80
449,114,232982,2,0,L|354:100,1,80,8|2,0:0|0:0,0:0:0:0:
323,177,233676,2,2,L|409:190,1,80
368,270,234370,2,0,L|280:257,1,80,8|2,0:0|0:0,0:0:0:0:
201,270,235063,6,2,L|145:281,2,40,2|2|8,0:0|0:0|0:0,0:0:0:0:
186,182,235757,2,2,L|136:189,2,40,2|2|8,0:0|0:0|0:0,0:0:0:0:
269,212,236451,2,2,L|313:212,2,40,2|2|8,0:0|0:0|0:0,0:0:0:0:
284,125,237144,2,2,L|329:125,2,40,2|2|8,0:0|0:0|0:0,0:0:0:0:
197,109,237838,6,0,P|241:49|337:45,1,160,2|0,0:0|0:0,0:0:0:0:
419,185,239225,6,0,P|375:245|279:249,1,160,2|0,0:0|0:0,0:0:0:0:
114,235,240612,6,0,P|127:173|214:123,1,160,2|8,0:0|0:0,0:0:0:0:
348,225,242000,2,0,P|268:247|190:207,1,160,2|8,0:0|0:0,0:0:0:0:
361,141,243387,6,2,P|422:192|409:289,1,160,2|10,0:0|0:0,0:0:0:0:
248,292,244774,2,2,L|236:204,1,80
323,219,245468,2,0,L|318:124,1,80,8|2,0:0|0:0,0:0:0:0:
247,87,246162,6,8,P|163:95|87:139,1,160,10|8,0:0|0:0,0:0:0:0:
217,259,247549,2,0,P|269:284|376:254,1,160,2|8,0:0|0:0,0:0:0:0:
376,82,248936,6,0,P|316:114|287:204,1,160,2|8,0:0|0:0,0:0:0:0:
408,320,250323,2,2,L|412:240,1,80
324,252,251017,2,0,P|320:200|320:164,1,80,8|2,0:0|0:0,0:0:0:0:
356,92,251711,1,2,0:0:0:0:
256,192,252057,12,0,255526,0:0:0:0:
256,192,255699,12,0,261422,0:0:0:0:
