osu file format v14

[General]
AudioFilename: audio.mp3
AudioLeadIn: 0
PreviewTime: 56270
Countdown: 0
SampleSet: Soft
StackLeniency: 0.7
Mode: 3
LetterboxInBreaks: 0
SpecialStyle: 0
WidescreenStoryboard: 0

[Editor]
DistanceSpacing: 1
BeatDivisor: 8
GridSize: 32
TimelineZoom: 2.699999

[Metadata]
Title:Seishun Mode! Mou Ikkai!!
TitleUnicode:青春モード!もう1回!!
Artist:Honma Himawari
ArtistUnicode:本間ひまわり
Creator:fvrex
Version:FAMoss' Youth!!
Source:
Tags:honhima 本ひま gamers ゲーマーズ HoneyWorks smash the paint!! vtuber virtual youtuber バーチャルyoutuber にじさんじ 2434 japanese pop jpop famoss xtrippin
BeatmapID:2573943
BeatmapSetID:1238009

[Difficulty]
HPDrainRate:8.5
CircleSize:4
OverallDifficulty:8.5
ApproachRate:5
SliderMultiplier:1.4
SliderTickRate:1

[Events]
//Background and Video events
0,0,"BG.jpg",0,0
//Break Periods
//Storyboard Layer 0 (Background)
//Storyboard Layer 1 (Fail)
//Storyboard Layer 2 (Pass)
//Storyboard Layer 3 (Foreground)
//Storyboard Layer 4 (Overlay)
//Storyboard Sound Samples

[TimingPoints]
762,338.983050847458,4,2,1,60,1,0
57711,-100,4,2,1,60,0,1
67202,-100,4,2,1,60,0,0
68558,-100,4,2,1,60,0,1
78050,-100,4,2,1,60,0,0

[HitObjects]
320,192,762,5,0,0:0:0:0:
320,192,931,1,0,0:0:0:0:
64,192,1100,1,0,0:0:0:0:
64,192,1270,1,0,0:0:0:0:
448,192,1439,1,0,0:0:0:0:
448,192,1609,1,0,0:0:0:0:
192,192,1778,1,0,0:0:0:0:
320,192,1948,1,0,0:0:0:0:
192,192,2287,1,0,0:0:0:0:
448,192,2456,1,0,0:0:0:0:
448,192,2626,1,0,0:0:0:0:
64,192,2795,1,0,0:0:0:0:
64,192,2965,1,0,0:0:0:0:
320,192,3134,1,0,0:0:0:0:
320,192,3304,1,0,0:0:0:0:
192,192,3473,1,0,0:0:0:0:
192,192,3643,1,0,0:0:0:0:
448,192,3812,1,0,0:0:0:0:
448,192,3982,1,0,0:0:0:0:
64,192,4151,1,0,0:0:0:0:
64,192,4321,1,0,0:0:0:0:
320,192,4490,1,0,0:0:0:0:
192,192,4660,1,0,0:0:0:0:
320,192,4999,1,0,0:0:0:0:
64,192,5168,1,0,0:0:0:0:
64,192,5338,1,0,0:0:0:0:
448,192,5507,1,0,0:0:0:0:
448,192,5677,1,0,0:0:0:0:
320,192,5762,1,0,0:0:0:0:
192,192,5846,1,0,0:0:0:0:
192,192,6016,1,0,0:0:0:0:
320,192,6185,1,2,0:0:0:0:
448,192,6185,1,0,0:0:0:0:
320,192,6355,1,0,0:0:0:0:
64,192,6524,1,2,0:0:0:0:
192,192,6524,1,0,0:0:0:0:
64,192,6694,1,0,0:0:0:0:
320,192,6863,1,2,0:0:0:0:
448,192,6863,1,0,0:0:0:0:
448,192,7033,1,0,0:0:0:0:
64,192,7202,1,2,0:0:0:0:
192,192,7202,1,0,0:0:0:0:
320,192,7372,1,0,0:0:0:0:
64,192,7541,1,2,0:0:0:0:
192,192,7541,1,0,0:0:0:0:
192,192,7711,1,0,0:0:0:0:
320,192,7880,1,2,0:0:0:0:
448,192,7880,1,0,0:0:0:0:
448,192,8050,1,0,0:0:0:0:
64,192,8219,1,2,0:0:0:0:
192,192,8219,1,0,0:0:0:0:
64,192,8389,1,0,0:0:0:0:
320,192,8558,1,2,0:0:0:0:
448,192,8558,1,0,0:0:0:0:
320,192,8728,1,0,0:0:0:0:
64,192,8897,1,0,0:0:0:70:kick03.wav
192,192,8897,1,0,0:0:0:0:
64,192,9067,1,0,0:0:0:70:kick03.wav
192,192,9067,1,0,0:0:0:0:
320,192,9236,1,0,0:0:0:70:kick03.wav
448,192,9236,1,0,0:0:0:0:
64,192,9406,1,8,0:0:0:0:
320,192,9406,1,0,0:0:0:0:
448,192,9406,1,0,0:0:0:0:
64,192,9575,1,8,0:0:0:0:
192,192,9575,1,0,0:0:0:0:
448,192,9575,1,0,0:0:0:0:
64,192,9745,1,8,0:0:0:0:
192,192,9745,1,0,0:0:0:0:
320,192,9745,1,0,0:0:0:0:
192,192,9914,1,8,0:0:0:0:
320,192,9914,1,0,0:0:0:0:
448,192,9914,1,0,0:0:0:0:
64,192,10084,1,8,0:0:0:0:
320,192,10084,1,0,0:0:0:0:
448,192,10084,1,0,0:0:0:0:
320,192,10423,128,0,10592:0:0:0:0:
64,192,10592,128,0,10762:0:0:0:0:
448,192,10762,128,0,10931:0:0:0:0:
192,192,10931,128,0,11100:0:0:0:0:
320,192,11100,1,2,0:0:0:0:
448,192,11100,1,0,0:0:0:0:
192,192,11185,1,2,0:0:0:0:
64,192,11270,128,8,11524:0:0:0:0:
320,192,11270,1,0,0:0:0:0:
448,192,11270,128,0,11524:0:0:0:0:
64,192,11609,1,2,0:0:0:0:
192,192,11609,1,4,0:0:0:0:
448,192,11609,1,0,0:0:0:0:
320,192,11778,1,0,0:0:0:0:
64,192,11948,1,8,0:0:0:0:
192,192,11948,1,0,0:0:0:0:
448,192,11948,1,0,0:0:0:0:
320,192,12117,1,2,0:0:0:0:
448,192,12117,1,0,0:0:0:0:
64,192,12287,1,8,0:0:0:0:
192,192,12287,1,0,0:0:0:0:
320,192,12287,1,0,0:0:0:0:
64,192,12456,1,2,0:0:0:0:
448,192,12456,1,0,0:0:0:0:
192,192,12626,1,8,0:0:0:0:
320,192,12626,1,0,0:0:0:0:
448,192,12626,1,0,0:0:0:0:
64,192,12795,1,2,0:0:0:0:
192,192,12795,1,0,0:0:0:0:
64,192,12965,1,8,0:0:0:0:
320,192,12965,1,0,0:0:0:0:
448,192,12965,1,0,0:0:0:0:
192,192,13134,1,0,0:0:0:0:
320,192,13219,1,0,0:0:0:0:
64,192,13304,1,8,0:0:0:0:
192,192,13304,1,0,0:0:0:0:
448,192,13304,1,0,0:0:0:0:
64,192,13473,1,2,0:0:0:0:
320,192,13473,1,0,0:0:0:0:
192,192,13643,1,8,0:0:0:0:
320,192,13643,1,0,0:0:0:0:
448,192,13643,1,0,0:0:0:0:
64,192,13812,1,2,0:0:0:0:
448,192,13812,1,0,0:0:0:0:
64,192,13982,1,8,0:0:0:0:
192,192,13982,1,0,0:0:0:0:
320,192,13982,1,0,0:0:0:0:
192,192,14151,1,2,0:0:0:0:
448,192,14151,1,0,0:0:0:0:
64,192,14321,1,8,0:0:0:0:
320,192,14321,1,0,0:0:0:0:
448,192,14321,1,0,0:0:0:0:
192,192,14490,1,0,0:0:0:0:
64,192,14660,1,8,0:0:0:0:
320,192,14660,1,0,0:0:0:0:
448,192,14660,1,0,0:0:0:0:
64,192,14829,1,2,0:0:0:0:
192,192,14829,1,0,0:0:0:0:
192,192,14999,1,8,0:0:0:0:
320,192,14999,1,0,0:0:0:0:
448,192,14999,1,0,0:0:0:0:
64,192,15168,1,2,0:0:0:0:
448,192,15168,1,0,0:0:0:0:
64,192,15338,1,8,0:0:0:0:
192,192,15338,1,0,0:0:0:0:
320,192,15338,1,0,0:0:0:0:
320,192,15507,1,2,0:0:0:0:
448,192,15507,1,0,0:0:0:0:
64,192,15677,1,8,0:0:0:0:
192,192,15677,1,0,0:0:0:0:
448,192,15677,1,0,0:0:0:0:
320,192,15846,1,0,0:0:0:0:
192,192,15931,1,0,0:0:0:0:
64,192,16016,1,8,0:0:0:0:
320,192,16016,1,0,0:0:0:0:
448,192,16016,1,0,0:0:0:0:
192,192,16185,1,2,0:0:0:0:
448,192,16185,1,0,0:0:0:0:
64,192,16355,1,8,0:0:0:0:
192,192,16355,1,0,0:0:0:0:
320,192,16355,1,0,0:0:0:0:
64,192,16524,1,2,0:0:0:0:
448,192,16524,1,0,0:0:0:0:
192,192,16694,1,8,0:0:0:0:
320,192,16694,1,0,0:0:0:0:
448,192,16694,1,0,0:0:0:0:
64,192,16863,1,2,0:0:0:0:
320,192,16863,1,0,0:0:0:0:
64,192,17033,1,4,0:0:0:0:
192,192,17033,1,2,0:0:0:0:
448,192,17033,1,0,0:0:0:0:
320,192,17202,1,0,0:0:0:0:
64,192,17372,1,8,0:0:0:0:
192,192,17372,1,0,0:0:0:0:
448,192,17372,1,0,0:0:0:0:
192,192,17541,1,2,0:0:0:0:
320,192,17541,1,0,0:0:0:0:
64,192,17711,1,8,0:0:0:0:
320,192,17711,1,0,0:0:0:0:
448,192,17711,1,0,0:0:0:0:
192,192,17880,1,2,0:0:0:0:
448,192,17880,1,0,0:0:0:0:
64,192,18050,1,8,0:0:0:0:
192,192,18050,1,0,0:0:0:0:
320,192,18050,1,0,0:0:0:0:
64,192,18219,1,2,0:0:0:0:
448,192,18219,1,0,0:0:0:0:
192,192,18389,1,8,0:0:0:0:
320,192,18389,1,0,0:0:0:0:
448,192,18389,1,0,0:0:0:0:
64,192,18558,1,0,0:0:0:0:
192,192,18643,1,0,0:0:0:0:
64,192,18728,1,8,0:0:0:0:
320,192,18728,1,0,0:0:0:0:
448,192,18728,1,0,0:0:0:0:
192,192,18897,1,2,0:0:0:0:
448,192,18897,1,0,0:0:0:0:
64,192,19067,1,8,0:0:0:0:
192,192,19067,1,0,0:0:0:0:
320,192,19067,1,0,0:0:0:0:
64,192,19236,1,2,0:0:0:0:
448,192,19236,1,0,0:0:0:0:
192,192,19406,1,8,0:0:0:0:
320,192,19406,1,0,0:0:0:0:
448,192,19406,1,0,0:0:0:0:
64,192,19575,1,2,0:0:0:0:
192,192,19575,1,0,0:0:0:0:
64,192,19745,1,8,0:0:0:0:
320,192,19745,1,0,0:0:0:0:
448,192,19745,1,0,0:0:0:0:
192,192,19914,1,0,0:0:0:0:
64,192,20084,1,8,0:0:0:0:
320,192,20084,1,0,0:0:0:0:
448,192,20084,1,0,0:0:0:0:
192,192,20253,1,2,0:0:0:0:
448,192,20253,1,0,0:0:0:0:
64,192,20423,1,8,0:0:0:0:
192,192,20423,1,0,0:0:0:0:
320,192,20423,1,0,0:0:0:0:
64,192,20592,1,2,0:0:0:0:
448,192,20592,1,0,0:0:0:0:
192,192,20762,1,8,0:0:0:0:
320,192,20762,1,0,0:0:0:0:
448,192,20762,1,0,0:0:0:0:
64,192,20931,1,2,0:0:0:0:
192,192,20931,1,0,0:0:0:0:
64,192,21100,1,8,0:0:0:0:
320,192,21100,1,4,0:0:0:0:
448,192,21100,1,0,0:0:0:0:
192,192,21270,1,2,0:0:0:0:
448,192,21270,1,0,0:0:0:0:
64,192,21439,1,8,0:0:0:0:
192,192,21439,1,0,0:0:0:0:
320,192,21439,1,0,0:0:0:0:
64,192,21609,1,2,0:0:0:0:
448,192,21609,1,0,0:0:0:0:
320,192,21694,1,0,0:0:0:70:tom01.wav
64,192,21778,1,8,0:0:0:0:
192,192,21778,1,0,0:0:0:0:
448,192,21778,1,0,0:0:0:0:
64,192,21948,1,2,0:0:0:0:
320,192,21948,1,0,0:0:0:0:
192,192,22033,1,0,0:0:0:70:tom02.wav
320,192,22117,1,8,0:0:0:0:
448,192,22117,1,0,0:0:0:0:
64,192,22202,1,8,0:0:0:0:
192,192,22202,1,0,0:0:0:0:
448,192,22287,1,0,0:0:0:70:tom03.wav
320,192,22372,1,0,0:0:0:70:tom04.wav
64,192,22456,1,2,0:0:0:0:
192,192,22456,1,4,0:0:0:0:
448,192,22456,1,0,0:0:0:0:
320,192,22626,1,0,0:0:0:0:
320,192,22795,1,2,0:0:0:0:
448,192,22795,1,0,0:0:0:0:
192,192,22965,1,0,0:0:0:0:
64,192,23134,1,2,0:0:0:0:
192,192,23134,1,0,0:0:0:0:
320,192,23304,1,0,0:0:0:0:
320,192,23473,1,2,0:0:0:0:
448,192,23473,1,0,0:0:0:0:
192,192,23643,1,0,0:0:0:0:
64,192,23812,1,2,0:0:0:0:
448,192,23812,1,0,0:0:0:0:
320,192,23982,1,0,0:0:0:0:
320,192,24151,1,2,0:0:0:0:
448,192,24151,1,0,0:0:0:0:
192,192,24321,1,0,0:0:0:0:
64,192,24490,1,2,0:0:0:0:
192,192,24490,1,0,0:0:0:0:
320,192,24660,1,0,0:0:0:0:
320,192,24829,1,2,0:0:0:0:
448,192,24829,1,0,0:0:0:0:
192,192,24999,1,0,0:0:0:0:
320,192,25084,1,0,0:0:0:0:
64,192,25168,1,2,0:0:0:0:
448,192,25168,1,0,0:0:0:0:
320,192,25338,1,0,0:0:0:0:
320,192,25507,1,2,0:0:0:0:
448,192,25507,1,0,0:0:0:0:
192,192,25677,1,0,0:0:0:0:
64,192,25846,1,2,0:0:0:0:
192,192,25846,1,0,0:0:0:0:
320,192,26016,1,0,0:0:0:0:
320,192,26185,1,2,0:0:0:0:
448,192,26185,1,0,0:0:0:0:
192,192,26355,1,0,0:0:0:0:
64,192,26524,1,2,0:0:0:0:
192,192,26524,1,0,0:0:0:0:
448,192,26694,1,0,0:0:0:0:
320,192,26863,1,2,0:0:0:0:
448,192,26863,1,0,0:0:0:0:
64,192,27033,1,0,0:0:0:0:
64,192,27202,1,2,0:0:0:0:
192,192,27202,1,0,0:0:0:0:
448,192,27372,1,0,0:0:0:0:
320,192,27541,1,2,0:0:0:0:
448,192,27541,1,0,0:0:0:0:
192,192,27711,1,0,0:0:0:0:
320,192,27795,1,0,0:0:0:0:
64,192,27880,1,2,0:0:0:0:
448,192,27880,1,0,0:0:0:0:
192,192,28050,1,0,0:0:0:0:
64,192,28219,1,2,0:0:0:0:
192,192,28219,1,0,0:0:0:0:
320,192,28389,1,0,0:0:0:0:
320,192,28558,1,2,0:0:0:0:
448,192,28558,1,0,0:0:0:0:
192,192,28728,1,0,0:0:0:0:
64,192,28897,1,2,0:0:0:0:
192,192,28897,1,0,0:0:0:0:
320,192,29067,1,0,0:0:0:0:
64,192,29236,1,2,0:0:0:0:
448,192,29236,1,0,0:0:0:0:
192,192,29406,1,0,0:0:0:0:
64,192,29575,1,2,0:0:0:0:
192,192,29575,1,0,0:0:0:0:
320,192,29745,1,0,0:0:0:0:
64,192,29829,1,0,0:0:0:0:
320,192,29914,1,2,0:0:0:0:
448,192,29914,1,0,0:0:0:0:
192,192,30084,1,0,0:0:0:0:
64,192,30253,1,2,0:0:0:0:
192,192,30253,1,0,0:0:0:0:
320,192,30423,1,0,0:0:0:0:
192,192,30507,1,0,0:0:0:0:
64,192,30592,1,2,0:0:0:0:
448,192,30592,1,0,0:0:0:0:
192,192,30762,1,0,0:0:0:0:
64,192,30931,1,2,0:0:0:0:
192,192,30931,1,0,0:0:0:0:
320,192,31100,1,0,0:0:0:0:
320,192,31270,1,2,0:0:0:0:
448,192,31270,1,0,0:0:0:0:
192,192,31439,1,0,0:0:0:0:
64,192,31609,1,2,0:0:0:0:
192,192,31609,1,0,0:0:0:0:
320,192,31778,1,0,0:0:0:0:
64,192,31948,1,2,0:0:0:0:
192,192,31948,1,4,0:0:0:0:
448,192,31948,1,0,0:0:0:0:
192,192,32117,1,2,0:0:0:0:
320,192,32117,1,0,0:0:0:0:
64,192,32287,1,8,0:0:0:0:
320,192,32287,1,0,0:0:0:0:
448,192,32287,1,0,0:0:0:0:
192,192,32456,1,0,0:0:0:0:
320,192,32541,1,8,0:0:0:0:
448,192,32541,1,0,0:0:0:0:
64,192,32626,1,2,0:0:0:0:
192,192,32626,1,0,0:0:0:0:
64,192,32795,1,2,0:0:0:0:
192,192,32795,1,0,0:0:0:0:
320,192,32965,1,8,0:0:0:0:
448,192,32965,1,0,0:0:0:0:
64,192,33050,1,8,0:0:0:0:
192,192,33050,1,0,0:0:0:0:
320,192,33134,1,8,0:0:0:0:
448,192,33134,1,0,0:0:0:0:
192,192,33219,1,8,0:0:0:0:
64,192,33304,1,4,0:0:0:0:
320,192,33304,1,2,0:0:0:0:
448,192,33304,1,0,0:0:0:0:
192,192,33473,1,0,0:0:0:0:
64,192,33643,1,8,0:0:0:0:
320,192,33643,1,2,0:0:0:0:
448,192,33643,1,0,0:0:0:0:
320,192,33812,1,0,0:0:0:0:
64,192,33982,1,2,0:0:0:0:
192,192,33982,1,0,0:0:0:0:
320,192,34151,1,0,0:0:0:0:
64,192,34321,1,8,0:0:0:0:
192,192,34321,1,2,0:0:0:0:
448,192,34321,1,0,0:0:0:0:
192,192,34490,1,0,0:0:0:0:
320,192,34660,1,2,0:0:0:0:
448,192,34660,1,0,0:0:0:0:
192,192,34829,1,0,0:0:0:0:
64,192,34999,1,8,0:0:0:0:
320,192,34999,1,2,0:0:0:0:
448,192,34999,1,0,0:0:0:0:
448,192,35168,1,0,0:0:0:70:LR_Drum Rpd.wav
320,192,35253,1,0,0:0:0:70:LR_Drum Rpd.wav
64,192,35338,1,2,0:0:0:0:
192,192,35338,1,0,0:0:0:0:
320,192,35507,1,0,0:0:0:0:
64,192,35677,1,8,0:0:0:0:
192,192,35677,1,2,0:0:0:0:
448,192,35677,1,0,0:0:0:0:
448,192,35846,1,0,0:0:0:0:
64,192,36016,1,2,0:0:0:0:
192,192,36016,1,0,0:0:0:0:
320,192,36185,1,0,0:0:0:0:
64,192,36355,1,8,0:0:0:0:
192,192,36355,1,2,0:0:0:0:
448,192,36355,1,0,0:0:0:0:
192,192,36524,1,0,0:0:0:0:
320,192,36694,1,2,0:0:0:0:
448,192,36694,1,0,0:0:0:0:
192,192,36863,1,0,0:0:0:0:
64,192,37033,1,8,0:0:0:0:
320,192,37033,1,2,0:0:0:0:
448,192,37033,1,0,0:0:0:0:
320,192,37202,1,0,0:0:0:0:
64,192,37372,1,2,0:0:0:0:
192,192,37372,1,0,0:0:0:0:
320,192,37541,1,0,0:0:0:0:
64,192,37711,1,8,0:0:0:0:
192,192,37711,1,2,0:0:0:0:
448,192,37711,1,0,0:0:0:0:
64,192,37880,1,0,0:0:0:70:LR_Drum Rpd.wav
192,192,37965,1,0,0:0:0:70:LR_Drum Rpd.wav
320,192,38050,1,2,0:0:0:0:
448,192,38050,1,0,0:0:0:0:
192,192,38219,1,0,0:0:0:0:
64,192,38389,1,8,0:0:0:0:
320,192,38389,1,2,0:0:0:0:
448,192,38389,1,0,0:0:0:0:
64,192,38558,1,0,0:0:0:0:
320,192,38728,1,2,0:0:0:0:
448,192,38728,1,0,0:0:0:0:
192,192,38897,1,0,0:0:0:0:
64,192,39067,1,8,0:0:0:0:
320,192,39067,1,2,0:0:0:0:
448,192,39067,1,0,0:0:0:0:
320,192,39236,1,0,0:0:0:0:
64,192,39406,1,2,0:0:0:0:
192,192,39406,1,0,0:0:0:0:
320,192,39575,1,0,0:0:0:0:
64,192,39745,1,8,0:0:0:0:
192,192,39745,1,2,0:0:0:0:
448,192,39745,1,0,0:0:0:0:
192,192,39914,1,0,0:0:0:0:
320,192,40084,1,2,0:0:0:0:
448,192,40084,1,0,0:0:0:0:
192,192,40253,1,0,0:0:0:0:
64,192,40423,1,8,0:0:0:0:
320,192,40423,1,2,0:0:0:0:
448,192,40423,1,0,0:0:0:0:
320,192,40592,1,0,0:0:0:70:LR_Drum Rpd.wav
192,192,40677,1,0,0:0:0:70:LR_Drum Rpd.wav
64,192,40762,1,2,0:0:0:0:
448,192,40762,1,0,0:0:0:0:
320,192,40931,1,0,0:0:0:0:
64,192,41100,1,8,0:0:0:0:
192,192,41100,1,2,0:0:0:0:
448,192,41100,1,0,0:0:0:0:
192,192,41270,1,0,0:0:0:0:
64,192,41439,1,2,0:0:0:0:
448,192,41439,1,0,0:0:0:0:
320,192,41609,1,0,0:0:0:0:
64,192,41778,1,8,0:0:0:0:
192,192,41778,1,2,0:0:0:0:
448,192,41778,1,0,0:0:0:0:
320,192,41948,1,0,0:0:0:0:
64,192,42117,1,2,0:0:0:0:
448,192,42117,1,0,0:0:0:0:
192,192,42287,1,0,0:0:0:0:
64,192,42456,1,8,0:0:0:0:
320,192,42456,1,2,0:0:0:0:
448,192,42456,1,0,0:0:0:0:
192,192,42626,1,0,0:0:0:0:
64,192,42795,1,2,0:0:0:0:
448,192,42795,1,0,0:0:0:0:
320,192,42965,1,0,0:0:0:0:
64,192,43134,1,8,0:0:0:0:
192,192,43134,1,2,0:0:0:0:
448,192,43134,1,0,0:0:0:0:
192,192,43304,1,0,0:0:0:0:
320,192,43473,1,2,0:0:0:0:
448,192,43473,1,0,0:0:0:0:
64,192,43643,1,8,0:0:0:0:
192,192,43643,1,0,0:0:0:0:
320,192,43728,1,8,0:0:0:0:
448,192,43728,1,0,0:0:0:0:
192,192,43812,1,0,0:0:0:70:tom03.wav
320,192,43897,1,0,0:0:0:70:tom03.wav
448,192,43982,1,0,0:0:0:70:tom02.wav
192,192,44067,1,0,0:0:0:70:tom04.wav
64,192,44151,1,2,0:0:0:0:
320,192,44151,1,4,0:0:0:0:
448,192,44151,1,0,0:0:0:0:
192,192,44321,1,0,0:0:0:0:
192,192,44490,1,0,0:0:0:0:
320,192,44660,1,0,0:0:0:0:
64,192,44829,1,8,0:0:0:0:
192,192,44829,1,0,0:0:0:0:
448,192,44829,1,0,0:0:0:0:
320,192,44999,1,0,0:0:0:0:
320,192,45168,1,0,0:0:0:0:
192,192,45338,1,0,0:0:0:0:
320,192,45507,1,2,0:0:0:0:
448,192,45507,1,0,0:0:0:0:
64,192,45677,1,8,0:0:0:0:
192,192,45677,1,0,0:0:0:0:
448,192,45677,1,0,0:0:0:0:
64,192,45846,1,2,0:0:0:0:
320,192,45846,1,0,0:0:0:0:
192,192,46016,1,0,0:0:0:0:
64,192,46185,1,8,0:0:0:0:
320,192,46185,1,0,0:0:0:0:
448,192,46185,1,0,0:0:0:0:
192,192,46355,1,0,0:0:0:0:
192,192,46524,1,0,0:0:0:0:
64,192,46694,1,8,0:0:0:0:
448,192,46694,1,0,0:0:0:0:
320,192,46778,1,0,0:0:0:0:
64,192,46863,1,2,0:0:0:0:
192,192,46863,1,0,0:0:0:0:
320,192,47033,1,0,0:0:0:0:
320,192,47202,1,0,0:0:0:0:
192,192,47372,1,0,0:0:0:0:
64,192,47541,1,8,0:0:0:0:
320,192,47541,1,0,0:0:0:0:
448,192,47541,1,0,0:0:0:0:
192,192,47711,1,0,0:0:0:0:
192,192,47880,1,0,0:0:0:0:
320,192,48050,1,0,0:0:0:0:
64,192,48219,1,2,0:0:0:0:
192,192,48219,1,0,0:0:0:0:
64,192,48389,1,8,0:0:0:0:
320,192,48389,1,0,0:0:0:0:
448,192,48389,1,0,0:0:0:0:
192,192,48558,1,2,0:0:0:0:
448,192,48558,1,0,0:0:0:0:
320,192,48728,1,0,0:0:0:0:
64,192,48897,1,8,0:0:0:0:
192,192,48897,1,0,0:0:0:0:
448,192,48897,1,0,0:0:0:0:
320,192,49067,1,0,0:0:0:0:
320,192,49236,1,0,0:0:0:0:
64,192,49406,1,8,0:0:0:0:
448,192,49406,1,0,0:0:0:0:
192,192,49490,1,0,0:0:0:0:
64,192,49575,1,4,0:0:0:0:
320,192,49575,1,2,0:0:0:0:
448,192,49575,1,0,0:0:0:0:
192,192,49745,1,0,0:0:0:0:
192,192,49914,1,0,0:0:0:0:
320,192,50084,1,0,0:0:0:0:
64,192,50253,1,8,0:0:0:0:
192,192,50253,1,0,0:0:0:0:
448,192,50253,1,0,0:0:0:0:
320,192,50423,1,0,0:0:0:0:
64,192,50592,1,0,0:0:0:0:
192,192,50762,1,0,0:0:0:0:
320,192,50931,1,2,0:0:0:0:
448,192,50931,1,0,0:0:0:0:
64,192,51100,1,8,0:0:0:0:
192,192,51100,1,0,0:0:0:0:
448,192,51100,1,0,0:0:0:0:
64,192,51270,1,2,0:0:0:0:
320,192,51270,1,0,0:0:0:0:
320,192,51439,1,8,0:0:0:0:
448,192,51439,1,0,0:0:0:0:
64,192,51524,1,8,0:0:0:0:
192,192,51524,1,0,0:0:0:0:
320,192,51609,1,8,0:0:0:0:
448,192,51609,1,0,0:0:0:0:
64,192,51778,1,8,0:0:0:0:
192,192,51778,1,0,0:0:0:0:
448,192,51778,1,0,0:0:0:0:
64,192,51948,1,8,0:0:0:0:
192,192,51948,1,0,0:0:0:0:
320,192,51948,1,0,0:0:0:0:
64,192,52117,1,8,0:0:0:0:
320,192,52117,1,0,0:0:0:0:
448,192,52117,1,0,0:0:0:0:
192,192,52287,1,2,0:0:0:0:
320,192,52287,128,4,52626:0:0:0:0:
448,192,52287,1,0,0:0:0:0:
64,192,52626,1,8,0:0:0:0:
192,192,52626,1,0,0:0:0:0:
448,192,52626,1,0,0:0:0:0:
320,192,52795,1,2,0:0:0:0:
448,192,52795,1,0,0:0:0:0:
64,192,52965,1,2,0:0:0:0:
192,192,52965,128,0,53304:0:0:0:0:
64,192,53304,1,8,0:0:0:0:
320,192,53304,1,0,0:0:0:0:
448,192,53304,1,0,0:0:0:0:
64,192,53473,1,2,0:0:0:0:
192,192,53473,1,0,0:0:0:0:
320,192,53643,1,0,0:0:0:0:
64,192,53812,1,2,0:0:0:0:
192,192,53812,1,0,0:0:0:0:
64,192,53982,1,8,0:0:0:0:
320,192,53982,1,0,0:0:0:0:
448,192,53982,1,0,0:0:0:0:
192,192,54151,1,0,0:0:0:0:
320,192,54321,1,2,0:0:0:0:
448,192,54321,1,0,0:0:0:0:
64,192,54490,1,2,0:0:0:0:
192,192,54490,1,0,0:0:0:0:
64,192,54660,1,8,0:0:0:0:
320,192,54660,128,0,54999:0:0:0:0:
448,192,54660,1,0,0:0:0:0:
64,192,54999,1,8,0:0:0:0:
192,192,54999,1,2,0:0:0:0:
448,192,54999,1,0,0:0:0:0:
64,192,55168,1,8,0:0:0:0:
192,192,55168,1,2,0:0:0:0:
448,192,55168,1,0,0:0:0:0:
64,192,55677,1,8,0:0:0:0:
320,192,55677,1,2,0:0:0:0:
448,192,55677,1,0,0:0:0:0:
64,192,55846,1,2,0:0:0:0:
320,192,55846,1,8,0:0:0:0:
448,192,55846,1,0,0:0:0:0:
64,192,56185,1,2,0:0:0:0:
192,192,56185,1,0,0:0:0:0:
320,192,56270,1,2,0:0:0:0:
64,192,56355,1,8,0:0:0:0:
192,192,56355,1,0,0:0:0:0:
448,192,56355,1,0,0:0:0:0:
320,192,56524,1,2,0:0:0:0:
448,192,56524,1,0,0:0:0:0:
64,192,56694,1,8,0:0:0:0:
192,192,56694,1,0,0:0:0:0:
320,192,56694,1,0,0:0:0:0:
64,192,56863,1,2,0:0:0:0:
448,192,56863,1,0,0:0:0:0:
192,192,57033,1,8,0:0:0:0:
320,192,57033,128,0,57372:0:0:0:0:
448,192,57033,1,0,0:0:0:0:
64,192,57372,1,8,0:0:0:0:
192,192,57372,1,0,0:0:0:0:
320,192,57456,1,8,0:0:0:0:
448,192,57456,1,0,0:0:0:0:
64,192,57541,1,8,0:0:0:0:
192,192,57541,1,0,0:0:0:0:
320,192,57626,1,8,0:0:0:0:
64,192,57711,1,2,0:0:0:0:
192,192,57711,1,4,0:0:0:0:
448,192,57711,1,0,0:0:0:0:
320,192,57880,1,0,0:0:0:0:
64,192,58050,1,8,0:0:0:0:
192,192,58050,1,0,0:0:0:0:
448,192,58050,1,0,0:0:0:0:
192,192,58219,1,2,0:0:0:0:
320,192,58219,1,0,0:0:0:0:
64,192,58389,1,8,0:0:0:0:
320,192,58389,1,0,0:0:0:0:
448,192,58389,1,0,0:0:0:0:
192,192,58558,1,2,0:0:0:0:
448,192,58558,1,0,0:0:0:0:
64,192,58728,1,8,0:0:0:0:
192,192,58728,1,0,0:0:0:0:
320,192,58728,1,0,0:0:0:0:
64,192,58897,1,2,0:0:0:0:
448,192,58897,1,0,0:0:0:0:
192,192,59067,1,8,0:0:0:0:
320,192,59067,1,0,0:0:0:0:
448,192,59067,1,0,0:0:0:0:
320,192,59236,1,0,0:0:0:0:
64,192,59406,1,8,0:0:0:0:
192,192,59406,1,0,0:0:0:0:
448,192,59406,1,0,0:0:0:0:
64,192,59575,1,2,0:0:0:0:
320,192,59575,1,0,0:0:0:0:
192,192,59745,1,8,0:0:0:0:
320,192,59745,1,0,0:0:0:0:
448,192,59745,1,0,0:0:0:0:
64,192,59914,1,2,0:0:0:0:
448,192,59914,1,0,0:0:0:0:
64,192,60084,1,8,0:0:0:0:
192,192,60084,1,0,0:0:0:0:
320,192,60084,1,0,0:0:0:0:
320,192,60253,1,2,0:0:0:0:
448,192,60253,1,0,0:0:0:0:
64,192,60423,1,8,0:0:0:0:
192,192,60423,1,0,0:0:0:0:
448,192,60423,1,0,0:0:0:0:
192,192,60592,1,0,0:0:0:0:
64,192,60762,1,8,0:0:0:0:
320,192,60762,1,0,0:0:0:0:
448,192,60762,1,0,0:0:0:0:
192,192,60931,1,2,0:0:0:0:
320,192,60931,1,0,0:0:0:0:
64,192,61100,1,8,0:0:0:0:
192,192,61100,1,0,0:0:0:0:
448,192,61100,1,0,0:0:0:0:
64,192,61270,1,2,0:0:0:0:
320,192,61270,1,0,0:0:0:0:
192,192,61439,1,8,0:0:0:0:
320,192,61439,1,0,0:0:0:0:
448,192,61439,1,0,0:0:0:0:
64,192,61609,1,2,0:0:0:0:
448,192,61609,1,0,0:0:0:0:
64,192,61778,1,8,0:0:0:0:
192,192,61778,1,0,0:0:0:0:
320,192,61778,1,0,0:0:0:0:
192,192,61948,1,0,0:0:0:0:
64,192,62117,1,8,0:0:0:0:
320,192,62117,1,0,0:0:0:0:
448,192,62117,1,0,0:0:0:0:
192,192,62287,1,2,0:0:0:0:
448,192,62287,1,0,0:0:0:0:
64,192,62456,1,8,0:0:0:0:
192,192,62456,1,0,0:0:0:0:
320,192,62456,1,0,0:0:0:0:
64,192,62626,1,2,0:0:0:0:
448,192,62626,1,0,0:0:0:0:
192,192,62795,1,8,0:0:0:0:
320,192,62795,1,0,0:0:0:0:
448,192,62795,1,0,0:0:0:0:
64,192,62965,1,2,0:0:0:0:
192,192,62965,1,0,0:0:0:0:
64,192,63134,1,8,0:0:0:0:
320,192,63134,1,0,0:0:0:0:
448,192,63134,1,0,0:0:0:0:
192,192,63304,1,2,0:0:0:0:
320,192,63304,1,0,0:0:0:0:
64,192,63473,1,8,0:0:0:0:
192,192,63473,1,0,0:0:0:0:
448,192,63473,1,0,0:0:0:0:
320,192,63643,1,2,0:0:0:0:
448,192,63643,1,0,0:0:0:0:
64,192,63812,1,8,0:0:0:0:
192,192,63812,1,0,0:0:0:0:
320,192,63812,1,0,0:0:0:0:
192,192,63982,1,2,0:0:0:0:
448,192,63982,1,0,0:0:0:0:
64,192,64151,1,8,0:0:0:0:
320,192,64151,1,0,0:0:0:0:
448,192,64151,1,0,0:0:0:0:
320,192,64321,1,0,0:0:0:0:
64,192,64490,1,8,0:0:0:0:
192,192,64490,1,0,0:0:0:0:
448,192,64490,1,0,0:0:0:0:
192,192,64660,1,2,0:0:0:0:
320,192,64660,1,0,0:0:0:0:
64,192,64829,1,8,0:0:0:0:
320,192,64829,1,0,0:0:0:0:
448,192,64829,1,0,0:0:0:0:
192,192,64999,1,2,0:0:0:0:
448,192,64999,1,0,0:0:0:0:
64,192,65168,1,8,0:0:0:0:
192,192,65168,1,0,0:0:0:0:
320,192,65168,1,0,0:0:0:0:
64,192,65338,1,2,0:0:0:0:
448,192,65338,1,0,0:0:0:0:
192,192,65507,1,8,0:0:0:0:
320,192,65507,1,0,0:0:0:0:
448,192,65507,1,0,0:0:0:0:
192,192,65677,1,0,0:0:0:0:
64,192,65846,1,8,0:0:0:0:
320,192,65846,1,0,0:0:0:0:
448,192,65846,1,0,0:0:0:0:
192,192,66016,1,2,0:0:0:0:
320,192,66016,1,0,0:0:0:0:
64,192,66185,1,8,0:0:0:0:
192,192,66185,1,0,0:0:0:0:
448,192,66185,1,0,0:0:0:0:
64,192,66355,1,2,0:0:0:0:
320,192,66355,1,0,0:0:0:0:
192,192,66524,1,8,0:0:0:0:
320,192,66524,1,0,0:0:0:0:
448,192,66524,1,0,0:0:0:0:
64,192,66694,1,2,0:0:0:0:
448,192,66694,1,0,0:0:0:0:
64,192,66863,1,8,0:0:0:0:
192,192,66863,1,0,0:0:0:0:
320,192,66863,1,0,0:0:0:0:
320,192,67033,1,0,0:0:0:0:
64,192,67202,1,8,0:0:0:0:
192,192,67202,1,0,0:0:0:0:
448,192,67202,1,0,0:0:0:0:
192,192,67372,1,2,0:0:0:0:
320,192,67372,1,0,0:0:0:0:
64,192,67541,1,8,0:0:0:0:
320,192,67541,1,0,0:0:0:0:
448,192,67541,1,0,0:0:0:0:
192,192,67711,1,2,0:0:0:0:
448,192,67711,1,0,0:0:0:0:
64,192,67880,1,8,0:0:0:0:
192,192,67880,1,0,0:0:0:0:
320,192,67880,1,0,0:0:0:0:
64,192,68050,1,2,0:0:0:0:
448,192,68050,1,0,0:0:0:0:
320,192,68219,1,8,0:0:0:0:
448,192,68219,1,0,0:0:0:0:
64,192,68304,1,8,0:0:0:0:
192,192,68304,1,0,0:0:0:0:
320,192,68389,1,8,0:0:0:0:
448,192,68389,1,0,0:0:0:0:
192,192,68473,1,8,0:0:0:0:
64,192,68558,1,2,0:0:0:0:
320,192,68558,1,4,0:0:0:0:
448,192,68558,1,0,0:0:0:0:
192,192,68728,1,0,0:0:0:0:
64,192,68897,1,8,0:0:0:0:
320,192,68897,1,0,0:0:0:0:
448,192,68897,1,0,0:0:0:0:
192,192,69067,1,2,0:0:0:0:
320,192,69067,1,0,0:0:0:0:
64,192,69236,1,8,0:0:0:0:
192,192,69236,1,0,0:0:0:0:
448,192,69236,1,0,0:0:0:0:
64,192,69406,1,2,0:0:0:0:
320,192,69406,1,0,0:0:0:0:
192,192,69575,1,8,0:0:0:0:
320,192,69575,1,0,0:0:0:0:
448,192,69575,1,0,0:0:0:0:
64,192,69745,1,2,0:0:0:0:
448,192,69745,1,0,0:0:0:0:
64,192,69914,1,8,0:0:0:0:
192,192,69914,1,0,0:0:0:0:
320,192,69914,1,0,0:0:0:0:
192,192,70084,1,0,0:0:0:0:
64,192,70253,1,8,0:0:0:0:
320,192,70253,1,0,0:0:0:0:
448,192,70253,1,0,0:0:0:0:
192,192,70423,1,2,0:0:0:0:
448,192,70423,1,0,0:0:0:0:
64,192,70592,1,8,0:0:0:0:
192,192,70592,1,0,0:0:0:0:
320,192,70592,1,0,0:0:0:0:
64,192,70762,1,2,0:0:0:0:
448,192,70762,1,0,0:0:0:0:
192,192,70931,1,8,0:0:0:0:
320,192,70931,1,0,0:0:0:0:
448,192,70931,1,0,0:0:0:0:
64,192,71100,1,2,0:0:0:0:
192,192,71100,1,0,0:0:0:0:
64,192,71270,1,8,0:0:0:0:
320,192,71270,1,0,0:0:0:0:
448,192,71270,1,0,0:0:0:0:
320,192,71439,1,0,0:0:0:0:
64,192,71609,1,8,0:0:0:0:
192,192,71609,1,0,0:0:0:0:
448,192,71609,1,0,0:0:0:0:
192,192,71778,1,2,0:0:0:0:
320,192,71778,1,0,0:0:0:0:
64,192,71948,1,8,0:0:0:0:
320,192,71948,1,0,0:0:0:0:
448,192,71948,1,0,0:0:0:0:
192,192,72117,1,2,0:0:0:0:
448,192,72117,1,0,0:0:0:0:
64,192,72287,1,8,0:0:0:0:
192,192,72287,1,0,0:0:0:0:
320,192,72287,1,0,0:0:0:0:
64,192,72456,1,2,0:0:0:0:
448,192,72456,1,0,0:0:0:0:
192,192,72626,1,8,0:0:0:0:
320,192,72626,1,0,0:0:0:0:
448,192,72626,1,0,0:0:0:0:
320,192,72795,1,0,0:0:0:0:
64,192,72965,1,8,0:0:0:0:
192,192,72965,1,0,0:0:0:0:
448,192,72965,1,0,0:0:0:0:
64,192,73134,1,2,0:0:0:0:
320,192,73134,1,0,0:0:0:0:
192,192,73304,1,8,0:0:0:0:
320,192,73304,1,0,0:0:0:0:
448,192,73304,1,0,0:0:0:0:
64,192,73473,1,2,0:0:0:0:
448,192,73473,1,0,0:0:0:0:
64,192,73643,1,8,0:0:0:0:
192,192,73643,1,0,0:0:0:0:
320,192,73643,1,0,0:0:0:0:
320,192,73812,1,2,0:0:0:0:
448,192,73812,1,0,0:0:0:0:
64,192,73982,1,8,0:0:0:0:
192,192,73982,1,0,0:0:0:0:
448,192,73982,1,0,0:0:0:0:
192,192,74151,1,2,0:0:0:0:
320,192,74151,1,0,0:0:0:0:
64,192,74321,1,8,0:0:0:0:
320,192,74321,1,0,0:0:0:0:
448,192,74321,1,0,0:0:0:0:
64,192,74490,1,2,0:0:0:0:
192,192,74490,1,0,0:0:0:0:
192,192,74660,1,8,0:0:0:0:
320,192,74660,1,0,0:0:0:0:
448,192,74660,1,0,0:0:0:0:
64,192,74829,1,2,0:0:0:0:
320,192,74829,1,0,0:0:0:0:
64,192,74999,1,8,0:0:0:0:
192,192,74999,1,0,0:0:0:0:
448,192,74999,1,0,0:0:0:0:
192,192,75168,1,0,0:0:0:0:
64,192,75338,1,8,0:0:0:0:
320,192,75338,1,0,0:0:0:0:
448,192,75338,1,0,0:0:0:0:
192,192,75507,1,2,0:0:0:0:
320,192,75507,1,0,0:0:0:0:
64,192,75677,1,8,0:0:0:0:
192,192,75677,1,0,0:0:0:0:
448,192,75677,1,0,0:0:0:0:
64,192,75846,1,2,0:0:0:0:
320,192,75846,1,0,0:0:0:0:
192,192,76016,1,8,0:0:0:0:
320,192,76016,1,0,0:0:0:0:
448,192,76016,1,0,0:0:0:0:
64,192,76185,1,2,0:0:0:0:
448,192,76185,1,0,0:0:0:0:
64,192,76355,1,8,0:0:0:0:
192,192,76355,1,0,0:0:0:0:
320,192,76355,1,0,0:0:0:0:
320,192,76524,1,0,0:0:0:0:
64,192,76694,1,8,0:0:0:0:
192,192,76694,1,0,0:0:0:0:
448,192,76694,1,0,0:0:0:0:
192,192,76863,1,2,0:0:0:0:
320,192,76863,1,0,0:0:0:0:
64,192,77033,1,8,0:0:0:0:
320,192,77033,1,0,0:0:0:0:
448,192,77033,1,0,0:0:0:0:
192,192,77202,1,2,0:0:0:0:
448,192,77202,1,0,0:0:0:0:
64,192,77372,1,8,0:0:0:0:
192,192,77372,1,0,0:0:0:0:
320,192,77372,1,0,0:0:0:0:
64,192,77541,1,2,0:0:0:0:
448,192,77541,1,0,0:0:0:0:
192,192,77711,1,8,0:0:0:0:
320,192,77711,1,0,0:0:0:0:
448,192,77711,1,0,0:0:0:0:
192,192,77880,1,0,0:0:0:0:
64,192,78050,1,8,0:0:0:0:
320,192,78050,1,4,0:0:0:0:
448,192,78050,1,0,0:0:0:0:
64,192,78219,1,2,0:0:0:0:
192,192,78219,1,0,0:0:0:0:
192,192,78389,1,2,0:0:0:0:
320,192,78389,1,0,0:0:0:0:
64,192,78558,1,8,0:0:0:0:
320,192,78558,1,0,0:0:0:0:
448,192,78558,1,0,0:0:0:0:
64,192,78728,1,8,0:0:0:0:
192,192,78728,1,0,0:0:0:0:
320,192,78812,1,8,0:0:0:0:
448,192,78812,1,0,0:0:0:0:
64,192,78897,1,8,0:0:0:0:
192,192,78897,1,0,0:0:0:70:tom01.wav
320,192,78982,1,8,0:0:0:0:
448,192,78982,1,0,0:0:0:0:
64,192,79067,1,8,0:0:0:0:
192,192,79067,1,0,0:0:0:0:
320,192,79151,1,8,0:0:0:0:
448,192,79151,1,0,0:0:0:0:
64,192,79236,1,8,0:0:0:0:
192,192,79236,1,0,0:0:0:70:tom02.wav
320,192,79321,1,8,0:0:0:0:
64,192,79406,1,2,0:0:0:0:
192,192,79406,1,4,0:0:0:0:
448,192,79406,1,0,0:0:0:0:
320,192,79575,1,2,0:0:0:0:
448,192,79575,1,0,0:0:0:0:
64,192,79745,1,8,0:0:0:0:
192,192,79745,1,0,0:0:0:0:
320,192,79745,1,0,0:0:0:0:
64,192,79914,1,0,0:0:0:70:tom03.wav
192,192,79999,1,0,0:0:0:70:tom02.wav
320,192,80084,1,2,0:0:0:0:
448,192,80084,1,0,0:0:0:0:
64,192,80253,1,2,0:0:0:0:
192,192,80253,1,0,0:0:0:0:
64,192,80423,1,8,0:0:0:0:
320,192,80423,1,0,0:0:0:0:
448,192,80423,1,0,0:0:0:0:
192,192,80592,1,2,0:0:0:0:
320,192,80592,1,0,0:0:0:0:
64,192,80762,1,0,0:0:0:70:tom03.wav
320,192,80931,1,2,0:0:0:0:
448,192,80931,1,0,0:0:0:0:
64,192,81100,1,8,0:0:0:0:
192,192,81100,1,0,0:0:0:0:
448,192,81100,1,0,0:0:0:0:
64,192,81270,1,0,0:0:0:70:tom02.wav
192,192,81355,1,0,0:0:0:70:tom01.wav
320,192,81439,1,2,0:0:0:0:
448,192,81439,1,0,0:0:0:0:
64,192,81609,1,2,0:0:0:0:
192,192,81609,1,0,0:0:0:0:
64,192,81778,1,8,0:0:0:0:
320,192,81778,1,0,0:0:0:0:
448,192,81778,1,0,0:0:0:0:
320,192,81948,1,0,0:0:0:70:tom03.wav
192,192,82033,1,0,0:0:0:70:tom04.wav
64,192,82117,1,2,0:0:0:0:
320,192,82117,1,0,0:0:0:0:
448,192,82117,1,0,0:0:0:0:
64,192,82287,1,2,0:0:0:0:
192,192,82287,1,0,0:0:0:0:
192,192,82456,1,8,0:0:0:0:
320,192,82456,1,0,0:0:0:0:
448,192,82456,1,0,0:0:0:0:
448,192,82626,1,0,0:0:0:70:tom03.wav
320,192,82711,1,0,0:0:0:70:tom02.wav
64,192,82795,1,2,0:0:0:0:
192,192,82795,1,0,0:0:0:0:
320,192,82965,1,2,0:0:0:0:
448,192,82965,1,0,0:0:0:0:
64,192,83134,1,8,0:0:0:0:
192,192,83134,1,0,0:0:0:0:
448,192,83134,1,0,0:0:0:0:
192,192,83304,1,2,0:0:0:0:
320,192,83304,1,0,0:0:0:0:
448,192,83473,1,0,0:0:0:0:
64,192,83643,1,2,0:0:0:0:
192,192,83643,1,0,0:0:0:0:
64,192,83812,1,8,0:0:0:0:
320,192,83812,1,0,0:0:0:0:
448,192,83812,1,0,0:0:0:0:
448,192,83982,1,0,0:0:0:0:
320,192,84067,1,0,0:0:0:70:tom01.wav
64,192,84151,1,2,0:0:0:0:
192,192,84151,1,0,0:0:0:0:
320,192,84236,1,8,0:0:0:0:
448,192,84236,1,0,0:0:0:0:
192,192,84321,1,2,0:0:0:0:
64,192,84490,1,8,0:0:0:0:
320,192,84490,1,0,0:0:0:0:
448,192,84490,1,0,0:0:0:0:
192,192,84660,1,0,0:0:0:70:tom03.wav
320,192,84745,1,8,0:0:0:0:
448,192,84745,1,0,0:0:0:0:
64,192,84829,1,2,0:0:0:0:
192,192,84829,1,4,0:0:0:0:
320,192,84999,1,2,0:0:0:0:
448,192,84999,1,0,0:0:0:0:
64,192,85168,1,8,0:0:0:0:
192,192,85168,1,0,0:0:0:0:
320,192,85168,1,0,0:0:0:0:
192,192,85338,1,0,0:0:0:70:tom03.wav
320,192,85423,1,0,0:0:0:70:tom02.wav
64,192,85507,1,2,0:0:0:0:
448,192,85507,1,0,0:0:0:0:
192,192,85677,1,2,0:0:0:0:
320,192,85677,1,0,0:0:0:0:
64,192,85846,1,8,0:0:0:0:
320,192,85846,1,0,0:0:0:0:
448,192,85846,1,0,0:0:0:0:
192,192,86016,1,2,0:0:0:0:
448,192,86016,1,0,0:0:0:0:
64,192,86185,1,0,0:0:0:70:tom03.wav
320,192,86355,1,2,0:0:0:0:
448,192,86355,1,0,0:0:0:0:
64,192,86524,1,8,0:0:0:0:
192,192,86524,1,0,0:0:0:0:
448,192,86524,1,0,0:0:0:0:
192,192,86694,1,0,0:0:0:70:tom02.wav
320,192,86778,1,0,0:0:0:70:tom01.wav
64,192,86863,1,2,0:0:0:0:
448,192,86863,1,0,0:0:0:0:
192,192,87033,1,2,0:0:0:0:
320,192,87033,1,0,0:0:0:0:
64,192,87202,1,8,0:0:0:0:
192,192,87202,1,0,0:0:0:0:
448,192,87202,1,0,0:0:0:0:
320,192,87372,1,0,0:0:0:70:tom03.wav
192,192,87456,1,0,0:0:0:70:tom04.wav
64,192,87541,1,2,0:0:0:0:
320,192,87541,1,0,0:0:0:0:
448,192,87541,1,0,0:0:0:0:
64,192,87711,1,2,0:0:0:0:
192,192,87711,1,0,0:0:0:0:
192,192,87880,1,8,0:0:0:0:
320,192,87880,1,0,0:0:0:0:
448,192,87880,1,0,0:0:0:0:
320,192,88050,1,0,0:0:0:70:tom03.wav
192,192,88134,1,0,0:0:0:70:tom02.wav
64,192,88219,1,2,0:0:0:0:
448,192,88219,1,0,0:0:0:0:
192,192,88389,1,2,0:0:0:0:
320,192,88389,1,0,0:0:0:0:
64,192,88558,1,8,0:0:0:0:
192,192,88558,1,0,0:0:0:0:
448,192,88558,1,0,0:0:0:0:
64,192,88728,1,2,0:0:0:0:
320,192,88728,1,0,0:0:0:0:
448,192,88897,1,0,0:0:0:0:
64,192,89067,1,2,0:0:0:0:
192,192,89067,1,0,0:0:0:0:
64,192,89236,1,8,0:0:0:0:
320,192,89236,1,0,0:0:0:0:
448,192,89236,1,0,0:0:0:0:
320,192,89406,1,0,0:0:0:0:
192,192,89490,1,0,0:0:0:70:tom01.wav
64,192,89575,1,2,0:0:0:0:
448,192,89575,1,0,0:0:0:0:
320,192,89745,1,8,0:0:0:0:
448,192,89745,1,0,0:0:0:0:
64,192,89829,1,8,0:0:0:0:
192,192,89829,1,0,0:0:0:0:
320,192,89914,1,8,0:0:0:0:
448,192,89914,1,0,0:0:0:0:
64,192,89999,1,8,0:0:0:0:
192,192,89999,1,0,0:0:0:0:
320,192,90084,1,8,0:0:0:0:
448,192,90084,1,0,0:0:0:0:
192,192,90168,1,8,0:0:0:0:
64,192,90253,1,2,0:0:0:0:
320,192,90253,1,4,0:0:0:0:
448,192,90253,1,0,0:0:0:0:
192,192,90423,1,0,0:0:0:0:
64,192,90592,1,8,0:0:0:0:
320,192,90592,1,0,0:0:0:0:
448,192,90592,1,0,0:0:0:0:
64,192,90762,1,2,0:0:0:0:
192,192,90762,1,0,0:0:0:0:
192,192,90931,1,8,0:0:0:0:
320,192,90931,1,0,0:0:0:0:
448,192,90931,1,0,0:0:0:0:
64,192,91100,1,2,0:0:0:0:
320,192,91100,1,0,0:0:0:0:
64,192,91270,1,8,0:0:0:0:
192,192,91270,1,0,0:0:0:0:
448,192,91270,1,0,0:0:0:0:
320,192,91439,1,2,0:0:0:0:
448,192,91439,1,0,0:0:0:0:
64,192,91609,1,8,0:0:0:0:
192,192,91609,1,0,0:0:0:0:
320,192,91609,1,0,0:0:0:0:
192,192,91778,1,0,0:0:0:0:
64,192,91948,1,8,0:0:0:0:
320,192,91948,1,0,0:0:0:0:
448,192,91948,1,0,0:0:0:0:
192,192,92117,1,2,0:0:0:0:
320,192,92117,1,0,0:0:0:0:
64,192,92287,1,8,0:0:0:0:
192,192,92287,1,0,0:0:0:0:
448,192,92287,1,0,0:0:0:0:
64,192,92456,1,2,0:0:0:0:
320,192,92456,1,0,0:0:0:0:
192,192,92626,1,8,0:0:0:0:
320,192,92626,1,0,0:0:0:0:
448,192,92626,1,0,0:0:0:0:
64,192,92795,1,2,0:0:0:0:
448,192,92795,1,0,0:0:0:0:
64,192,92965,1,8,0:0:0:0:
192,192,92965,1,0,0:0:0:0:
320,192,92965,1,0,0:0:0:0:
320,192,93134,1,0,0:0:0:0:
64,192,93304,1,8,0:0:0:0:
192,192,93304,1,0,0:0:0:0:
448,192,93304,1,0,0:0:0:0:
320,192,93473,1,2,0:0:0:0:
448,192,93473,1,0,0:0:0:0:
64,192,93643,1,8,0:0:0:0:
192,192,93643,1,0,0:0:0:0:
320,192,93643,1,0,0:0:0:0:
192,192,93812,1,2,0:0:0:0:
448,192,93812,1,0,0:0:0:0:
64,192,93982,1,8,0:0:0:0:
320,192,93982,1,0,0:0:0:0:
448,192,93982,1,0,0:0:0:0:
64,192,94151,1,2,0:0:0:0:
192,192,94151,1,0,0:0:0:0:
192,192,94321,1,8,0:0:0:0:
320,192,94321,1,0,0:0:0:0:
448,192,94321,1,0,0:0:0:0:
320,192,94490,1,0,0:0:0:0:
64,192,94660,1,8,0:0:0:0:
192,192,94660,1,0,0:0:0:0:
448,192,94660,1,0,0:0:0:0:
192,192,94829,1,2,0:0:0:0:
320,192,94829,1,0,0:0:0:0:
64,192,94999,1,8,0:0:0:0:
320,192,94999,1,0,0:0:0:0:
448,192,94999,1,0,0:0:0:0:
192,192,95168,1,2,0:0:0:0:
448,192,95168,1,0,0:0:0:0:
64,192,95338,1,8,0:0:0:0:
192,192,95338,1,0,0:0:0:0:
320,192,95338,1,0,0:0:0:0:
64,192,95507,1,2,0:0:0:0:
448,192,95507,1,0,0:0:0:0:
192,192,95677,1,8,0:0:0:0:
320,192,95677,1,0,0:0:0:0:
448,192,95677,1,0,0:0:0:0:
64,192,95846,1,2,0:0:0:0:
192,192,95846,1,0,0:0:0:0:
64,192,96016,1,8,0:0:0:0:
320,192,96016,1,0,0:0:0:0:
448,192,96016,1,0,0:0:0:0:
192,192,96185,1,2,0:0:0:0:
320,192,96185,1,0,0:0:0:0:
64,192,96355,1,8,0:0:0:0:
192,192,96355,1,0,0:0:0:0:
448,192,96355,1,0,0:0:0:0:
64,192,96524,1,2,0:0:0:0:
320,192,96524,1,0,0:0:0:0:
64,192,96694,1,8,0:0:0:0:
192,192,96694,1,0,0:0:0:0:
448,192,96694,1,0,0:0:0:0:
192,192,96863,1,0,0:0:0:0:
64,192,97033,1,8,0:0:0:0:
320,192,97033,1,0,0:0:0:0:
448,192,97033,1,0,0:0:0:0:
192,192,97202,1,2,0:0:0:0:
320,192,97202,1,0,0:0:0:0:
64,192,97372,1,8,0:0:0:0:
192,192,97372,1,0,0:0:0:0:
448,192,97372,1,0,0:0:0:0:
320,192,97541,1,2,0:0:0:0:
448,192,97541,1,0,0:0:0:0:
64,192,97711,1,8,0:0:0:0:
192,192,97711,1,0,0:0:0:0:
320,192,97711,1,0,0:0:0:0:
64,192,97880,1,2,0:0:0:0:
448,192,97880,1,0,0:0:0:0:
192,192,98050,1,8,0:0:0:0:
320,192,98050,1,0,0:0:0:0:
448,192,98050,1,0,0:0:0:0:
192,192,98219,1,0,0:0:0:0:
64,192,98389,1,8,0:0:0:0:
320,192,98389,1,0,0:0:0:0:
448,192,98389,1,0,0:0:0:0:
192,192,98558,1,2,0:0:0:0:
320,192,98558,1,0,0:0:0:0:
64,192,98728,1,8,0:0:0:0:
192,192,98728,1,0,0:0:0:0:
448,192,98728,1,0,0:0:0:0:
64,192,98897,1,2,0:0:0:0:
320,192,98897,1,0,0:0:0:0:
192,192,99067,1,8,0:0:0:0:
320,192,99067,1,0,0:0:0:0:
448,192,99067,1,0,0:0:0:0:
64,192,99236,1,2,0:0:0:0:
448,192,99236,1,0,0:0:0:0:
192,192,99406,1,8,0:0:0:0:
320,192,99406,1,0,0:0:0:0:
448,192,99406,1,0,0:0:0:0:
320,192,99575,1,0,0:0:0:0:
64,192,99745,1,8,0:0:0:0:
192,192,99745,1,0,0:0:0:0:
448,192,99745,1,0,0:0:0:0:
64,192,99914,1,2,0:0:0:0:
320,192,99914,1,0,0:0:0:0:
192,192,100084,1,8,0:0:0:0:
320,192,100084,1,0,0:0:0:0:
448,192,100084,1,0,0:0:0:0:
64,192,100253,1,2,0:0:0:0:
448,192,100253,1,0,0:0:0:0:
64,192,100423,1,8,0:0:0:0:
192,192,100423,1,0,0:0:0:0:
320,192,100507,1,8,0:0:0:0:
448,192,100507,1,0,0:0:0:0:
192,192,100592,1,0,0:0:0:70:tom01.wav
320,192,100677,1,0,0:0:0:70:tom02.wav
64,192,100762,1,8,0:0:0:0:
192,192,100762,1,0,0:0:0:0:
448,192,100762,1,0,0:0:0:0:
64,192,100931,128,8,101270:0:0:0:0:
320,192,100931,1,0,0:0:0:0:
448,192,100931,1,0,0:0:0:0:
320,192,101270,128,0,101439:0:0:0:0:
192,192,101439,128,0,101609:0:0:0:0:
448,192,101609,128,0,101778:0:0:0:0:
64,192,101778,128,0,102117:0:0:0:0:
192,192,101948,128,0,102117:0:0:0:0:
320,192,102117,1,8,0:0:0:0:
448,192,102117,1,0,0:0:0:0:
64,192,102202,1,8,0:0:0:0:
192,192,102202,1,0,0:0:0:0:
320,192,102287,1,8,0:0:0:0:
448,192,102287,1,0,0:0:0:0:
192,192,102372,1,8,0:0:0:0:
64,192,102456,1,2,0:0:0:0:
320,192,102456,1,4,0:0:0:0:
448,192,102456,1,0,0:0:0:0:
192,192,102626,1,0,0:0:0:0:
64,192,102795,1,8,0:0:0:0:
320,192,102795,1,0,0:0:0:0:
448,192,102795,1,0,0:0:0:0:
64,192,102965,1,2,0:0:0:0:
192,192,102965,1,0,0:0:0:0:
192,192,103134,1,8,0:0:0:0:
320,192,103134,1,0,0:0:0:0:
448,192,103134,1,0,0:0:0:0:
64,192,103304,1,2,0:0:0:0:
448,192,103304,1,0,0:0:0:0:
64,192,103473,1,8,0:0:0:0:
192,192,103473,1,0,0:0:0:0:
320,192,103473,1,0,0:0:0:0:
320,192,103643,1,2,0:0:0:0:
448,192,103643,1,0,0:0:0:0:
64,192,103812,1,8,0:0:0:0:
192,192,103812,1,0,0:0:0:0:
448,192,103812,1,0,0:0:0:0:
320,192,103982,1,0,0:0:0:0:
192,192,104067,1,0,0:0:0:0:
64,192,104151,1,8,0:0:0:0:
320,192,104151,1,0,0:0:0:0:
448,192,104151,1,0,0:0:0:0:
192,192,104321,1,2,0:0:0:0:
448,192,104321,1,0,0:0:0:0:
64,192,104490,1,8,0:0:0:0:
192,192,104490,1,0,0:0:0:0:
320,192,104490,1,0,0:0:0:0:
64,192,104660,1,2,0:0:0:0:
448,192,104660,1,0,0:0:0:0:
192,192,104829,1,8,0:0:0:0:
320,192,104829,1,0,0:0:0:0:
448,192,104829,1,0,0:0:0:0:
64,192,104999,1,2,0:0:0:0:
320,192,104999,1,0,0:0:0:0:
64,192,105168,1,8,0:0:0:0:
192,192,105168,1,0,0:0:0:0:
448,192,105168,1,0,0:0:0:0:
320,192,105338,1,0,0:0:0:0:
64,192,105507,1,8,0:0:0:0:
192,192,105507,1,0,0:0:0:0:
448,192,105507,1,0,0:0:0:0:
320,192,105677,1,2,0:0:0:0:
448,192,105677,1,0,0:0:0:0:
64,192,105846,1,8,0:0:0:0:
192,192,105846,1,0,0:0:0:0:
320,192,105846,1,0,0:0:0:0:
64,192,106016,1,2,0:0:0:0:
448,192,106016,1,0,0:0:0:0:
192,192,106185,1,8,0:0:0:0:
320,192,106185,1,0,0:0:0:0:
448,192,106185,1,0,0:0:0:0:
64,192,106355,1,2,0:0:0:0:
192,192,106355,1,0,0:0:0:0:
64,192,106524,1,8,0:0:0:0:
320,192,106524,1,0,0:0:0:0:
448,192,106524,1,0,0:0:0:0:
192,192,106694,1,0,0:0:0:0:
320,192,106778,1,0,0:0:0:0:
64,192,106863,1,8,0:0:0:0:
192,192,106863,1,0,0:0:0:0:
448,192,106863,1,0,0:0:0:0:
64,192,107033,1,2,0:0:0:0:
320,192,107033,1,0,0:0:0:0:
192,192,107202,1,8,0:0:0:0:
320,192,107202,1,0,0:0:0:0:
448,192,107202,1,0,0:0:0:0:
64,192,107372,1,8,0:0:0:0:
192,192,107372,1,0,0:0:0:0:
320,192,107456,1,8,0:0:0:0:
448,192,107456,1,0,0:0:0:0:
64,192,107541,1,8,0:0:0:0:
192,192,107541,1,0,0:0:0:0:
320,192,107626,1,8,0:0:0:0:
448,192,107626,1,0,0:0:0:0:
64,192,107711,1,8,0:0:0:0:
192,192,107711,1,0,0:0:0:0:
320,192,107795,1,8,0:0:0:0:
64,192,107880,1,4,0:0:0:0:
192,192,107880,1,2,0:0:0:0:
448,192,107880,1,0,0:0:0:0:
320,192,108050,1,0,0:0:0:0:
64,192,108219,1,8,0:0:0:0:
192,192,108219,1,0,0:0:0:0:
448,192,108219,1,0,0:0:0:0:
192,192,108389,1,2,0:0:0:0:
320,192,108389,1,0,0:0:0:0:
64,192,108558,1,8,0:0:0:0:
320,192,108558,1,0,0:0:0:0:
448,192,108558,1,0,0:0:0:0:
192,192,108728,1,2,0:0:0:0:
448,192,108728,1,0,0:0:0:0:
64,192,108897,1,8,0:0:0:0:
192,192,108897,1,0,0:0:0:0:
320,192,108897,1,0,0:0:0:0:
64,192,109067,1,2,0:0:0:0:
448,192,109067,1,0,0:0:0:0:
192,192,109236,1,8,0:0:0:0:
320,192,109236,1,0,0:0:0:0:
448,192,109236,1,0,0:0:0:0:
64,192,109406,1,0,0:0:0:0:
192,192,109490,1,0,0:0:0:0:
64,192,109575,1,8,0:0:0:0:
320,192,109575,1,0,0:0:0:0:
448,192,109575,1,0,0:0:0:0:
192,192,109745,1,2,0:0:0:0:
448,192,109745,1,0,0:0:0:0:
64,192,109914,1,8,0:0:0:0:
192,192,109914,1,0,0:0:0:0:
320,192,109914,1,0,0:0:0:0:
64,192,110084,1,2,0:0:0:0:
448,192,110084,1,0,0:0:0:0:
192,192,110253,1,8,0:0:0:0:
320,192,110253,1,0,0:0:0:0:
448,192,110253,1,0,0:0:0:0:
64,192,110423,1,2,0:0:0:0:
192,192,110423,1,0,0:0:0:0:
64,192,110592,1,8,0:0:0:0:
320,192,110592,1,4,0:0:0:0:
448,192,110592,1,0,0:0:0:0:
192,192,110762,1,0,0:0:0:0:
64,192,110931,1,8,0:0:0:0:
320,192,110931,1,0,0:0:0:0:
448,192,110931,1,0,0:0:0:0:
192,192,111100,1,2,0:0:0:0:
448,192,111100,1,0,0:0:0:0:
64,192,111270,1,8,0:0:0:0:
192,192,111270,1,0,0:0:0:0:
320,192,111270,1,0,0:0:0:0:
64,192,111439,1,2,0:0:0:0:
448,192,111439,1,0,0:0:0:0:
192,192,111609,1,8,0:0:0:0:
320,192,111609,1,0,0:0:0:0:
448,192,111609,1,0,0:0:0:0:
64,192,111778,1,2,0:0:0:0:
192,192,111778,1,0,0:0:0:0:
64,192,111948,1,8,0:0:0:0:
320,192,111948,1,0,0:0:0:0:
448,192,111948,1,0,0:0:0:0:
192,192,112117,1,2,0:0:0:0:
448,192,112117,1,0,0:0:0:0:
64,192,112287,1,8,0:0:0:0:
192,192,112287,1,0,0:0:0:0:
320,192,112287,1,0,0:0:0:0:
64,192,112456,1,2,0:0:0:0:
448,192,112456,1,0,0:0:0:0:
64,192,112626,1,8,0:0:0:0:
192,192,112626,1,0,0:0:0:0:
320,192,112711,1,8,0:0:0:0:
448,192,112711,1,0,0:0:0:0:
64,192,112795,1,8,0:0:0:0:
192,192,112795,1,0,0:0:0:0:
320,192,112880,1,8,0:0:0:0:
64,192,112965,1,8,0:0:0:0:
192,192,112965,1,2,0:0:0:0:
448,192,112965,1,4,0:0:0:0:
