osu file format v14

[General]
AudioFilename: audio.mp3
AudioLeadIn: 0
PreviewTime: 56270
Countdown: 0
SampleSet: Normal
StackLeniency: 0.7
Mode: 1
LetterboxInBreaks: 0
WidescreenStoryboard: 0

[Editor]
DistanceSpacing: 1
BeatDivisor: 4
GridSize: 16
TimelineZoom: 2

[Metadata]
Title:Seishun Mode! Mou Ikkai!!
TitleUnicode:青春モード!もう1回!!
Artist:Honma Himawari
ArtistUnicode:本間ひまわり
Creator:davidminh0111
Version:Kantan!!
Source:
Tags:honhima 本ひま gamers ゲーマーズ honeyworks smash the paint!! vtuber virtual youtuber バーチャルyoutuber にじさんじ 2434 japanese pop jpop yasuho zhuosh youth 1kai nijisanji j-pop
BeatmapID:2860960
BeatmapSetID:1384863

[Difficulty]
HPDrainRate:7
CircleSize:2
OverallDifficulty:3
ApproachRate:10
SliderMultiplier:1.4
SliderTickRate:1

[Events]
//Background and Video events
0,0,"BG.jpg",0,0
//Break Periods
//Storyboard Layer 0 (Background)
//Storyboard Layer 1 (Fail)
//Storyboard Layer 2 (Pass)
//Storyboard Layer 3 (Foreground)
//Storyboard Layer 4 (Overlay)
//Storyboard Sound Samples

[TimingPoints]
762,338.983050847458,4,1,0,70,1,0
762,-100,4,1,0,70,0,0
6185,-100,4,1,0,75,0,0
10084,-100,4,1,0,90,0,0
11100,-100,4,1,0,80,0,0
22456,-100,4,1,0,70,0,0
33304,-100,4,1,0,75,0,0
44151,-100,4,1,0,70,0,0
52287,-100,4,1,0,75,0,0
54999,-100,4,1,0,80,0,0
56355,-100,4,1,0,100,0,0
57372,-100,4,1,0,80,0,0
57711,338.983050847458,4,1,0,90,1,1
57711,-100,4,1,0,90,0,1
79405,-100,4,1,0,75,0,0
90253,-100,4,1,0,90,0,1
102456,338.983050847458,4,1,0,80,1,0
102456,-100,4,1,0,80,0,0

[HitObjects]
256,192,762,5,8,0:0:0:0:
256,192,1439,1,8,0:0:0:0:
256,192,1948,1,0,0:0:0:0:
256,192,2795,1,8,0:0:0:0:
256,192,3473,1,0,0:0:0:0:
256,192,4151,1,8,0:0:0:0:
256,192,5168,1,0,0:0:0:0:
256,192,5507,1,8,0:0:0:0:
256,192,6185,1,8,0:0:0:0:
256,192,6863,1,8,0:0:0:0:
256,192,7372,1,0,0:0:0:0:
256,192,7880,1,0,0:0:0:0:
256,192,8219,1,8,0:0:0:0:
256,192,8897,1,8,0:0:0:0:
256,192,9236,1,0,0:0:0:0:
256,192,9575,1,0,0:0:0:0:
256,192,10084,1,12,0:0:0:0:
256,192,11270,1,0,0:0:0:0:
256,192,11609,1,12,0:0:0:0:
256,192,12287,1,0,0:0:0:0:
256,192,12795,1,8,0:0:0:0:
256,192,13304,1,0,0:0:0:0:
256,192,13643,1,8,0:0:0:0:
256,192,14321,1,0,0:0:0:0:
256,192,14999,1,8,0:0:0:0:
256,192,16016,1,0,0:0:0:0:
256,192,16355,1,8,0:0:0:0:
256,192,17033,1,12,0:0:0:0:
256,192,17711,1,0,0:0:0:0:
256,192,18219,1,8,0:0:0:0:
256,192,18728,1,0,0:0:0:0:
256,192,19067,1,8,0:0:0:0:
256,192,19745,1,0,0:0:0:0:
256,192,20084,1,8,0:0:0:0:
256,192,20423,1,8,0:0:0:0:
256,192,21100,1,12,0:0:0:0:
256,192,22117,1,8,0:0:0:0:
256,192,22456,1,4,0:0:0:0:
256,192,23134,1,8,0:0:0:0:
256,192,23643,1,0,0:0:0:0:
256,192,24490,1,0,0:0:0:0:
256,192,24829,1,0,0:0:0:0:
256,192,25168,1,8,0:0:0:0:
256,192,25677,1,8,0:0:0:0:
256,192,27202,1,8,0:0:0:0:
256,192,27541,1,0,0:0:0:0:
256,192,27880,1,8,0:0:0:0:
256,192,28558,1,0,0:0:0:0:
256,192,29067,1,8,0:0:0:0:
256,192,29914,1,0,0:0:0:0:
256,192,30253,1,0,0:0:0:0:
256,192,30592,1,8,0:0:0:0:
256,192,31270,1,8,0:0:0:0:
256,192,31948,1,4,0:0:0:0:
256,192,32626,1,8,0:0:0:0:
256,192,32965,1,8,0:0:0:0:
256,192,33304,1,4,0:0:0:0:
256,192,33982,1,8,0:0:0:0:
256,192,34490,1,0,0:0:0:0:
256,192,35338,1,8,0:0:0:0:
256,192,35677,1,0,0:0:0:0:
256,192,36016,1,8,0:0:0:0:
256,192,37033,1,0,0:0:0:0:
256,192,37372,1,8,0:0:0:0:
256,192,38050,1,8,0:0:0:0:
256,192,38389,1,0,0:0:0:0:
256,192,38728,1,8,0:0:0:0:
256,192,39406,1,8,0:0:0:0:
256,192,40084,1,0,0:0:0:0:
256,192,40762,1,0,0:0:0:0:
256,192,41100,1,0,0:0:0:0:
256,192,41439,1,8,0:0:0:0:
256,192,42117,1,0,0:0:0:0:
256,192,42795,1,8,0:0:0:0:
256,192,43134,1,8,0:0:0:0:
256,192,43473,1,0,0:0:0:0:
256,192,43812,1,8,0:0:0:0:
256,192,44151,1,4,0:0:0:0:
256,192,44829,1,8,0:0:0:0:
256,192,45507,1,0,0:0:0:0:
256,192,45846,1,0,0:0:0:0:
256,192,46185,1,8,0:0:0:0:
256,192,46863,1,0,0:0:0:0:
256,192,47541,1,8,0:0:0:0:
256,192,48219,1,8,0:0:0:0:
256,192,48558,1,0,0:0:0:0:
256,192,48897,1,8,0:0:0:0:
256,192,49575,1,4,0:0:0:0:
256,192,50592,1,8,0:0:0:0:
256,192,50931,1,0,0:0:0:0:
256,192,51609,1,8,0:0:0:0:
256,192,51948,1,8,0:0:0:0:
256,192,52287,1,4,0:0:0:0:
256,192,53304,1,8,0:0:0:0:
256,192,53982,1,8,0:0:0:0:
256,192,54321,1,0,0:0:0:0:
256,192,54660,1,8,0:0:0:0:
256,192,54999,1,4,0:0:0:0:
256,192,55677,1,4,0:0:0:0:
256,192,56355,1,12,0:0:0:0:
256,192,56694,1,12,0:0:0:0:
256,192,57033,1,12,0:0:0:0:
256,192,57711,1,12,0:0:0:0:
256,192,58049,1,0,0:0:0:0:
256,192,58388,1,8,0:0:0:0:
256,192,58897,1,8,0:0:0:0:
256,192,59405,1,0,0:0:0:0:
256,192,59744,1,8,0:0:0:0:
256,192,60422,1,0,0:0:0:0:
256,192,61100,1,8,0:0:0:0:
256,192,62117,1,0,0:0:0:0:
256,192,62456,1,8,0:0:0:0:
256,192,63134,1,8,0:0:0:0:
256,192,63473,1,8,0:0:0:0:
256,192,63812,1,0,0:0:0:0:
256,192,64321,1,8,0:0:0:0:
256,192,64829,1,8,0:0:0:0:
256,192,65168,1,0,0:0:0:0:
256,192,65846,1,0,0:0:0:0:
256,192,66185,1,8,0:0:0:0:
256,192,66524,1,8,0:0:0:0:
256,192,66863,1,0,0:0:0:0:
256,192,67202,1,8,0:0:0:0:
256,192,67880,1,0,0:0:0:0:
256,192,68558,1,12,0:0:0:0:
256,192,68897,1,0,0:0:0:0:
256,192,69236,1,8,0:0:0:0:
256,192,69744,1,8,0:0:0:0:
256,192,70253,1,8,0:0:0:0:
256,192,70592,1,0,0:0:0:0:
256,192,71270,1,0,0:0:0:0:
256,192,71948,1,8,0:0:0:0:
256,192,72965,1,0,0:0:0:0:
256,192,73304,1,8,0:0:0:0:
256,192,73982,1,8,0:0:0:0:
256,192,74321,1,8,0:0:0:0:
256,192,74660,1,0,0:0:0:0:
256,192,75168,1,8,0:0:0:0:
256,192,75677,1,8,0:0:0:0:
256,192,76016,1,0,0:0:0:0:
256,192,76694,1,8,0:0:0:0:
256,192,77033,1,0,0:0:0:0:
256,192,77372,1,8,0:0:0:0:
256,192,77711,1,8,0:0:0:0:
256,192,78049,1,4,0:0:0:0:
256,192,78727,1,0,0:0:0:0:
256,192,79066,1,0,0:0:0:0:
256,192,79405,1,12,0:0:0:0:
256,192,80083,1,8,0:0:0:0:
256,192,80592,1,0,0:0:0:0:
256,192,81100,1,0,0:0:0:0:
256,192,81439,1,8,0:0:0:0:
256,192,82117,1,0,0:0:0:0:
256,192,82795,1,8,0:0:0:0:
256,192,83812,1,0,0:0:0:0:
256,192,84151,1,8,0:0:0:0:
256,192,84829,1,12,0:0:0:0:
256,192,85507,1,8,0:0:0:0:
256,192,86016,1,0,0:0:0:0:
256,192,86524,1,0,0:0:0:0:
256,192,86863,1,8,0:0:0:0:
256,192,87541,1,0,0:0:0:0:
256,192,88219,1,8,0:0:0:0:
256,192,89236,1,0,0:0:0:0:
256,192,89575,1,8,0:0:0:0:
256,192,90253,1,12,0:0:0:0:
256,192,90592,1,0,0:0:0:0:
256,192,90931,1,8,0:0:0:0:
256,192,91439,1,8,0:0:0:0:
256,192,91948,1,0,0:0:0:0:
256,192,92287,1,8,0:0:0:0:
256,192,92965,1,0,0:0:0:0:
256,192,93304,1,8,0:0:0:0:
256,192,93643,1,0,0:0:0:0:
256,192,94151,1,8,0:0:0:0:
256,192,94660,1,8,0:0:0:0:
256,192,94999,1,0,0:0:0:0:
256,192,95677,1,8,0:0:0:0:
256,192,96016,1,0,0:0:0:0:
256,192,96355,1,8,0:0:0:0:
256,192,96863,1,0,0:0:0:0:
256,192,97372,1,8,0:0:0:0:
256,192,97880,1,0,0:0:0:0:
256,192,98388,1,8,0:0:0:0:
256,192,98897,1,0,0:0:0:0:
256,192,99575,1,8,0:0:0:0:
256,192,100083,1,8,0:0:0:0:
256,192,100422,1,0,0:0:0:0:
256,192,100931,1,8,0:0:0:0:
256,192,102117,1,0,0:0:0:0:
256,192,102456,1,12,0:0:0:0:
256,192,103133,1,0,0:0:0:0:
256,192,103642,1,8,0:0:0:0:
256,192,104150,1,0,0:0:0:0:
256,192,104489,1,8,0:0:0:0:
256,192,105167,1,0,0:0:0:0:
256,192,105845,1,8,0:0:0:0:
256,192,106862,1,0,0:0:0:0:
256,192,107201,1,8,0:0:0:0:
256,192,107879,1,12,0:0:0:0:
256,192,108557,1,0,0:0:0:0:
256,192,109066,1,8,0:0:0:0:
256,192,109574,1,0,0:0:0:0:
256,192,109913,1,8,0:0:0:0:
256,192,110591,1,4,0:0:0:0:
256,192,110930,1,8,0:0:0:0:
256,192,111269,1,8,0:0:0:0:
256,192,111947,1,8,0:0:0:0:
256,192,112625,1,0,0:0:0:0:
256,192,112964,1,12,0:0:0:0:
