osu file format v14

[General]
AudioFilename: audio.mp3
AudioLeadIn: 0
PreviewTime: 56270
Countdown: 0
SampleSet: Normal
StackLeniency: 0.7
Mode: 1
LetterboxInBreaks: 0
WidescreenStoryboard: 0

[Editor]
DistanceSpacing: 1
BeatDivisor: 4
GridSize: 16
TimelineZoom: 2

[Metadata]
Title:Seishun Mode! Mou Ikkai!!
TitleUnicode:青春モード!もう1回!!
Artist:Honma Himawari
ArtistUnicode:本間ひまわり
Creator:davidminh0111
Version:Inner Oni!!
Source:
Tags:honhima 本ひま gamers ゲーマーズ honeyworks smash the paint!! vtuber virtual youtuber バーチャルyoutuber にじさんじ 2434 japanese pop jpop yasuho zhuosh youth 1kai nijisanji j-pop
BeatmapID:2860959
BeatmapSetID:1384863

[Difficulty]
HPDrainRate:5.5
CircleSize:2
OverallDifficulty:6
ApproachRate:10
SliderMultiplier:1.4
SliderTickRate:1

[Events]
//Background and Video events
0,0,"BG.jpg",0,0
//Break Periods
//Storyboard Layer 0 (Background)
//Storyboard Layer 1 (Fail)
//Storyboard Layer 2 (Pass)
//Storyboard Layer 3 (Foreground)
//Storyboard Layer 4 (Overlay)
//Storyboard Sound Samples

[TimingPoints]
762,338.983050847458,4,1,0,70,1,0
762,-125,4,1,0,70,0,0
6185,-111.111111111111,4,1,0,75,0,0
9236,-105.263157894737,4,1,0,75,0,0
9406,-100,4,1,0,75,0,0
9575,-95.2380952380952,4,1,0,75,0,0
9745,-90.9090909090909,4,1,0,75,0,0
9914,-86.9565217391304,4,1,0,75,0,0
10084,-83.3333333333333,4,1,0,90,0,0
11100,-100,4,1,0,80,0,0
22117,-102.040816326531,4,1,0,80,0,0
22202,-104.166666666667,4,1,0,80,0,0
22287,-106.382978723404,4,1,0,80,0,0
22372,-108.695652173913,4,1,0,80,0,0
22456,-111.111111111111,4,1,0,70,0,0
31948,-105.263157894737,4,1,0,70,0,0
32965,-104.166666666667,4,1,0,70,0,0
33050,-103.092783505155,4,1,0,70,0,0
33134,-102.040816326531,4,1,0,70,0,0
33219,-101.010101010101,4,1,0,70,0,0
33304,-100,4,1,0,75,0,0
43643,-102.040816326531,4,1,0,75,0,0
43728,-104.166666666667,4,1,0,75,0,0
43812,-106.382978723404,4,1,0,75,0,0
43982,-108.695652173913,4,1,0,75,0,0
44151,-111.111111111111,4,1,0,70,0,0
51270,-108.695652173913,4,1,0,70,0,0
51439,-106.382978723404,4,1,0,70,0,0
51948,-104.166666666667,4,1,0,70,0,0
52117,-102.040816326531,4,1,0,70,0,0
52286,-100,4,1,0,80,0,0
54999,-90.9090909090909,4,1,0,80,0,0
56355,-66.6666666666667,4,1,0,100,0,0
57372,-98.0392156862745,4,1,0,80,0,0
57456,-96.1538461538461,4,1,0,80,0,0
57541,-94.3396226415094,4,1,0,80,0,0
57626,-92.5925925925926,4,1,0,80,0,0
57711,338.983050847458,4,1,0,90,1,1
57711,-90.9090909090908,4,1,0,90,0,1
79405,-92.5925925925926,4,1,0,75,0,0
79575,-94.3396226415094,4,1,0,75,0,0
79744,-96.1538461538461,4,1,0,75,0,0
79914,-98.0392156862745,4,1,0,75,0,0
79999,-99.009900990099,4,1,0,75,0,0
80083,-100,4,1,0,75,0,0
89405,-99.009900990099,4,1,0,75,0,0
89575,-98.0392156862745,4,1,0,75,0,0
89660,-97.0873786407767,4,1,0,75,0,0
89744,-96.1538461538461,4,1,0,75,0,0
89829,-95.2380952380952,4,1,0,75,0,0
89914,-94.3396226415094,4,1,0,75,0,0
89999,-93.4579439252336,4,1,0,75,0,0
90083,-92.5925925925926,4,1,0,75,0,0
90168,-91.743119266055,4,1,0,75,0,0
90253,-90.9090909090909,4,1,0,90,0,1
101948,-100,4,1,0,80,0,1
102456,338.983050847458,4,1,0,80,1,0
102456,-100,4,1,0,80,0,0

[HitObjects]
256,192,762,5,8,0:0:0:0:
256,192,931,1,8,0:0:0:0:
256,192,1100,1,0,0:0:0:0:
256,192,1270,1,0,0:0:0:0:
256,192,1439,1,8,0:0:0:0:
256,192,1778,1,8,0:0:0:0:
256,192,1948,1,0,0:0:0:0:
256,192,2287,1,8,0:0:0:0:
256,192,2456,1,8,0:0:0:0:
256,192,2626,1,0,0:0:0:0:
256,192,2795,1,8,0:0:0:0:
256,192,2965,1,0,0:0:0:0:
256,192,3134,1,8,0:0:0:0:
256,192,3473,1,0,0:0:0:0:
256,192,3643,1,0,0:0:0:0:
256,192,3812,1,8,0:0:0:0:
256,192,3982,1,8,0:0:0:0:
256,192,4151,1,0,0:0:0:0:
256,192,4490,1,0,0:0:0:0:
256,192,4660,1,8,0:0:0:0:
256,192,4999,1,0,0:0:0:0:
256,192,5168,1,8,0:0:0:0:
256,192,5338,1,0,0:0:0:0:
256,192,5507,1,8,0:0:0:0:
256,192,5677,1,8,0:0:0:0:
256,192,5762,1,8,0:0:0:0:
256,192,5846,1,8,0:0:0:0:
256,192,6185,1,8,0:0:0:0:
256,192,6355,1,8,0:0:0:0:
256,192,6524,1,0,0:0:0:0:
256,192,6694,1,0,0:0:0:0:
256,192,6863,1,8,0:0:0:0:
256,192,7033,1,0,0:0:0:0:
256,192,7202,1,0,0:0:0:0:
256,192,7372,1,8,0:0:0:0:
256,192,7711,1,8,0:0:0:0:
256,192,7880,1,8,0:0:0:0:
256,192,8050,1,0,0:0:0:0:
256,192,8219,1,8,0:0:0:0:
256,192,8389,1,0,0:0:0:0:
256,192,8558,1,8,0:0:0:0:
256,192,8897,1,8,0:0:0:0:
256,192,9067,1,8,0:0:0:0:
256,192,9236,1,0,0:0:0:0:
256,192,9406,1,0,0:0:0:0:
256,192,9575,1,0,0:0:0:0:
256,192,9745,1,0,0:0:0:0:
256,192,9914,1,0,0:0:0:0:
256,192,10084,1,12,0:0:0:0:
256,192,11100,1,0,0:0:0:0:
256,192,11185,1,0,0:0:0:0:
256,192,11270,1,8,0:0:0:0:
256,192,11326,1,8,0:0:0:0:
256,192,11383,1,8,0:0:0:0:
256,192,11439,1,0,0:0:0:0:
256,192,11609,1,12,0:0:0:0:
256,192,11778,1,0,0:0:0:0:
256,192,11863,1,0,0:0:0:0:
256,192,11948,1,8,0:0:0:0:
256,192,12117,1,0,0:0:0:0:
256,192,12287,1,8,0:0:0:0:
256,192,12456,1,8,0:0:0:0:
256,192,12541,1,8,0:0:0:0:
256,192,12626,1,0,0:0:0:0:
256,192,12795,1,8,0:0:0:0:
256,192,12965,1,0,0:0:0:0:
256,192,13134,1,0,0:0:0:0:
256,192,13219,1,0,0:0:0:0:
256,192,13304,1,8,0:0:0:0:
256,192,13473,1,0,0:0:0:0:
256,192,13643,1,8,0:0:0:0:
256,192,13812,1,0,0:0:0:0:
256,192,13897,1,0,0:0:0:0:
256,192,13982,1,8,0:0:0:0:
256,192,14067,1,0,0:0:0:0:
256,192,14151,1,8,0:0:0:0:
256,192,14321,1,0,0:0:0:0:
256,192,14660,1,8,0:0:0:0:
256,192,14829,1,0,0:0:0:0:
256,192,14914,1,0,0:0:0:0:
256,192,14999,1,8,0:0:0:0:
256,192,15338,1,0,0:0:0:0:
256,192,15507,1,8,0:0:0:0:
256,192,15592,1,8,0:0:0:0:
256,192,15677,1,8,0:0:0:0:
256,192,15846,1,8,0:0:0:0:
256,192,16016,1,0,0:0:0:0:
256,192,16100,1,0,0:0:0:0:
256,192,16185,1,0,0:0:0:0:
256,192,16355,1,8,0:0:0:0:
256,192,16694,1,8,0:0:0:0:
256,192,16863,1,0,0:0:0:0:
256,192,17033,1,12,0:0:0:0:
256,192,17202,1,0,0:0:0:0:
256,192,17287,1,0,0:0:0:0:
256,192,17372,1,8,0:0:0:0:
256,192,17541,1,0,0:0:0:0:
256,192,17711,1,8,0:0:0:0:
256,192,17880,1,8,0:0:0:0:
256,192,17965,1,8,0:0:0:0:
256,192,18050,1,0,0:0:0:0:
256,192,18219,1,8,0:0:0:0:
256,192,18389,1,0,0:0:0:0:
256,192,18558,1,0,0:0:0:0:
256,192,18643,1,0,0:0:0:0:
256,192,18728,1,8,0:0:0:0:
256,192,18897,1,0,0:0:0:0:
256,192,19067,1,8,0:0:0:0:
256,192,19236,1,0,0:0:0:0:
256,192,19321,1,0,0:0:0:0:
256,192,19406,1,8,0:0:0:0:
256,192,19490,1,0,0:0:0:0:
256,192,19575,1,8,0:0:0:0:
256,192,19745,1,0,0:0:0:0:
256,192,20084,1,8,0:0:0:0:
256,192,20253,1,0,0:0:0:0:
256,192,20423,1,8,0:0:0:0:
256,192,20592,1,8,0:0:0:0:
256,192,20677,1,0,0:0:0:0:
256,192,20762,1,8,0:0:0:0:
256,192,21100,1,12,0:0:0:0:
256,192,21270,1,0,0:0:0:0:
256,192,21355,1,0,0:0:0:0:
256,192,21439,1,8,0:0:0:0:
256,192,21609,1,0,0:0:0:0:
256,192,21778,1,8,0:0:0:0:
256,192,21835,1,8,0:0:0:0:
256,192,21891,1,8,0:0:0:0:
256,192,21948,1,0,0:0:0:0:
256,192,22117,1,0,0:0:0:0:
256,192,22202,1,0,0:0:0:0:
256,192,22287,1,8,0:0:0:0:
256,192,22372,1,8,0:0:0:0:
256,192,22456,1,4,0:0:0:0:
256,192,22795,1,0,0:0:0:0:
256,192,22965,1,8,0:0:0:0:
256,192,23134,1,0,0:0:0:0:
256,192,23304,1,0,0:0:0:0:
256,192,23389,1,0,0:0:0:0:
256,192,23473,1,8,0:0:0:0:
256,192,23643,1,8,0:0:0:0:
256,192,23812,1,0,0:0:0:0:
256,192,23982,1,8,0:0:0:0:
256,192,24151,1,0,0:0:0:0:
256,192,24490,1,0,0:0:0:0:
256,192,24660,1,8,0:0:0:0:
256,192,24829,1,0,0:0:0:0:
256,192,24914,1,0,0:0:0:0:
256,192,24999,1,0,0:0:0:0:
256,192,25168,1,8,0:0:0:0:
256,192,25507,1,0,0:0:0:0:
256,192,25677,1,8,0:0:0:0:
256,192,25846,1,8,0:0:0:0:
256,192,26016,1,8,0:0:0:0:
256,192,26185,1,0,0:0:0:0:
256,192,26524,1,0,0:0:0:0:
256,192,26863,1,0,0:0:0:0:
256,192,27202,1,8,0:0:0:0:
256,192,27372,1,0,0:0:0:0:
256,192,27541,1,8,0:0:0:0:
256,192,27711,1,8,0:0:0:0:
256,192,27795,1,8,0:0:0:0:
256,192,27880,1,0,0:0:0:0:
256,192,28219,1,8,0:0:0:0:
256,192,28389,1,8,0:0:0:0:
256,192,28558,1,0,0:0:0:0:
256,192,28728,1,0,0:0:0:0:
256,192,28897,1,8,0:0:0:0:
256,192,28982,1,0,0:0:0:0:
256,192,29067,1,8,0:0:0:0:
256,192,29236,1,0,0:0:0:0:
256,192,29406,1,0,0:0:0:0:
256,192,29575,1,8,0:0:0:0:
256,192,29914,1,0,0:0:0:0:
256,192,29999,1,0,0:0:0:0:
256,192,30084,1,0,0:0:0:0:
256,192,30253,1,8,0:0:0:0:
256,192,30423,1,0,0:0:0:0:
256,192,30592,1,8,0:0:0:0:
256,192,30931,1,0,0:0:0:0:
256,192,31100,1,8,0:0:0:0:
256,192,31270,1,0,0:0:0:0:
256,192,31609,1,8,0:0:0:0:
256,192,31778,1,8,0:0:0:0:
256,192,31948,1,4,0:0:0:0:
256,192,32117,1,0,0:0:0:0:
256,192,32287,1,8,0:0:0:0:
256,192,32456,1,0,0:0:0:0:
256,192,32541,1,0,0:0:0:0:
256,192,32626,1,8,0:0:0:0:
256,192,32795,1,0,0:0:0:0:
256,192,32965,1,8,0:0:0:0:
256,192,33050,1,8,0:0:0:0:
256,192,33134,1,8,0:0:0:0:
256,192,33219,1,8,0:0:0:0:
256,192,33304,1,4,0:0:0:0:
256,192,33643,1,0,0:0:0:0:
256,192,33812,1,8,0:0:0:0:
256,192,33982,1,0,0:0:0:0:
256,192,34151,1,0,0:0:0:0:
256,192,34236,1,0,0:0:0:0:
256,192,34321,1,8,0:0:0:0:
256,192,34490,1,8,0:0:0:0:
256,192,34660,1,0,0:0:0:0:
256,192,34829,1,8,0:0:0:0:
256,192,34999,1,8,0:0:0:0:
256,192,35084,1,8,0:0:0:0:
256,192,35168,1,0,0:0:0:0:
256,192,35338,1,0,0:0:0:0:
256,192,35507,1,8,0:0:0:0:
256,192,35677,1,0,0:0:0:0:
256,192,35762,1,0,0:0:0:0:
256,192,35846,1,0,0:0:0:0:
256,192,36016,1,8,0:0:0:0:
256,192,36355,1,0,0:0:0:0:
256,192,36524,1,0,0:0:0:0:
256,192,36694,1,8,0:0:0:0:
256,192,36778,1,8,0:0:0:0:
256,192,36863,1,8,0:0:0:0:
256,192,37033,1,0,0:0:0:0:
256,192,37202,1,0,0:0:0:0:
256,192,37372,1,8,0:0:0:0:
256,192,37711,1,8,0:0:0:0:
256,192,37880,1,0,0:0:0:0:
256,192,38050,1,8,0:0:0:0:
256,192,38219,1,0,0:0:0:0:
256,192,38389,1,8,0:0:0:0:
256,192,38558,1,8,0:0:0:0:
256,192,38643,1,8,0:0:0:0:
256,192,38728,1,0,0:0:0:0:
256,192,39067,1,8,0:0:0:0:
256,192,39236,1,8,0:0:0:0:
256,192,39406,1,0,0:0:0:0:
256,192,39575,1,0,0:0:0:0:
256,192,39660,1,0,0:0:0:0:
256,192,39745,1,8,0:0:0:0:
256,192,39914,1,8,0:0:0:0:
256,192,40084,1,0,0:0:0:0:
256,192,40168,1,8,0:0:0:0:
256,192,40253,1,0,0:0:0:0:
256,192,40423,1,8,0:0:0:0:
256,192,40592,1,8,0:0:0:0:
256,192,40762,1,0,0:0:0:0:
256,192,40846,1,0,0:0:0:0:
256,192,40931,1,0,0:0:0:0:
256,192,41100,1,8,0:0:0:0:
256,192,41270,1,0,0:0:0:0:
256,192,41439,1,8,0:0:0:0:
256,192,41778,1,0,0:0:0:0:
256,192,41948,1,8,0:0:0:0:
256,192,42117,1,0,0:0:0:0:
256,192,42287,1,0,0:0:0:0:
256,192,42456,1,8,0:0:0:0:
256,192,42795,1,0,0:0:0:0:
256,192,42965,1,0,0:0:0:0:
256,192,43050,1,0,0:0:0:0:
256,192,43134,1,8,0:0:0:0:
256,192,43304,1,0,0:0:0:0:
256,192,43473,1,8,0:0:0:0:
256,192,43643,1,0,0:0:0:0:
256,192,43728,1,0,0:0:0:0:
256,192,43812,1,8,0:0:0:0:
256,192,43982,1,8,0:0:0:0:
256,192,44151,1,4,0:0:0:0:
256,192,44660,1,0,0:0:0:0:
256,192,44829,1,8,0:0:0:0:
256,192,45168,1,8,0:0:0:0:
256,192,45338,1,8,0:0:0:0:
256,192,45507,1,0,0:0:0:0:
256,192,45677,1,8,0:0:0:0:
256,192,45846,1,0,0:0:0:0:
256,192,46185,1,0,0:0:0:0:
256,192,46355,1,0,0:0:0:0:
256,192,46524,1,8,0:0:0:0:
256,192,46694,1,8,0:0:0:0:
256,192,46863,1,0,0:0:0:0:
256,192,47372,1,0,0:0:0:0:
256,192,47541,1,8,0:0:0:0:
256,192,47880,1,0,0:0:0:0:
256,192,48050,1,8,0:0:0:0:
256,192,48219,1,8,0:0:0:0:
256,192,48389,1,0,0:0:0:0:
256,192,48558,1,8,0:0:0:0:
256,192,48897,1,8,0:0:0:0:
256,192,49067,1,8,0:0:0:0:
256,192,49236,1,0,0:0:0:0:
256,192,49406,1,0,0:0:0:0:
256,192,49575,1,12,0:0:0:0:
256,192,49914,1,0,0:0:0:0:
256,192,50253,1,8,0:0:0:0:
256,192,50592,1,8,0:0:0:0:
256,192,50762,1,8,0:0:0:0:
256,192,50931,1,0,0:0:0:0:
256,192,51100,1,8,0:0:0:0:
256,192,51270,1,0,0:0:0:0:
256,192,51439,1,0,0:0:0:0:
256,192,51524,1,0,0:0:0:0:
256,192,51609,1,8,0:0:0:0:
256,192,51665,1,8,0:0:0:0:
256,192,51722,1,8,0:0:0:0:
256,192,51778,1,0,0:0:0:0:
256,192,51948,1,8,0:0:0:0:
256,192,52117,1,8,0:0:0:0:
256,192,52287,1,4,0:0:0:0:
256,192,52626,1,8,0:0:0:0:
256,192,52795,1,0,0:0:0:0:
256,192,52880,1,0,0:0:0:0:
256,192,52965,1,8,0:0:0:0:
256,192,53134,1,0,0:0:0:0:
256,192,53304,1,8,0:0:0:0:
256,192,53473,1,0,0:0:0:0:
256,192,53643,1,8,0:0:0:0:
256,192,53812,1,0,0:0:0:0:
256,192,53897,1,0,0:0:0:0:
256,192,53982,1,0,0:0:0:0:
256,192,54151,1,8,0:0:0:0:
256,192,54321,1,0,0:0:0:0:
256,192,54490,1,8,0:0:0:0:
256,192,54575,1,8,0:0:0:0:
256,192,54660,1,0,0:0:0:0:
256,192,54745,1,0,0:0:0:0:
256,192,54829,1,8,0:0:0:0:
256,192,54999,1,4,0:0:0:0:
256,192,55168,1,4,0:0:0:0:
256,192,55677,1,4,0:0:0:0:
256,192,55846,1,4,0:0:0:0:
256,192,56355,1,12,0:0:0:0:
256,192,56694,1,12,0:0:0:0:
256,192,57033,1,12,0:0:0:0:
256,192,57372,1,0,0:0:0:0:
256,192,57456,1,0,0:0:0:0:
256,192,57541,1,0,0:0:0:0:
256,192,57626,1,0,0:0:0:0:
256,192,57711,1,12,0:0:0:0:
256,192,57880,1,0,0:0:0:0:
256,192,57965,1,0,0:0:0:0:
256,192,58049,1,8,0:0:0:0:
256,192,58219,1,0,0:0:0:0:
256,192,58388,1,8,0:0:0:0:
256,192,58558,1,0,0:0:0:0:
256,192,58643,1,0,0:0:0:0:
256,192,58727,1,8,0:0:0:0:
256,192,58812,1,0,0:0:0:0:
256,192,58897,1,8,0:0:0:0:
256,192,59066,1,0,0:0:0:0:
256,192,59236,1,0,0:0:0:0:
256,192,59321,1,0,0:0:0:0:
256,192,59405,1,8,0:0:0:0:
256,192,59575,1,0,0:0:0:0:
256,192,59744,1,8,0:0:0:0:
256,192,59914,1,8,0:0:0:0:
256,192,59999,1,8,0:0:0:0:
256,192,60083,1,0,0:0:0:0:
256,192,60253,1,8,0:0:0:0:
256,192,60422,1,0,0:0:0:0:
256,192,60761,1,8,0:0:0:0:
256,192,60931,1,0,0:0:0:0:
256,192,61016,1,0,0:0:0:0:
256,192,61100,1,8,0:0:0:0:
256,192,61270,1,0,0:0:0:0:
256,192,61355,1,0,0:0:0:0:
256,192,61439,1,0,0:0:0:0:
256,192,61609,1,8,0:0:0:0:
256,192,61778,1,0,0:0:0:0:
256,192,61863,1,0,0:0:0:0:
256,192,61948,1,8,0:0:0:0:
256,192,62117,1,8,0:0:0:0:
256,192,62287,1,0,0:0:0:0:
256,192,62372,1,0,0:0:0:0:
256,192,62456,1,8,0:0:0:0:
256,192,62795,1,0,0:0:0:0:
256,192,62965,1,0,0:0:0:0:
256,192,63134,1,8,0:0:0:0:
256,192,63304,1,0,0:0:0:0:
256,192,63388,1,0,0:0:0:0:
256,192,63473,1,8,0:0:0:0:
256,192,63643,1,0,0:0:0:0:
256,192,63812,1,8,0:0:0:0:
256,192,63982,1,0,0:0:0:0:
256,192,64066,1,0,0:0:0:0:
256,192,64151,1,8,0:0:0:0:
256,192,64236,1,0,0:0:0:0:
256,192,64321,1,8,0:0:0:0:
256,192,64490,1,0,0:0:0:0:
256,192,64660,1,0,0:0:0:0:
256,192,64829,1,8,0:0:0:0:
256,192,64914,1,8,0:0:0:0:
256,192,64999,1,0,0:0:0:0:
256,192,65168,1,8,0:0:0:0:
256,192,65253,1,8,0:0:0:0:
256,192,65338,1,0,0:0:0:0:
256,192,65422,1,0,0:0:0:0:
256,192,65507,1,8,0:0:0:0:
256,192,65677,1,8,0:0:0:0:
256,192,65846,1,0,0:0:0:0:
256,192,66185,1,8,0:0:0:0:
256,192,66355,1,0,0:0:0:0:
256,192,66524,1,8,0:0:0:0:
256,192,66694,1,0,0:0:0:0:
256,192,66778,1,0,0:0:0:0:
256,192,66863,1,0,0:0:0:0:
256,192,67033,1,0,0:0:0:0:
256,192,67202,1,8,0:0:0:0:
256,192,67372,1,0,0:0:0:0:
256,192,67456,1,0,0:0:0:0:
256,192,67541,1,8,0:0:0:0:
256,192,67711,1,8,0:0:0:0:
256,192,67880,1,0,0:0:0:0:
256,192,68049,1,0,0:0:0:0:
256,192,68219,1,8,0:0:0:0:
256,192,68304,1,0,0:0:0:0:
256,192,68388,1,0,0:0:0:0:
256,192,68473,1,0,0:0:0:0:
256,192,68558,1,12,0:0:0:0:
256,192,68727,1,8,0:0:0:0:
256,192,68812,1,8,0:0:0:0:
256,192,68897,1,0,0:0:0:0:
256,192,69066,1,0,0:0:0:0:
256,192,69236,1,8,0:0:0:0:
256,192,69405,1,0,0:0:0:0:
256,192,69490,1,0,0:0:0:0:
256,192,69575,1,8,0:0:0:0:
256,192,69660,1,0,0:0:0:0:
256,192,69744,1,8,0:0:0:0:
256,192,69914,1,0,0:0:0:0:
256,192,70083,1,8,0:0:0:0:
256,192,70168,1,0,0:0:0:0:
256,192,70253,1,8,0:0:0:0:
256,192,70422,1,0,0:0:0:0:
256,192,70592,1,8,0:0:0:0:
256,192,70761,1,0,0:0:0:0:
256,192,70846,1,0,0:0:0:0:
256,192,70931,1,8,0:0:0:0:
256,192,71016,1,8,0:0:0:0:
256,192,71100,1,0,0:0:0:0:
256,192,71270,1,0,0:0:0:0:
256,192,71609,1,0,0:0:0:0:
256,192,71778,1,8,0:0:0:0:
256,192,71863,1,8,0:0:0:0:
256,192,71948,1,0,0:0:0:0:
256,192,72117,1,8,0:0:0:0:
256,192,72202,1,0,0:0:0:0:
256,192,72287,1,8,0:0:0:0:
256,192,72456,1,0,0:0:0:0:
256,192,72626,1,0,0:0:0:0:
256,192,72711,1,0,0:0:0:0:
256,192,72795,1,8,0:0:0:0:
256,192,72965,1,0,0:0:0:0:
256,192,73134,1,0,0:0:0:0:
256,192,73219,1,0,0:0:0:0:
256,192,73304,1,8,0:0:0:0:
256,192,73643,1,0,0:0:0:0:
256,192,73812,1,0,0:0:0:0:
256,192,73982,1,8,0:0:0:0:
256,192,74151,1,8,0:0:0:0:
256,192,74236,1,8,0:0:0:0:
256,192,74321,1,0,0:0:0:0:
256,192,74490,1,0,0:0:0:0:
256,192,74660,1,8,0:0:0:0:
256,192,74829,1,0,0:0:0:0:
256,192,74914,1,0,0:0:0:0:
256,192,74999,1,8,0:0:0:0:
256,192,75083,1,0,0:0:0:0:
256,192,75168,1,8,0:0:0:0:
256,192,75338,1,0,0:0:0:0:
256,192,75507,1,8,0:0:0:0:
256,192,75592,1,0,0:0:0:0:
256,192,75677,1,8,0:0:0:0:
256,192,75846,1,0,0:0:0:0:
256,192,76016,1,8,0:0:0:0:
256,192,76185,1,0,0:0:0:0:
256,192,76270,1,0,0:0:0:0:
256,192,76355,1,8,0:0:0:0:
256,192,76439,1,8,0:0:0:0:
256,192,76524,1,8,0:0:0:0:
256,192,76694,1,0,0:0:0:0:
256,192,77033,1,8,0:0:0:0:
256,192,77202,1,0,0:0:0:0:
256,192,77372,1,8,0:0:0:0:
256,192,77541,1,0,0:0:0:0:
256,192,77626,1,0,0:0:0:0:
256,192,77711,1,8,0:0:0:0:
256,192,77880,1,8,0:0:0:0:
256,192,78049,1,4,0:0:0:0:
256,192,78219,1,8,0:0:0:0:
256,192,78388,1,8,0:0:0:0:
256,192,78558,1,4,0:0:0:0:
256,192,78727,1,8,0:0:0:0:
256,192,78784,1,8,0:0:0:0:
256,192,78840,1,8,0:0:0:0:
256,192,78897,1,0,0:0:0:0:
256,192,78982,1,0,0:0:0:0:
256,192,79066,1,8,0:0:0:0:
256,192,79151,1,8,0:0:0:0:
256,192,79236,1,0,0:0:0:0:
256,192,79405,1,12,0:0:0:0:
256,192,79575,1,8,0:0:0:0:
256,192,79744,1,0,0:0:0:0:
256,192,79914,1,0,0:0:0:0:
256,192,79999,1,0,0:0:0:0:
256,192,80083,1,8,0:0:0:0:
256,192,80253,1,0,0:0:0:0:
256,192,80422,1,0,0:0:0:0:
256,192,80592,1,8,0:0:0:0:
256,192,80931,1,8,0:0:0:0:
256,192,81100,1,8,0:0:0:0:
256,192,81270,1,0,0:0:0:0:
256,192,81355,1,0,0:0:0:0:
256,192,81439,1,8,0:0:0:0:
256,192,81609,1,0,0:0:0:0:
256,192,81778,1,8,0:0:0:0:
256,192,82117,1,0,0:0:0:0:
256,192,82287,1,0,0:0:0:0:
256,192,82456,1,8,0:0:0:0:
256,192,82626,1,8,0:0:0:0:
256,192,82711,1,8,0:0:0:0:
256,192,82795,1,0,0:0:0:0:
256,192,82965,1,8,0:0:0:0:
256,192,83134,1,0,0:0:0:0:
256,192,83304,1,8,0:0:0:0:
256,192,83643,1,0,0:0:0:0:
256,192,83812,1,8,0:0:0:0:
256,192,83982,1,0,0:0:0:0:
256,192,84151,1,8,0:0:0:0:
256,192,84236,1,8,0:0:0:0:
256,192,84321,1,8,0:0:0:0:
256,192,84490,1,8,0:0:0:0:
256,192,84660,1,0,0:0:0:0:
256,192,84744,1,0,0:0:0:0:
256,192,84829,1,12,0:0:0:0:
256,192,84999,1,8,0:0:0:0:
256,192,85168,1,0,0:0:0:0:
256,192,85338,1,0,0:0:0:0:
256,192,85422,1,0,0:0:0:0:
256,192,85507,1,8,0:0:0:0:
256,192,85677,1,0,0:0:0:0:
256,192,85846,1,0,0:0:0:0:
256,192,86016,1,8,0:0:0:0:
256,192,86355,1,8,0:0:0:0:
256,192,86524,1,8,0:0:0:0:
256,192,86694,1,0,0:0:0:0:
256,192,86778,1,0,0:0:0:0:
256,192,86863,1,8,0:0:0:0:
256,192,87033,1,0,0:0:0:0:
256,192,87202,1,8,0:0:0:0:
256,192,87541,1,0,0:0:0:0:
256,192,87711,1,0,0:0:0:0:
256,192,87880,1,8,0:0:0:0:
256,192,88049,1,8,0:0:0:0:
256,192,88134,1,8,0:0:0:0:
256,192,88219,1,0,0:0:0:0:
256,192,88388,1,8,0:0:0:0:
256,192,88558,1,0,0:0:0:0:
256,192,88727,1,8,0:0:0:0:
256,192,89066,1,0,0:0:0:0:
256,192,89236,1,8,0:0:0:0:
256,192,89405,1,0,0:0:0:0:
256,192,89575,1,8,0:0:0:0:
256,192,89660,1,8,0:0:0:0:
256,192,89744,1,8,0:0:0:0:
256,192,89829,1,8,0:0:0:0:
256,192,89914,1,0,0:0:0:0:
256,192,89999,1,0,0:0:0:0:
256,192,90083,1,0,0:0:0:0:
256,192,90168,1,0,0:0:0:0:
256,192,90253,1,12,0:0:0:0:
256,192,90422,1,8,0:0:0:0:
256,192,90507,1,8,0:0:0:0:
256,192,90592,1,0,0:0:0:0:
256,192,90761,1,0,0:0:0:0:
256,192,90846,1,0,0:0:0:0:
256,192,90931,1,8,0:0:0:0:
256,192,91100,1,0,0:0:0:0:
256,192,91270,1,0,0:0:0:0:
256,192,91355,1,0,0:0:0:0:
256,192,91439,1,8,0:0:0:0:
256,192,91609,1,0,0:0:0:0:
256,192,91778,1,8,0:0:0:0:
256,192,91863,1,8,0:0:0:0:
256,192,91948,1,8,0:0:0:0:
256,192,92117,1,0,0:0:0:0:
256,192,92202,1,0,0:0:0:0:
256,192,92287,1,8,0:0:0:0:
256,192,92456,1,0,0:0:0:0:
256,192,92626,1,8,0:0:0:0:
256,192,92965,1,0,0:0:0:0:
256,192,93134,1,0,0:0:0:0:
256,192,93219,1,0,0:0:0:0:
256,192,93304,1,8,0:0:0:0:
256,192,93473,1,8,0:0:0:0:
256,192,93558,1,8,0:0:0:0:
256,192,93643,1,0,0:0:0:0:
256,192,93812,1,8,0:0:0:0:
256,192,93982,1,0,0:0:0:0:
256,192,94151,1,8,0:0:0:0:
256,192,94236,1,8,0:0:0:0:
256,192,94321,1,8,0:0:0:0:
256,192,94490,1,0,0:0:0:0:
256,192,94660,1,8,0:0:0:0:
256,192,94744,1,8,0:0:0:0:
256,192,94829,1,0,0:0:0:0:
256,192,94999,1,8,0:0:0:0:
256,192,95168,1,0,0:0:0:0:
256,192,95253,1,0,0:0:0:0:
256,192,95338,1,8,0:0:0:0:
256,192,95677,1,8,0:0:0:0:
256,192,95846,1,8,0:0:0:0:
256,192,95931,1,8,0:0:0:0:
256,192,96016,1,0,0:0:0:0:
256,192,96185,1,8,0:0:0:0:
256,192,96270,1,0,0:0:0:0:
256,192,96355,1,8,0:0:0:0:
256,192,96524,1,0,0:0:0:0:
256,192,96694,1,0,0:0:0:0:
256,192,96778,1,0,0:0:0:0:
256,192,96863,1,8,0:0:0:0:
256,192,97033,1,8,0:0:0:0:
256,192,97202,1,0,0:0:0:0:
256,192,97287,1,0,0:0:0:0:
256,192,97372,1,8,0:0:0:0:
256,192,97541,1,8,0:0:0:0:
256,192,97711,1,0,0:0:0:0:
256,192,97795,1,0,0:0:0:0:
256,192,97880,1,8,0:0:0:0:
256,192,98049,1,8,0:0:0:0:
256,192,98219,1,0,0:0:0:0:
256,192,98304,1,0,0:0:0:0:
256,192,98388,1,8,0:0:0:0:
256,192,98558,1,8,0:0:0:0:
256,192,98727,1,0,0:0:0:0:
256,192,98812,1,0,0:0:0:0:
256,192,98897,1,8,0:0:0:0:
256,192,99066,1,0,0:0:0:0:
256,192,99151,1,0,0:0:0:0:
256,192,99236,1,8,0:0:0:0:
256,192,99321,1,8,0:0:0:0:
256,192,99405,1,0,0:0:0:0:
256,192,99575,1,8,0:0:0:0:
256,192,99914,1,0,0:0:0:0:
256,192,100083,1,8,0:0:0:0:
256,192,100253,1,0,0:0:0:0:
256,192,100422,1,8,0:0:0:0:
256,192,100507,1,8,0:0:0:0:
256,192,100592,1,0,0:0:0:0:
256,192,100677,1,0,0:0:0:0:
256,192,100761,1,0,0:0:0:0:
256,192,100931,1,12,0:0:0:0:
256,192,101948,1,0,0:0:0:0:
256,192,102033,1,0,0:0:0:0:
256,192,102117,1,8,0:0:0:0:
256,192,102174,1,8,0:0:0:0:
256,192,102230,1,8,0:0:0:0:
256,192,102287,1,0,0:0:0:0:
256,192,102456,1,12,0:0:0:0:
256,192,102625,1,0,0:0:0:0:
256,192,102710,1,0,0:0:0:0:
256,192,102794,1,8,0:0:0:0:
256,192,102964,1,0,0:0:0:0:
256,192,103133,1,8,0:0:0:0:
256,192,103303,1,8,0:0:0:0:
256,192,103388,1,8,0:0:0:0:
256,192,103472,1,0,0:0:0:0:
256,192,103642,1,8,0:0:0:0:
256,192,103811,1,0,0:0:0:0:
256,192,103981,1,0,0:0:0:0:
256,192,104066,1,0,0:0:0:0:
256,192,104150,1,8,0:0:0:0:
256,192,104320,1,0,0:0:0:0:
256,192,104489,1,8,0:0:0:0:
256,192,104659,1,0,0:0:0:0:
256,192,104744,1,0,0:0:0:0:
256,192,104828,1,8,0:0:0:0:
256,192,104913,1,0,0:0:0:0:
256,192,104998,1,8,0:0:0:0:
256,192,105167,1,0,0:0:0:0:
256,192,105506,1,8,0:0:0:0:
256,192,105676,1,0,0:0:0:0:
256,192,105761,1,0,0:0:0:0:
256,192,105845,1,8,0:0:0:0:
256,192,106184,1,0,0:0:0:0:
256,192,106354,1,8,0:0:0:0:
256,192,106439,1,8,0:0:0:0:
256,192,106523,1,8,0:0:0:0:
256,192,106693,1,8,0:0:0:0:
256,192,106862,1,0,0:0:0:0:
256,192,106947,1,0,0:0:0:0:
256,192,107032,1,0,0:0:0:0:
256,192,107201,1,8,0:0:0:0:
256,192,107371,1,0,0:0:0:0:
256,192,107456,1,0,0:0:0:0:
256,192,107540,1,8,0:0:0:0:
256,192,107625,1,8,0:0:0:0:
256,192,107710,1,0,0:0:0:0:
256,192,107794,1,0,0:0:0:0:
256,192,107879,1,12,0:0:0:0:
256,192,108049,1,0,0:0:0:0:
256,192,108133,1,0,0:0:0:0:
256,192,108218,1,8,0:0:0:0:
256,192,108388,1,8,0:0:0:0:
256,192,108472,1,0,0:0:0:0:
256,192,108557,1,8,0:0:0:0:
256,192,108727,1,8,0:0:0:0:
256,192,108811,1,8,0:0:0:0:
256,192,108896,1,0,0:0:0:0:
256,192,109066,1,8,0:0:0:0:
256,192,109235,1,0,0:0:0:0:
256,192,109405,1,0,0:0:0:0:
256,192,109489,1,0,0:0:0:0:
256,192,109574,1,8,0:0:0:0:
256,192,109744,1,0,0:0:0:0:
256,192,109913,1,8,0:0:0:0:
256,192,110083,1,8,0:0:0:0:
256,192,110139,1,8,0:0:0:0:
256,192,110196,1,8,0:0:0:0:
256,192,110252,1,0,0:0:0:0:
256,192,110422,1,8,0:0:0:0:
256,192,110591,1,4,0:0:0:0:
256,192,110930,1,8,0:0:0:0:
256,192,111100,1,0,0:0:0:0:
256,192,111269,1,8,0:0:0:0:
256,192,111439,1,8,0:0:0:0:
256,192,111523,1,0,0:0:0:0:
256,192,111608,1,8,0:0:0:0:
256,192,111778,1,0,0:0:0:0:
256,192,111947,1,8,0:0:0:0:
256,192,112117,1,0,0:0:0:0:
256,192,112201,1,0,0:0:0:0:
256,192,112286,1,8,0:0:0:0:
256,192,112456,1,8,0:0:0:0:
256,192,112625,1,0,0:0:0:0:
256,192,112710,1,0,0:0:0:0:
256,192,112794,1,0,0:0:0:0:
256,192,112879,1,0,0:0:0:0:
256,192,112964,1,12,0:0:0:0:
