osu file format v14

[General]
AudioFilename: audio.mp3
AudioLeadIn: 0
PreviewTime: 56401
Countdown: 0
SampleSet: Soft
StackLeniency: 0.5
Mode: 0
LetterboxInBreaks: 0
WidescreenStoryboard: 0

[Editor]
Bookmarks: 6231,22502,57757,79452
DistanceSpacing: 1
BeatDivisor: 4
GridSize: 32
TimelineZoom: 2.4

[Metadata]
Title:Seishun Mode! Mou Ikkai!!
TitleUnicode:青春モード!もう1回!!
Artist:Honma Himawari
ArtistUnicode:本間ひまわり
Creator:Yugu
Version:Sunny Day!
Source:
Tags:honhima 本ひま gamers ゲーマーズ HoneyWorks smash the paint!! vtuber virtual youtuber バーチャルyoutuber にじさんじ 2434 japanese pop jpop
BeatmapID:2319274
BeatmapSetID:1109861

[Difficulty]
HPDrainRate:6.2
CircleSize:4
OverallDifficulty:8.2
ApproachRate:9
SliderMultiplier:1.6
SliderTickRate:1

[Events]
//Background and Video events
0,0,"75736413_p0.jpg",0,0
//Break Periods
//Storyboard Layer 0 (Background)
//Storyboard Layer 1 (Fail)
//Storyboard Layer 2 (Pass)
//Storyboard Layer 3 (Foreground)
//Storyboard Layer 4 (Overlay)
//Storyboard Sound Samples

[TimingPoints]
762,338.983050847458,4,2,1,30,1,0
762,-133.333333333333,4,2,1,30,0,0
6185,-117.647058823529,4,2,1,40,0,0
8897,-117.647058823529,4,2,1,45,0,0
9236,-117.647058823529,4,2,1,50,0,0
9575,-117.647058823529,4,2,1,55,0,0
9914,-117.647058823529,4,2,1,60,0,0
11270,-66.6666666666667,4,2,1,60,0,0
11609,-83.3333333333333,4,2,1,80,0,0
22456,-111.111111111111,4,2,1,60,0,0
33304,-100,4,2,1,60,0,0
44151,-133.333333333333,4,2,1,50,0,0
52287,-133.333333333333,4,2,1,60,0,0
55338,-250,4,2,1,60,0,0
56355,-66.6666666666667,4,2,1,80,0,0
57711,-83.3333333333333,4,2,1,90,0,0
79406,-100,4,2,1,70,0,0
90253,-100,4,2,1,80,0,0
101948,-117.647058823529,4,2,1,60,0,0
102117,-83.3333333333333,4,2,1,60,0,0
102456,-83.3333333333333,4,2,1,80,0,0

[Colours]
Combo1 : 201,254,148
Combo2 : 251,227,64

[HitObjects]
329,132,762,6,0,L|322:192,1,60.0000022888184,2|2,0:0|0:0,0:0:0:0:
182,132,1100,2,0,L|190:192,1,60.0000022888184,2|2,0:0|0:0,0:0:0:0:
256,0,1439,2,0,L|256:128,1,120.000004577637,2|0,0:0|0:0,0:0:0:0:
199,266,1948,6,0,P|139:264|90:231,1,120.000004577637,2|2,0:0|0:0,0:0:0:0:
256,384,2456,2,0,L|256:324,1,60.0000022888184,2|2,0:0|0:0,0:0:0:0:
313,266,2795,2,0,P|372:264|421:231,1,120.000004577637,2|0,0:0|0:0,0:0:0:0:
163,87,3473,6,0,P|165:57|175:29,1,60.0000022888184,2|2,0:0|0:0,0:0:0:0:
348,86,3812,2,0,P|346:57|336:29,1,60.0000022888184,2|2,0:0|0:0,0:0:0:0:
256,200,4151,2,0,L|256:80,1,120.000004577637,2|0,0:0|0:0,0:0:0:0:
312,261,4660,5,2,0:0:0:0:
256,322,4829,1,0,0:0:0:0:
200,261,4999,2,0,L|132:247,1,60.0000022888184,2|2,0:0|0:0,0:0:0:0:
312,261,5338,2,0,L|380:247,1,60.0000022888184,2|2,0:0|0:0,0:0:0:0:
494,192,5677,1,2,3:2:0:0:
500,192,5762,1,0,3:0:0:0:
506,192,5846,1,0,3:0:0:0:
334,30,6185,6,0,P|317:60|309:93,1,68.0000012969971,10|0,0:0|0:0,0:0:0:0:
202,93,6524,2,0,P|194:60|177:30,1,68.0000012969971,8|0,0:0|0:0,0:0:0:0:
309,192,6863,2,0,P|256:227|202:192,1,136.000002593994,8|8,0:0|0:0,0:0:0:0:
87,274,7372,1,2,0:0:0:0:
87,274,7541,6,0,P|119:282|147:301,1,68.0000012969971,8|0,0:0|0:0,0:0:0:0:
364,300,7880,2,0,P|392:281|425:274,1,68.0000012969971,8|0,0:0|0:0,0:0:0:0:
256,384,8219,1,8,0:0:0:0:
256,384,8389,2,0,L|256:224,1,136.000002593994
215,37,8897,5,2,1:2:0:0:
174,108,9067,1,0,1:0:0:0:
337,108,9236,5,0,1:0:0:0:
296,37,9406,1,0,1:0:0:0:
215,178,9575,5,0,1:0:0:0:
296,178,9745,1,0,1:0:0:0:
87,82,9914,5,0,1:0:0:0:
424,134,10084,1,0,1:0:0:0:
424,134,11100,2,0,L|427:88,1,34.0000006484985,8|8,0:0|0:0,0:0:0:0:
465,64,11270,6,0,P|503:141|452:209,1,180.000006866455,0|0,1:0|0:0,0:0:0:0:
390,255,11609,6,0,L|231:239,1,143.999995605469,14|0,0:0|0:0,0:0:0:0:
246,240,11948,1,0,1:0:0:0:
309,336,12117,1,8,0:0:0:0:
328,159,12287,1,2,1:2:0:0:
390,255,12456,1,8,0:0:0:0:
465,64,12626,5,0,1:0:0:0:
465,64,12795,2,0,P|479:109|467:155,1,95.9999970703126,8|2,0:0|1:2,0:0:0:0:
245,143,13134,1,0,0:0:0:0:
245,143,13304,2,0,P|243:72|287:17,1,143.999995605469,0|0,1:0|0:0,0:0:0:0:
286,17,13643,2,0,L|191:25,1,95.9999970703126,0|10,1:0|0:0,0:0:0:0:
121,189,13982,1,0,1:0:0:0:
16,27,14151,5,8,0:0:0:0:
16,27,14321,2,0,L|37:177,1,143.999995605469,2|0,1:2|0:0,0:0:0:0:
19,199,14660,1,0,1:0:0:0:
232,102,14829,1,8,0:0:0:0:
232,102,14999,2,0,L|211:252,1,143.999995605469,2|0,1:2|0:0,0:0:0:0:
229,274,15338,1,0,1:0:0:0:
340,237,15507,6,0,P|345:284|331:333,1,95.9999970703126,8|2,0:0|1:2,0:0:0:0:
206,368,15846,1,0,0:0:0:0:
20,309,16016,1,0,1:0:0:0:
20,309,16355,5,2,1:2:0:0:
113,289,16524,1,10,0:0:0:0:
93,196,16694,1,2,1:2:0:0:
0,216,16863,1,10,0:0:0:0:
235,314,17033,6,0,P|296:279|323:214,1,143.999995605469,6|0,1:2|0:0,0:0:0:0:
323,214,17372,1,0,1:0:0:0:
303,101,17541,1,8,0:0:0:0:
437,7,17711,1,2,1:2:0:0:
417,121,17880,1,8,0:0:0:0:
248,32,18050,5,0,1:0:0:0:
248,32,18219,2,0,P|220:69|214:116,1,95.9999970703126,8|2,0:0|1:2,0:0:0:0:
25,213,18558,1,0,0:0:0:0:
25,213,18728,2,0,L|203:200,1,143.999995605469,0|0,1:0|0:0,0:0:0:0:
169,202,19067,2,0,P|197:239|203:286,1,95.9999970703126,2|8,1:2|0:0,0:0:0:0:
98,362,19406,1,0,1:0:0:0:
303,332,19575,1,8,0:0:0:0:
303,332,19745,5,2,1:2:0:0:
326,219,19914,1,0,0:0:0:0:
209,52,20084,5,0,1:0:0:0:
186,165,20253,1,8,0:0:0:0:
396,145,20423,5,2,1:2:0:0:
283,122,20592,1,8,0:0:0:0:
116,239,20762,5,0,1:0:0:0:
229,262,20931,1,8,0:0:0:0:
111,94,21100,6,0,P|64:97|21:119,1,95.9999970703126,6|8,1:2|0:0,0:0:0:0:
229,262,21439,2,0,P|276:259|319:237,1,95.9999970703126,0|8,1:0|0:0,0:0:0:0:
354,167,21694,1,8,2:3:0:0:
354,167,21778,2,0,L|424:162,1,47.9999985351563,2|0,1:2|0:0,0:0:0:0:
470,225,21948,2,0,L|465:295,1,47.9999985351563,8|0,2:3|0:0,0:0:0:0:
294,106,22117,1,0,1:0:0:0:
305,70,22202,1,0,1:0:0:0:
330,41,22287,1,8,2:3:0:0:
364,24,22372,1,8,2:3:0:0:
402,22,22456,6,0,L|495:32,2,71.9999978027344,14|0|8,0:0|0:0|0:0,0:0:0:0:
226,42,22965,1,0,0:0:0:0:
226,42,23134,2,0,L|133:51,1,71.9999978027344,8|0,0:0|0:0,0:0:0:0:
51,22,23473,1,8,0:0:0:0:
154,49,23643,1,0,0:0:0:0:
51,22,23812,6,0,L|60:114,1,71.9999978027344,8|0,0:0|0:0,0:0:0:0:
141,133,24151,2,0,P|134:168|118:200,1,71.9999978027344,8|0,0:0|0:0,0:0:0:0:
78,338,24490,2,0,L|-2:327,1,71.9999978027344,8|0,0:0|0:0,0:0:0:0:
168,296,24829,2,0,L|248:285,1,71.9999978027344,8|0,0:0|0:0,0:0:0:0:
406,308,25168,6,0,P|422:351|421:382,2,71.9999978027344,10|0|8,0:0|0:0|0:0,0:0:0:0:
338,238,25677,1,0,0:0:0:0:
338,238,25846,2,0,P|339:202|353:169,1,71.9999978027344,8|0,0:0|0:0,0:0:0:0:
499,98,26185,2,0,P|467:114|431:118,1,71.9999978027344,8|0,0:0|0:0,0:0:0:0:
298,29,26524,6,0,P|328:48|349:77,1,71.9999978027344,8|0,0:0|0:0,0:0:0:0:
259,145,26863,2,0,L|156:131,1,71.9999978027344,8|0,0:0|0:0,0:0:0:0:
59,18,27202,2,0,P|55:53|58:89,1,71.9999978027344,8|0,0:0|0:0,0:0:0:0:
126,251,27541,2,0,P|128:215|124:179,1,71.9999978027344,8|0,0:0|0:0,0:0:0:0:
226,38,27880,6,0,L|298:29,1,71.9999978027344,10|2,0:0|0:0,0:0:0:0:
343,160,28219,2,0,L|332:248,1,71.9999978027344,10|0,0:0|0:0,0:0:0:0:
233,290,28558,2,0,L|244:378,1,71.9999978027344,8|0,0:0|0:0,0:0:0:0:
336,311,28897,1,10,0:0:0:0:
233,290,29067,1,0,0:0:0:0:
336,311,29236,6,0,L|414:300,1,71.9999978027344,10|2,0:0|0:0,0:0:0:0:
435,191,29575,2,0,L|513:180,1,71.9999978027344,10|2,0:0|0:0,0:0:0:0:
357,35,29914,2,0,P|336:63|326:98,1,71.9999978027344,10|2,0:0|0:0,0:0:0:0:
154,35,30253,2,0,P|175:63|185:98,1,71.9999978027344,10|2,0:0|0:0,0:0:0:0:
77,191,30592,6,0,L|-1:180,2,71.9999978027344,8|0|10,0:0|0:0|0:0,0:0:0:0:
176,311,31100,1,0,0:0:0:0:
176,311,31270,2,0,L|98:300,2,71.9999978027344,8|2|8,0:0|0:0|0:0,0:0:0:0:
256,256,31778,1,0,0:0:0:0:
406,384,31948,5,14,0:0:0:0:
406,384,32117,1,8,0:0:0:0:
442,191,32287,1,0,1:0:0:0:
406,384,32456,1,2,0:0:0:0:
406,384,32541,1,2,1:2:0:0:
406,384,32626,2,0,P|402:330|421:280,1,107.999996704102,10|0,0:0|0:0,0:0:0:0:
466,265,32965,5,0,1:0:0:0:
419,266,33050,1,0,1:0:0:0:
380,239,33134,1,0,1:0:0:0:
363,195,33219,1,0,1:0:0:0:
374,148,33304,6,0,L|514:138,1,120,14|0,0:0|0:0,0:0:0:0:
511,103,33643,1,8,2:1:0:0:
362,44,33812,1,2,0:0:0:0:
280,50,33982,2,0,P|271:88|281:126,1,80,10|0,0:0|0:0,0:0:0:0:
270,280,34321,1,8,2:1:0:0:
188,273,34490,6,0,P|178:234|188:196,2,80,2|10|2,0:0|0:0|0:0,0:0:0:0:
360,361,34999,2,0,L|448:371,1,80,8|2,2:1|0:0,0:0:0:0:
472,301,35253,1,0,0:0:0:0:
472,301,35338,2,0,L|344:286,1,120,8|0,0:0|0:0,0:0:0:0:
318,263,35677,2,0,P|308:225|318:187,1,80,8|2,2:1|0:0,0:0:0:0:
445,77,36016,6,0,L|317:62,1,120,10|0,0:0|0:0,0:0:0:0:
285,58,36355,1,8,2:1:0:0:
139,120,36524,1,2,0:0:0:0:
58,109,36694,2,0,P|58:70|77:35,1,80,10|2,0:0|0:0,0:0:0:0:
200,174,37033,2,0,P|218:208|218:248,1,80,8|2,2:1|0:0,0:0:0:0:
121,324,37372,5,10,0:0:0:0:
35,218,37541,1,2,0:0:0:0:
131,228,37711,1,8,2:1:0:0:
25,314,37880,1,2,0:0:0:0:
203,286,38050,2,0,P|261:298|314:326,1,120,8|0,0:0|0:0,0:0:0:0:
338,358,38389,2,0,L|349:267,1,80,8|0,2:1|0:0,0:0:0:0:
366,119,38728,6,0,L|281:154,1,80,10|0,0:0|0:0,0:0:0:0:
146,215,39067,2,0,L|219:270,1,80,8|2,2:1|0:0,0:0:0:0:
203,39,39406,2,0,P|150:65|106:106,1,120,8|0,0:0|0:0,0:0:0:0:
97,145,39745,1,8,2:1:0:0:
23,25,39914,1,0,0:0:0:0:
30,260,40084,6,0,L|22:181,1,80,10|0,0:0|0:0,0:0:0:0:
175,164,40423,2,0,L|183:243,1,80,8|2,2:1|0:0,0:0:0:0:
275,382,40762,2,0,P|295:326|284:268,1,120,8|0,0:0|0:0,0:0:0:0:
262,234,41100,2,0,L|182:243,1,80,8|0,2:1|0:0,0:0:0:0:
2,301,41439,6,0,L|129:315,1,120,14|0,0:0|0:0,0:0:0:0:
161,318,41778,1,8,2:1:0:0:
161,318,41948,1,2,0:0:0:0:
120,196,42117,1,10,0:0:0:0:
25,205,42287,1,2,0:0:0:0:
237,373,42456,1,8,2:1:0:0:
246,278,42626,1,2,0:0:0:0:
393,352,42795,6,0,P|451:343|492:301,1,120,14|0,0:0|0:0,0:0:0:0:
479,263,43134,2,0,L|345:240,1,120,8|0,2:1|0:0,0:0:0:0:
312,183,43473,1,10,0:0:0:0:
468,74,43643,1,0,1:0:0:0:
461,113,43728,1,0,1:0:0:0:
454,152,43812,1,8,2:3:0:0:
269,73,43982,1,8,2:3:0:0:
340,38,44151,6,0,P|216:13|199:110,1,240.000009155274,14|2,0:0|1:2,0:0:0:0:
80,196,45168,1,2,0:0:0:0:
80,196,45338,1,2,0:0:0:0:
80,196,45507,6,0,L|151:212,1,60.0000022888184,10|0,0:0|1:0,0:0:0:0:
267,184,45846,2,0,L|218:237,1,60.0000022888184,10|0,0:0|0:0,0:0:0:0:
184,351,46185,2,0,L|162:282,1,60.0000022888184,2|2,1:2|2:3,0:0:0:0:
18,248,46524,1,2,2:3:0:0:
18,248,46694,1,2,1:3:0:0:
80,196,46863,6,0,B|123:109|60:53|60:53|3:125,1,240.000009155274,10|2,0:0|1:2,0:0:0:0:
8,117,47711,1,0,0:0:0:0:
176,142,47880,1,2,0:0:0:0:
176,142,48050,1,2,0:0:0:0:
260,91,48219,6,0,L|266:30,2,60.0000022888184,10|0|10,0:0|1:0|0:0,0:0:0:0:
306,287,48897,2,0,L|301:228,1,60.0000022888184,2|2,1:2|2:3,0:0:0:0:
413,156,49236,1,2,2:3:0:0:
413,156,49406,1,2,1:3:0:0:
491,173,49575,6,0,B|485:248|435:274|435:274|382:300|375:371,1,240.000009155274,14|2,0:0|1:2,0:0:0:0:
214,268,50592,1,2,0:0:0:0:
214,268,50762,1,2,0:0:0:0:
214,268,50931,6,0,L|139:258,1,60.0000022888184,10|0,0:0|1:0,0:0:0:0:
101,195,51270,1,8,0:0:0:0:
38,337,51439,1,0,1:0:0:0:
38,337,51524,1,0,1:0:0:0:
38,337,51609,1,0,1:0:0:0:
101,195,51778,1,0,1:0:0:0:
38,337,51948,1,0,1:0:0:0:
101,195,52117,1,0,1:0:0:0:
193,321,52287,5,14,0:0:0:0:
193,321,52456,1,2,0:0:0:0:
385,255,52626,1,2,1:2:0:0:
385,255,52795,1,10,0:0:0:0:
319,63,52965,1,10,0:0:0:0:
319,63,53134,1,2,0:0:0:0:
127,129,53304,1,2,1:2:0:0:
127,129,53473,1,10,0:0:0:0:
291,261,53643,5,2,0:0:0:0:
291,261,53812,1,10,0:0:0:0:
327,156,53982,1,2,1:2:0:0:
327,156,54151,1,2,0:0:0:0:
221,120,54321,1,10,0:0:0:0:
221,120,54490,1,10,0:0:0:0:
186,226,54660,1,2,1:2:0:0:
186,226,54829,1,2,0:0:0:0:
338,339,54999,5,0,1:0:0:0:
403,110,55168,1,0,1:0:0:0:
426,285,55338,2,2,L|420:237,1,48,2|0,2:1|0:0,0:1:0:0:
490,199,55677,5,0,1:0:0:0:
259,128,55846,1,0,1:0:0:0:
403,110,56016,2,2,L|371:114,1,32,2|8,2:1|0:0,0:1:0:0:
338,43,56270,1,8,0:0:0:0:
338,43,56355,6,0,L|204:26,1,120.000004577637,4|0,1:2|0:0,0:0:0:0:
372,193,56694,2,0,L|238:176,1,120.000004577637,4|0,1:2|0:0,0:0:0:0:
406,343,57033,2,0,L|242:322,1,120.000004577637,4|0,1:2|0:0,0:0:0:0:
474,35,57372,5,0,1:0:0:0:
476,94,57456,1,0,1:0:0:0:
479,154,57541,1,0,1:0:0:0:
481,214,57626,1,0,1:0:0:0:
484,274,57711,6,0,L|320:253,1,143.999995605469,14|0,0:0|0:0,0:0:0:0:
287,200,58050,2,0,L|123:221,1,143.999995605469,0|0,1:0|0:0,0:0:0:0:
94,277,58389,2,0,L|-20:262,1,95.9999970703126,2|10,1:2|0:0,0:0:0:0:
96,87,58728,1,0,1:0:0:0:
154,330,58897,1,8,0:0:0:0:
154,330,59067,6,0,L|268:315,1,95.9999970703126,2|2,1:2|0:0,0:0:0:0:
420,369,59406,2,0,P|432:298|413:229,1,143.999995605469,2|0,1:2|0:0,0:0:0:0:
349,188,59745,1,2,1:2:0:0:
507,261,59914,1,8,0:0:0:0:
492,88,60084,1,0,1:0:0:0:
349,188,60253,1,10,0:0:0:0:
413,0,60423,6,0,P|401:69|420:138,1,143.999995605469,2|0,1:2|0:0,0:0:0:0:
486,176,60762,1,0,1:0:0:0:
413,0,60931,1,10,0:0:0:0:
249,67,61100,2,0,L|89:43,1,143.999995605469,2|0,1:2|0:0,0:0:0:0:
30,35,61439,1,2,1:2:0:0:
95,245,61609,1,8,0:0:0:0:
95,245,61778,6,0,P|111:201|115:153,1,95.9999970703126,2|2,1:2|0:0,0:0:0:0:
0,273,62117,2,0,P|3:320|20:365,1,95.9999970703126,2|8,1:2|0:0,0:0:0:0:
211,190,62456,1,2,1:2:0:0:
180,368,62626,1,8,0:0:0:0:
164,101,62795,1,0,1:0:0:0:
195,279,62965,1,8,0:0:0:0:
317,30,63134,6,0,P|318:107|306:187,1,143.999995605469,2|0,1:2|0:0,0:0:0:0:
248,220,63473,2,0,P|247:297|259:377,1,143.999995605469,0|0,1:0|0:0,0:0:0:0:
332,366,63812,2,0,P|341:319|341:272,1,95.9999970703126,2|10,1:2|0:0,0:0:0:0:
194,142,64151,1,0,1:0:0:0:
389,209,64321,1,2,0:0:0:0:
389,209,64490,6,0,P|434:193|475:169,1,95.9999970703126,0|10,1:0|0:0,0:0:0:0:
320,2,64829,2,0,P|311:73|320:144,1,143.999995605469,2|0,1:2|0:0,0:0:0:0:
392,118,65168,1,2,1:2:0:0:
182,103,65338,1,8,0:0:0:0:
262,219,65507,1,0,1:0:0:0:
208,22,65677,1,2,0:0:0:0:
87,174,65846,6,0,P|39:169|0:144,1,95.9999970703126,2|8,1:2|0:0,0:0:0:0:
208,22,66185,2,0,L|215:126,1,95.9999970703126,2|8,1:2|0:0,0:0:0:0:
285,235,66524,2,0,P|332:230|372:205,1,95.9999970703126,2|8,1:2|0:0,0:0:0:0:
500,69,66863,2,0,L|396:58,1,95.9999970703126,2|0,1:2|0:0,0:0:0:0:
301,151,67202,5,2,1:2:0:0:
491,199,67372,1,8,0:0:0:0:
376,56,67541,1,0,1:0:0:0:
394,297,67711,1,8,0:0:0:0:
509,183,67880,1,2,1:2:0:0:
220,229,68050,1,8,0:0:0:0:
455,347,68219,5,0,1:0:0:0:
471,302,68303,1,0,1:0:0:0:
460,256,68388,1,0,1:0:0:0:
424,225,68473,1,0,1:0:0:0:
378,219,68558,6,0,L|202:241,1,143.999995605469,14|0,0:0|0:0,0:0:0:0:
173,282,68897,2,0,P|101:277|50:198,1,143.999995605469,2|0,1:2|0:0,0:0:0:0:
5,167,69236,2,0,L|32:50,1,95.9999970703126,0|8,1:0|0:0,0:0:0:0:
194,27,69575,1,0,1:0:0:0:
296,187,69745,1,8,0:0:0:0:
296,187,69914,6,0,L|285:79,1,95.9999970703126,0|2,1:0|0:0,0:0:0:0:
173,282,70253,2,0,P|212:339|281:349,1,143.999995605469,2|0,1:2|0:0,0:0:0:0:
335,294,70592,1,2,1:2:0:0:
383,166,70762,1,10,0:0:0:0:
209,208,70931,1,2,1:2:0:0:
451,294,71101,1,10,0:0:0:0:
460,92,71270,6,0,P|391:71|320:81,1,143.999995605469,2|0,1:2|0:0,0:0:0:0:
260,128,71609,1,0,1:0:0:0:
355,0,71778,1,8,0:0:0:0:
204,65,71948,2,0,P|135:85|64:75,1,143.999995605469,2|0,1:2|0:0,0:0:0:0:
4,29,72287,1,0,1:0:0:0:
121,164,72456,1,10,0:0:0:0:
121,164,72626,6,0,L|112:280,1,95.9999970703126,0|2,1:0|0:0,0:0:0:0:
28,367,72965,2,0,L|20:271,1,95.9999970703126,2|8,1:2|0:0,0:0:0:0:
211,190,73303,1,2,1:2:0:0:
295,332,73473,1,8,0:0:0:0:
347,147,73642,1,0,1:0:0:0:
212,285,73812,1,8,0:0:0:0:
436,178,73982,6,0,P|452:247|435:316,1,143.999995605469,2|0,1:2|0:0,0:0:0:0:
382,373,74321,2,0,L|222:359,1,143.999995605469,0|0,1:0|0:0,0:0:0:0:
162,343,74660,2,0,P|138:303|140:255,1,95.9999970703126,2|10,1:2|0:0,0:0:0:0:
211,190,74998,1,0,1:0:0:0:
14,260,75168,1,2,0:0:0:0:
14,260,75338,6,0,P|37:218|79:196,1,95.9999970703126,0|8,1:0|0:0,0:0:0:0:
27,38,75677,2,0,P|71:93|138:117,1,143.999995605469,0|0,1:0|0:0,0:0:0:0:
213,108,76016,1,2,1:2:0:0:
162,343,76185,1,8,0:0:0:0:
79,196,76354,1,0,1:0:0:0:
296,255,76524,1,0,0:0:0:0:
401,117,76694,6,0,P|402:164|394:212,1,95.9999970703126,2|8,1:2|0:0,0:0:0:0:
180,313,77033,2,0,L|66:305,1,95.9999970703126,0|8,1:0|0:0,0:0:0:0:
214,184,77372,2,0,P|276:212|307:250,1,95.9999970703126,0|8,1:0|0:0,0:0:0:0:
432,353,77711,2,0,P|475:334|509:300,1,95.9999970703126,0|0,1:0|0:0,0:0:0:0:
491,103,78050,5,6,1:2:0:0:
426,194,78219,1,8,0:0:0:0:
426,194,78389,1,8,0:0:0:0:
391,31,78558,1,0,1:0:0:0:
263,152,78728,5,0,1:0:0:0:
216,148,78812,1,0,1:0:0:0:
175,124,78897,1,8,2:3:0:0:
148,85,78982,1,0,1:0:0:0:
142,38,79067,2,0,L|203:50,1,47.9999985351563,0|0,1:0|1:0,0:0:0:0:
391,31,79236,2,0,L|383:92,1,47.9999985351563,8|8,2:3|2:3,0:0:0:0:
339,214,79406,6,0,L|326:312,2,80,14|8|0,0:0|0:0|1:0,0:0:0:0:
426,194,79914,1,8,0:0:0:0:
278,362,80084,2,0,P|228:355|157:262,1,160,8|0,0:0|1:0,0:0:0:0:
76,190,80592,6,0,P|60:73|26:7,1,160,10|8,0:0|0:0,0:0:0:0:
192,140,81100,2,0,P|209:104|237:75,1,80,0|8,1:0|0:0,0:0:0:0:
309,39,81355,1,8,2:3:0:0:
309,39,81439,2,0,L|406:46,1,80,8|8,0:0|0:0,0:0:0:0:
424,196,81778,2,0,L|327:203,1,80,0|0,1:0|0:0,0:0:0:0:
488,85,82117,6,0,P|504:131|503:166,2,80,10|8|0,0:0|0:0|1:0,0:0:0:0:
502,0,82626,1,8,0:0:0:0:
357,148,82795,2,0,P|348:227|406:277,1,160,8|0,0:0|1:0,0:0:0:0:
304,348,83304,1,10,0:0:0:0:
304,348,83389,1,0,0:0:0:0:
304,348,83473,6,0,L|220:340,1,80,0|8,0:0|0:0,0:0:0:0:
169,171,83812,1,0,1:0:0:0:
136,317,83982,2,0,L|144:387,1,40,8|8,0:0|0:0,0:0:0:0:
225,260,84151,1,8,0:0:0:0:
225,260,84236,1,8,0:0:0:0:
225,260,84321,2,0,L|309:252,1,80,8|0,0:0|1:0,0:0:0:0:
221,76,84660,1,8,0:0:0:0:
181,71,84745,1,0,1:0:0:0:
141,66,84829,6,0,P|102:109|94:143,2,80,14|8|0,0:0|0:0|1:0,0:0:0:0:
169,171,85338,1,8,0:0:0:0:
290,12,85507,2,0,P|331:79|349:157,1,160,8|0,0:0|1:0,0:0:0:0:
450,215,86016,6,0,P|395:272|370:347,1,160,10|8,0:0|0:0,0:0:0:0:
258,328,86524,2,0,L|160:314,1,80,0|8,1:0|0:0,0:0:0:0:
117,264,86778,1,8,0:0:0:0:
117,264,86863,2,0,P|78:271|46:294,1,80,8|8,0:0|0:0,0:0:0:0:
247,234,87202,2,0,L|259:140,1,80,0|0,1:0|0:0,0:0:0:0:
96,50,87541,6,0,P|49:27|22:21,2,80,10|8|0,0:0|0:0|1:0,0:0:0:0:
181,27,88050,1,8,0:0:0:0:
28,116,88219,2,0,P|69:181|146:192,1,160,8|0,0:0|1:0,0:0:0:0:
260,126,88728,6,0,L|432:104,1,160,10|8,0:0|0:0,0:0:0:0:
502,199,89236,2,0,P|507:238|491:274,1,80,0|8,1:0|0:0,0:0:0:0:
368,354,89575,2,0,L|315:339,1,40,8|0,0:0|0:0,0:0:0:0:
297,295,89745,5,0,1:0:0:0:
267,320,89829,1,0,1:0:0:0:
228,328,89914,1,8,1:2:0:0:
190,316,89999,1,0,1:0:0:0:
162,288,90084,1,0,1:0:0:0:
151,250,90168,1,0,1:0:0:0:
159,212,90253,5,14,0:0:0:0:
306,180,90423,1,0,0:0:0:0:
168,67,90592,1,0,1:0:0:0:
231,250,90762,1,8,0:0:0:0:
315,96,90931,2,0,L|328:1,1,80,0|8,1:0|0:0,0:0:0:0:
235,0,91270,1,0,1:0:0:0:
425,87,91439,1,10,0:0:0:0:
425,87,91609,5,4,1:2:0:0:
189,100,91778,1,0,0:0:0:0:
325,16,91948,1,0,1:0:0:0:
372,194,92117,1,8,0:0:0:0:
498,43,92287,2,0,P|508:81|501:120,1,80,0|8,1:0|0:0,0:0:0:0:
433,260,92626,2,0,P|422:299|429:338,1,80,0|8,1:0|0:0,0:0:0:0:
512,202,92965,5,6,1:2:0:0:
298,252,93134,1,0,0:0:0:0:
503,302,93304,1,2,1:2:0:0:
255,180,93473,1,8,0:0:0:0:
166,357,93643,2,0,P|160:318|165:278,1,80,2|10,1:2|0:0,0:0:0:0:
233,197,93982,1,0,1:0:0:0:
37,148,94151,1,10,0:0:0:0:
37,148,94321,5,4,1:2:0:0:
165,278,94490,1,0,0:0:0:0:
152,130,94660,1,0,1:0:0:0:
50,296,94829,1,8,0:0:0:0:
233,197,94999,2,0,P|259:251|268:288,1,80,0|8,1:0|0:0,0:0:0:0:
377,355,95338,2,0,P|389:317|408:281,1,80,0|8,1:0|0:0,0:0:0:0:
363,130,95677,5,2,1:2:0:0:
512,235,95846,1,8,0:0:0:0:
506,98,96016,1,0,1:0:0:0:
340,240,96185,5,8,0:0:0:0:
283,97,96355,2,0,P|280:144|298:177,1,80,0|8,1:0|0:0,0:0:0:0:
340,240,96694,5,0,1:0:0:0:
187,217,96864,2,0,P|226:243|263:244,1,80,2|0,0:0|1:0,0:0:0:0:
340,240,97202,5,8,0:0:0:0:
243,361,97372,2,0,P|285:340|304:308,1,80,0|8,1:0|0:0,0:0:0:0:
340,240,97711,5,2,1:2:0:0:
396,384,97881,2,0,P|398:336|380:303,1,80,8|0,0:0|1:0,0:0:0:0:
340,240,98219,5,0,0:0:0:0:
492,263,98389,2,0,P|452:236|415:235,1,80,2|8,1:2|0:0,0:0:0:0:
340,240,98728,5,2,1:2:0:0:
435,119,98898,2,0,P|392:139|373:171,1,80,8|2,0:0|1:2,0:0:0:0:
340,240,99236,5,10,0:0:0:0:
319,58,99406,1,2,1:2:0:0:
144,150,99575,1,2,0:0:0:0:
144,150,99745,6,0,P|137:111|143:72,1,80,0|8,1:0|0:0,0:0:0:0:
236,248,100084,2,0,P|241:287|234:326,1,80,0|8,1:0|0:0,0:0:0:0:
54,244,100423,2,0,L|5:237,2,40,0|0|8,1:0|1:0|0:3,0:0:0:0:
234,137,100762,1,0,1:0:0:0:
45,110,100931,1,0,1:0:0:0:
331,28,101948,6,0,L|333:77,1,34.0000006484985,0|0,0:0|0:0,0:0:0:0:
374,141,102117,5,0,1:0:0:0:
343,189,102202,1,0,1:0:0:0:
293,216,102287,1,0,1:0:0:0:
236,214,102372,1,0,1:0:0:0:
187,183,102456,6,0,P|122:156|51:162,1,143.999995605469,14|0,0:0|0:0,0:0:0:0:
51,162,102796,1,0,1:0:0:0:
77,273,102965,1,8,0:0:0:0:
161,72,103134,1,2,1:2:0:0:
187,183,103303,1,8,0:0:0:0:
71,9,103473,5,0,1:0:0:0:
71,9,103643,2,0,P|34:39|14:82,1,95.9999970703126,8|2,0:0|1:2,0:0:0:0:
187,183,103982,1,0,0:0:0:0:
187,183,104151,2,0,L|330:168,1,143.999995605469,0|0,1:0|0:0,0:0:0:0:
330,167,104490,2,0,P|344:213|330:258,1,95.9999970703126,2|8,1:2|0:0,0:0:0:0:
207,325,104830,1,0,1:0:0:0:
94,203,104999,5,10,0:0:0:0:
94,203,105168,2,0,P|111:134|175:91,1,143.999995605469,2|0,1:2|0:0,0:0:0:0:
197,93,105508,1,0,1:0:0:0:
374,1,105677,1,8,0:0:0:0:
374,1,105846,2,0,P|424:50|430:127,1,143.999995605469,2|0,1:2|0:0,0:0:0:0:
417,145,106186,1,0,1:0:0:0:
293,20,106355,6,0,L|283:124,1,95.9999970703126,8|2,0:0|1:2,0:0:0:0:
315,285,106694,1,0,0:0:0:0:
180,177,106864,1,0,1:0:0:0:
180,177,107203,5,2,1:2:0:0:
278,257,107372,1,0,1:0:0:0:
325,252,107456,1,0,1:0:0:0:
364,223,107541,1,0,1:0:0:0:
392,184,107626,1,0,1:0:0:0:
403,137,107711,1,0,1:0:0:0:
440,107,107795,1,0,1:0:0:0:
486,95,107880,5,12,0:0:0:0:
447,247,108050,1,0,3:0:0:0:
321,130,108219,1,0,1:0:0:0:
512,192,108389,1,8,3:2:0:0:
370,321,108558,1,0,1:0:0:0:
336,91,108728,1,8,3:2:0:0:
512,192,108897,1,0,1:0:0:0:
240,171,109067,2,0,P|236:123|249:77,1,95.9999970703126,8|0,3:2|1:0,0:0:0:0:
177,258,109406,5,8,3:2:0:0:
30,168,109575,2,0,L|129:178,1,95.9999970703126,0|8,1:0|3:2,0:0:0:0:
249,77,109914,1,0,1:0:0:0:
95,14,110084,1,8,3:2:0:0:
82,251,110253,1,0,1:0:0:0:
148,98,110423,1,8,3:2:0:0:
224,193,110592,6,0,L|233:295,1,95.9999970703126,4|0,1:2|0:0,0:0:0:0:
80,154,110931,2,0,P|63:109|68:62,1,95.9999970703126,0|8,1:0|0:0,0:0:0:0:
272,10,111270,2,0,L|263:112,1,95.9999970703126,0|8,1:0|0:0,0:0:0:0:
398,177,111609,2,0,P|414:132|409:85,1,95.9999970703126,0|8,1:0|0:0,0:0:0:0:
317,258,111948,5,0,1:0:0:0:
489,234,112117,1,8,0:0:0:0:
334,126,112287,2,0,L|233:113,1,95.9999970703126,0|8,1:0|0:0,0:0:0:0:
74,186,112626,5,0,1:0:0:0:
79,233,112711,1,0,1:0:0:0:
85,281,112795,1,0,1:0:0:0:
91,328,112880,1,0,1:0:0:0:
97,376,112965,1,12,1:2:0:0:
