osu file format v14

[General]
AudioFilename: audio.mp3
AudioLeadIn: 0
PreviewTime: 56401
Countdown: 0
SampleSet: Soft
StackLeniency: 0.7
Mode: 0
LetterboxInBreaks: 0
WidescreenStoryboard: 1

[Editor]
Bookmarks: 6231,22502,57757,79452
DistanceSpacing: 1
BeatDivisor: 4
GridSize: 32
TimelineZoom: 2.4

[Metadata]
Title:Seishun Mode! Mou Ikkai!!
TitleUnicode:青春モード!もう1回!!
Artist:Honma Himawari
ArtistUnicode:本間ひまわり
Creator:Yugu
Version:Normal
Source:
Tags:honhima 本ひま gamers ゲーマーズ HoneyWorks smash the paint!! vtuber virtual youtuber バーチャルyoutuber にじさんじ 2434 japanese pop jpop
BeatmapID:2319273
BeatmapSetID:1109861

[Difficulty]
HPDrainRate:4
CircleSize:3
OverallDifficulty:5
ApproachRate:6
SliderMultiplier:1.1
SliderTickRate:1

[Events]
//Background and Video events
0,0,"75736413_p0.jpg",0,0
//Break Periods
//Storyboard Layer 0 (Background)
//Storyboard Layer 1 (Fail)
//Storyboard Layer 2 (Pass)
//Storyboard Layer 3 (Foreground)
//Storyboard Layer 4 (Overlay)
//Storyboard Sound Samples

[TimingPoints]
762,338.983050847458,4,2,1,30,1,0
762,-100,4,2,1,30,0,0
6185,-100,4,2,1,40,0,0
8897,-100,4,2,1,45,0,0
9236,-100,4,2,1,50,0,0
9575,-100,4,2,1,55,0,0
9914,-100,4,2,1,60,0,0
11270,-100,4,2,1,60,0,0
11609,-100,4,2,1,80,0,0
22456,-100,4,2,1,60,0,0
33304,-100,4,2,1,60,0,0
44151,-100,4,2,1,50,0,0
52287,-100,4,2,1,60,0,0
56355,-100,4,2,1,80,0,0
57711,-100,4,2,1,90,0,0
79406,-100,4,2,1,70,0,0
90253,-100,4,2,1,80,0,0
101948,-100,4,2,1,60,0,0
102117,-100,4,2,1,60,0,0
102456,-100,4,2,1,80,0,0

[Colours]
Combo1 : 201,254,148
Combo2 : 251,227,64

[HitObjects]
208,126,762,6,0,L|83:109,1,110,2|2,0:0|0:0,0:0:0:0:
16,180,1439,2,0,P|26:258|44:294,1,110,2|0,0:0|0:0,0:0:0:0:
92,300,1948,2,0,L|205:286,1,110,2|2,0:0|0:0,0:0:0:0:
255,279,2456,1,2,0:0:0:0:
364,290,2795,2,0,P|368:241|359:175,1,110,2|0,0:0|0:0,0:0:0:0:
314,80,3473,6,0,P|354:41|426:32,1,110,2|2,0:0|0:0,0:0:0:0:
489,100,4151,2,0,L|483:226,1,110,2|0,0:0|0:0,0:0:0:0:
449,253,4660,2,0,P|408:228|342:233,1,110,2|2,0:0|0:0,0:0:0:0:
304,264,5168,2,0,L|297:336,2,55,2|2|2,0:0|0:0|0:0,0:0:0:0:
219,91,6185,5,10,0:0:0:0:
112,64,6524,1,8,0:0:0:0:
31,138,6863,2,0,P|38:195|77:245,1,110,8|8,0:0|0:0,0:0:0:0:
136,323,7541,5,8,0:0:0:0:
237,280,7880,1,8,0:0:0:0:
340,317,8219,2,0,P|385:317|441:265,1,110,8|8,0:0|0:0,0:0:0:0:
498,188,8897,2,0,L|486:67,2,110,2|0|0,1:2|1:0|1:0,0:0:0:0:
391,159,9914,1,0,1:0:0:0:
391,159,10084,1,0,1:0:0:0:
212,338,11270,1,0,1:0:0:0:
107,303,11609,6,0,P|100:244|127:189,1,110,14|0,0:0|1:0,0:0:0:0:
48,113,12287,2,0,P|62:70|131:49,1,110,2|0,1:2|1:0,0:0:0:0:
163,14,12795,2,0,L|287:23,1,110,8|0,0:0|0:0,0:0:0:0:
328,25,13304,1,0,1:0:0:0:
423,79,13643,1,0,1:0:0:0:
359,168,13982,1,0,1:0:0:0:
456,218,14321,6,0,P|464:282|436:332,1,110,2|0,1:2|1:0,0:0:0:0:
335,331,14999,2,0,P|282:287|226:274,1,110,2|0,1:2|1:0,0:0:0:0:
194,300,15507,2,0,L|183:180,1,110,8|0,0:0|0:0,0:0:0:0:
178,135,16016,1,0,1:0:0:0:
201,27,16355,1,2,1:2:0:0:
93,4,16694,1,2,1:2:0:0:
70,112,17033,6,0,L|82:234,1,110,6|0,1:2|1:0,0:0:0:0:
36,322,17711,2,0,P|88:334|139:315,1,110,2|0,1:2|1:0,0:0:0:0:
178,275,18219,2,0,L|294:294,1,110,8|0,0:0|0:0,0:0:0:0:
341,301,18728,1,0,1:0:0:0:
387,201,19067,1,2,1:2:0:0:
293,143,19406,1,0,1:0:0:0:
316,35,19745,6,0,P|382:22|437:41,1,110,2|0,1:2|1:0,0:0:0:0:
492,117,20423,2,0,L|498:250,1,110,2|0,1:2|1:0,0:0:0:0:
427,312,21100,2,0,P|388:307|333:252,1,110,6|0,1:2|1:0,0:0:0:0:
333,205,21609,1,8,0:0:0:0:
333,205,21778,1,2,1:2:0:0:
245,137,22117,1,0,1:0:0:0:
149,192,22456,6,0,P|69:186|14:127,1,165,14|0,0:0|0:0,0:0:0:0:
14,72,23134,1,8,0:0:0:0:
113,25,23473,1,8,0:0:0:0:
113,25,23643,2,0,L|287:46,1,165,0|8,0:0|0:0,0:0:0:0:
384,22,24490,2,0,P|389:95|368:149,1,110,8|8,0:0|0:0,0:0:0:0:
268,143,25168,6,0,P|224:214|231:318,1,165,10|0,0:0|0:0,0:0:0:0:
268,324,25846,2,0,L|397:301,1,110,8|8,0:0|0:0,0:0:0:0:
482,332,26524,1,8,0:0:0:0:
502,223,26863,1,8,0:0:0:0:
420,149,27202,2,0,L|303:141,1,110,8|8,0:0|0:0,0:0:0:0:
219,78,27880,6,0,P|173:96|117:160,1,110,10|10,0:0|0:0,0:0:0:0:
24,104,28558,2,0,P|23:203|38:227,1,110,8|10,0:0|0:0,0:0:0:0:
76,233,29067,1,0,0:0:0:0:
76,233,29236,2,0,L|209:221,1,110,10|10,0:0|0:0,0:0:0:0:
271,292,29914,2,0,L|404:280,1,110,10|10,0:0|0:0,0:0:0:0:
476,228,30592,6,0,P|482:159|407:79,1,165,8|0,0:0|0:0,0:0:0:0:
370,80,31270,1,8,0:0:0:0:
214,24,31778,1,0,0:0:0:0:
214,24,31948,2,0,L|207:188,1,165,14|2,0:0|0:0,0:0:0:0:
177,235,32626,2,0,P|123:247|71:231,1,110,10|0,0:0|1:0,0:0:0:0:
34,127,33304,6,0,P|55:84|178:59,1,165,14|2,0:0|0:0,0:0:0:0:
208,79,33982,1,10,0:0:0:0:
308,33,34321,1,8,2:1:0:0:
308,33,34490,2,0,L|322:211,1,165,2|8,0:0|2:1,0:0:0:0:
237,269,35338,2,0,P|247:318|312:365,1,110,8|8,0:0|2:1,0:0:0:0:
399,357,36016,6,0,P|445:326|463:207,1,165,10|2,0:0|0:0,0:0:0:0:
439,177,36694,1,10,0:0:0:0:
419,68,37033,1,8,2:1:0:0:
310,51,37372,2,0,P|254:92|246:142,1,110,10|8,0:0|2:1,0:0:0:0:
295,226,38050,2,0,P|272:270|202:295,1,110,8|8,0:0|2:1,0:0:0:0:
114,261,38728,6,0,L|0:235,1,110,10|8,0:0|2:1,0:0:0:0:
6,126,39406,1,8,0:0:0:0:
84,48,39745,1,8,2:1:0:0:
84,48,39914,2,0,L|265:28,1,165,0|8,0:0|2:1,0:0:0:0:
355,55,40762,6,0,P|385:114|379:163,1,110,8|8,0:0|2:1,0:0:0:0:
283,206,41439,2,0,P|265:254|288:326,1,110,14|8,0:0|2:1,0:0:0:0:
371,367,42117,2,0,L|497:352,1,110,10|8,0:0|2:1,0:0:0:0:
507,247,42795,5,14,0:0:0:0:
434,164,43134,1,8,2:1:0:0:
466,58,43473,1,10,0:0:0:0:
366,11,43812,1,8,2:3:0:0:
272,69,44151,6,0,P|224:113|213:272,1,220,14|2,0:0|1:2,0:0:0:0:
263,354,45168,1,2,0:0:0:0:
360,302,45507,2,0,L|373:129,1,165,10|0,0:0|0:0,0:0:0:0:
394,86,46185,2,0,L|460:77,2,55,2|2|2,1:2|2:3|2:3,0:0:0:0:
309,15,46863,6,0,P|209:16|116:102,1,220,10|2,0:0|1:2,0:0:0:0:
38,163,47880,1,2,0:0:0:0:
114,241,48219,2,0,L|121:311,2,55,10|0|10,0:0|1:0|0:0,0:0:0:0:
203,176,48897,2,0,L|210:106,2,55,2|2|2,1:2|2:3|2:3,0:0:0:0:
287,246,49575,6,0,L|517:233,1,220,14|2,0:0|1:2,0:0:0:0:
471,128,50592,1,2,0:0:0:0:
449,20,50931,2,0,P|386:23|283:157,1,220,10|0,0:0|1:0,0:0:0:0:
175,126,51948,1,0,1:0:0:0:
72,85,52287,6,0,L|87:217,1,110,14|2,0:0|1:2,0:0:0:0:
175,255,52965,2,0,L|307:240,1,110,10|2,0:0|1:2,0:0:0:0:
345,152,53643,2,0,L|332:42,1,110,2|2,0:0|1:2,0:0:0:0:
442,43,54321,2,0,L|429:152,1,110,10|2,0:0|1:2,0:0:0:0:
381,251,54999,6,0,L|388:311,2,55,0|0|2,1:0|1:0|2:1,0:0:0:0:
274,278,55677,2,0,L|281:349,2,55,0|0|2,1:0|1:0|2:1,0:0:0:0:
169,242,56355,2,0,P|108:214|60:211,2,110,4|4|4,1:2|1:2|1:2,0:0:0:0:
188,133,57372,1,0,1:0:0:0:
272,204,57711,6,0,P|342:181|360:132,1,110,14|0,0:0|1:0,0:0:0:0:
402,51,58389,1,2,1:2:0:0:
291,51,58728,1,0,1:0:0:0:
291,51,58897,2,0,P|221:74|203:123,1,110,8|2,0:0|0:0,0:0:0:0:
153,120,59406,2,0,L|167:252,1,110,2|2,1:2|1:2,0:0:0:0:
50,348,60253,5,10,0:0:0:0:
50,348,60423,2,0,P|24:284|42:233,1,110,2|0,1:2|1:0,0:0:0:0:
38,191,60931,1,10,0:0:0:0:
38,191,61101,2,0,P|64:127|46:76,1,110,2|2,1:2|1:2,0:0:0:0:
23,43,61609,2,0,L|194:28,1,165,8|2,0:0|1:2,0:0:0:0:
281,86,62456,1,2,1:2:0:0:
374,27,62795,1,0,1:0:0:0:
444,111,63134,6,0,P|456:161|447:220,1,110,2|0,1:2|1:0,0:0:0:0:
369,295,63812,1,2,1:2:0:0:
270,246,64151,1,0,1:0:0:0:
270,246,64321,2,0,L|140:232,1,110,2|10,0:0|0:0,0:0:0:0:
121,195,64829,2,0,P|109:142|140:99,1,110,2|2,1:2|1:2,0:0:0:0:
288,26,65677,5,2,0:0:0:0:
288,26,65846,2,0,L|401:41,1,110,2|2,1:2|1:2,0:0:0:0:
470,122,66524,2,0,L|455:235,1,110,2|2,1:2|1:2,0:0:0:0:
466,340,67202,5,2,1:2:0:0:
356,329,67541,1,0,1:0:0:0:
246,319,67880,1,2,1:2:0:0:
136,309,68219,1,0,1:0:0:0:
54,234,68558,6,0,P|15:171|32:122,1,110,14|2,0:0|1:2,0:0:0:0:
52,32,69236,1,0,1:0:0:0:
138,103,69575,1,0,1:0:0:0:
138,103,69745,2,0,P|176:165|159:214,1,110,8|2,0:0|0:0,0:0:0:0:
147,248,70253,2,0,L|279:234,1,110,2|2,1:2|1:2,0:0:0:0:
307,79,71100,5,10,0:0:0:0:
307,79,71270,2,0,P|371:53|422:71,1,110,2|0,1:2|1:0,0:0:0:0:
452,95,71778,1,8,0:0:0:0:
452,95,71948,2,0,L|459:217,1,110,2|0,1:2|1:0,0:0:0:0:
497,243,72456,2,0,L|321:231,1,165,10|2,0:0|1:2,0:0:0:0:
247,302,73304,1,2,1:2:0:0:
170,222,73643,1,0,1:0:0:0:
85,292,73982,6,0,P|41:259|28:207,1,110,2|0,1:2|1:0,0:0:0:0:
64,103,74659,1,2,1:2:0:0:
167,64,74999,1,0,1:0:0:0:
167,64,75168,2,0,L|293:59,1,110,2|8,0:0|0:0,0:0:0:0:
325,32,75677,2,0,P|334:79|311:143,1,110,0|2,1:0|1:2,0:0:0:0:
193,248,76524,5,0,0:0:0:0:
193,248,76694,2,0,P|184:295|207:359,1,110,2|0,1:2|1:0,0:0:0:0:
312,367,77372,2,0,L|437:349,1,110,0|0,1:0|1:0,0:0:0:0:
474,254,78050,2,0,P|478:172|407:184,1,165,6|0,1:2|1:0,0:0:0:0:
381,218,78728,2,0,L|265:200,1,110,0|0,1:0|1:0,0:0:0:0:
185,272,79406,5,14,0:0:0:0:
78,299,79745,1,0,1:0:0:0:
0,225,80084,2,0,P|7:168|46:118,1,110,8|0,0:0|1:0,0:0:0:0:
43,71,80592,2,0,L|166:90,1,110,10|8,0:0|0:0,0:0:0:0:
206,97,81101,1,0,1:0:0:0:
297,36,81439,2,0,P|361:41|403:79,1,110,8|0,0:0|1:0,0:0:0:0:
347,167,82117,5,10,0:0:0:0:
273,248,82456,1,0,1:0:0:0:
355,320,82795,2,0,P|397:318|464:267,1,110,8|0,0:0|1:0,0:0:0:0:
499,251,83304,2,0,L|492:142,1,110,10|8,0:0|0:0,0:0:0:0:
487,86,83812,1,0,1:0:0:0:
401,16,84151,2,0,P|342:15|298:52,1,110,8|0,0:0|1:0,0:0:0:0:
214,109,84829,5,14,0:0:0:0:
113,64,85168,1,0,1:0:0:0:
30,136,85507,2,0,L|41:258,1,110,8|0,0:0|1:0,0:0:0:0:
18,296,86016,2,0,P|76:295|133:257,1,110,10|8,0:0|0:0,0:0:0:0:
149,223,86524,1,0,1:0:0:0:
253,189,86863,2,0,P|302:218|324:274,1,110,8|0,0:0|1:0,0:0:0:0:
414,327,87541,5,10,0:0:0:0:
426,217,87880,1,0,1:0:0:0:
439,107,88219,2,0,P|414:63|338:51,1,110,8|0,0:0|1:0,0:0:0:0:
304,51,88728,2,0,L|170:64,1,110,10|8,0:0|0:0,0:0:0:0:
139,68,89236,1,0,1:0:0:0:
65,149,89575,2,0,P|64:209|158:267,1,165,8|0,0:0|1:0,0:0:0:0:
188,238,90253,5,14,0:0:0:0:
297,246,90592,1,0,1:0:0:0:
363,334,90931,2,0,P|408:324|455:263,1,110,0|0,1:0|1:0,0:0:0:0:
503,181,91609,1,4,1:2:0:0:
416,113,91948,1,0,1:0:0:0:
308,136,92287,2,0,L|196:145,1,110,0|0,1:0|1:0,0:0:0:0:
89,125,92965,6,0,P|68:60|71:9,2,110,6|2|2,1:2|1:2|1:2,0:0:0:0:
176,192,93982,1,0,1:0:0:0:
89,259,94321,2,0,P|68:324|71:375,2,110,4|0|0,1:2|1:0|1:0,0:0:0:0:
176,192,95338,1,0,1:0:0:0:
256,267,95677,5,2,1:2:0:0:
336,192,96016,1,0,1:0:0:0:
256,117,96355,2,0,L|256:1,1,110,0|0,1:0|1:0,0:0:0:0:
146,21,97033,2,0,P|103:39|72:100,1,110,0|0,1:0|1:0,0:0:0:0:
30,194,97711,2,0,L|37:314,1,110,2|0,1:2|1:0,0:0:0:0:
137,348,98389,6,0,P|179:350|232:292,1,110,2|2,1:2|1:2,0:0:0:0:
301,225,99067,1,2,1:2:0:0:
407,252,99406,1,2,1:2:0:0:
482,171,99745,2,0,P|493:116|510:43,2,110,0|0|0,1:0|1:0|1:0,0:0:0:0:
407,252,100762,1,0,1:0:0:0:
407,252,100931,1,0,1:0:0:0:
232,360,102117,1,0,1:0:0:0:
135,308,102456,6,0,P|128:249|155:194,1,110,14|0,0:0|1:0,0:0:0:0:
253,173,103134,2,0,P|260:128|207:68,1,110,2|0,1:2|1:0,0:0:0:0:
171,66,103643,2,0,L|45:52,1,110,8|0,0:0|0:0,0:0:0:0:
6,49,104151,1,0,1:0:0:0:
49,149,104490,1,2,1:2:0:0:
7,250,104829,1,0,1:0:0:0:
84,328,105168,6,0,P|137:331|197:285,1,110,2|0,1:2|1:0,0:0:0:0:
264,226,105846,2,0,L|383:219,1,110,2|0,1:2|1:0,0:0:0:0:
422,192,106355,2,0,P|436:150|413:83,1,110,8|0,0:0|0:0,0:0:0:0:
366,67,106863,1,0,1:0:0:0:
261,31,107202,1,2,1:2:0:0:
215,131,107541,1,0,1:0:0:0:
112,170,107880,6,0,L|-9:163,2,110,12|0|0,0:0|1:0|1:0,0:0:0:0:
184,252,108897,1,0,1:0:0:0:
184,252,109067,2,0,P|254:257|307:176,1,165,8|0,3:2|1:0,0:0:0:0:
374,100,109914,2,0,L|498:86,1,110,0|0,1:0|1:0,0:0:0:0:
467,196,110592,1,4,1:2:0:0:
473,305,110931,1,0,1:0:0:0:
369,342,111270,1,0,1:0:0:0:
269,296,111609,1,0,1:0:0:0:
166,255,111948,6,0,L|34:235,1,110,0|0,1:0|1:0,0:0:0:0:
63,128,112626,2,0,L|50:61,2,55,0|0|12,1:0|1:0|1:2,0:0:0:0:
