osu file format v14

[General]
AudioFilename: audio.mp3
AudioLeadIn: 0
PreviewTime: 56401
Countdown: 0
SampleSet: Soft
StackLeniency: 0.7
Mode: 0
LetterboxInBreaks: 0
WidescreenStoryboard: 1

[Editor]
Bookmarks: 6231,22502,57757,79452
DistanceSpacing: 1
BeatDivisor: 4
GridSize: 32
TimelineZoom: 2.4

[Metadata]
Title:Seishun Mode! Mou Ikkai!!
TitleUnicode:青春モード!もう1回!!
Artist:Honma Himawari
ArtistUnicode:本間ひまわり
Creator:Yugu
Version:Light Insane
Source:
Tags:honhima 本ひま gamers ゲーマーズ HoneyWorks smash the paint!! vtuber virtual youtuber バーチャルyoutuber にじさんじ 2434 japanese pop jpop
BeatmapID:2319272
BeatmapSetID:1109861

[Difficulty]
HPDrainRate:5.5
CircleSize:4
OverallDifficulty:7.5
ApproachRate:8.5
SliderMultiplier:1.6
SliderTickRate:1

[Events]
//Background and Video events
0,0,"75736413_p0.jpg",0,0
//Break Periods
//Storyboard Layer 0 (Background)
//Storyboard Layer 1 (Fail)
//Storyboard Layer 2 (Pass)
//Storyboard Layer 3 (Foreground)
//Storyboard Layer 4 (Overlay)
//Storyboard Sound Samples

[TimingPoints]
762,338.983050847458,4,2,1,30,1,0
762,-133.333333333333,4,2,1,30,0,0
6185,-117.647058823529,4,2,1,40,0,0
8897,-117.647058823529,4,2,1,45,0,0
9236,-117.647058823529,4,2,1,50,0,0
9575,-117.647058823529,4,2,1,55,0,0
9914,-117.647058823529,4,2,1,60,0,0
11270,-76.9230769230769,4,2,1,60,0,0
11609,-100,4,2,1,80,0,0
22456,-111.111111111111,4,2,1,60,0,0
33304,-100,4,2,1,60,0,0
44151,-125,4,2,1,50,0,0
52287,-125,4,2,1,60,0,0
56355,-76.9230769230769,4,2,1,80,0,0
57711,-100,4,2,1,90,0,0
79406,-111.111111111111,4,2,1,70,0,0
90253,-100,4,2,1,80,0,0
101948,-117.647058823529,4,2,1,60,0,0
102117,-83.3333333333333,4,2,1,60,0,0
102456,-100,4,2,1,80,0,0

[Colours]
Combo1 : 201,254,148
Combo2 : 251,227,64

[HitObjects]
330,131,762,6,0,L|323:191,1,60.0000022888184,2|2,0:0|0:0,0:0:0:0:
249,231,1100,2,0,L|189:223,1,60.0000022888184,2|2,0:0|0:0,0:0:0:0:
135,158,1439,2,0,P|139:98|172:49,1,120.000004577637,2|0,0:0|0:0,0:0:0:0:
325,19,1948,6,0,L|471:37,1,120.000004577637,2|2,0:0|0:0,0:0:0:0:
496,99,2456,2,0,P|491:128|480:156,1,60.0000022888184,2|2,0:0|0:0,0:0:0:0:
419,214,2795,2,0,P|391:266|395:325,1,120.000004577637,2|0,0:0|0:0,0:0:0:0:
101,357,3473,6,0,P|103:327|113:299,1,60.0000022888184,2|2,0:0|0:0,0:0:0:0:
154,225,3812,2,0,P|152:196|142:168,1,60.0000022888184,2|2,0:0|0:0,0:0:0:0:
63,134,4151,2,0,P|59:71|87:4,1,120.000004577637,2|0,0:0|0:0,0:0:0:0:
215,30,4660,6,0,L|286:21,2,60.0000022888184,2|0|2,0:0|0:0|0:0,0:0:0:0:
271,126,5168,1,2,0:0:0:0:
338,75,5338,1,2,0:0:0:0:
348,158,5507,1,2,0:0:0:0:
281,209,5677,2,0,L|276:248,2,30.0000011444092,2|0|0,3:2|3:0|3:0,0:0:0:0:
394,361,6185,6,0,P|427:360|460:351,1,68.0000012969971,10|0,0:0|0:0,0:0:0:0:
460,255,6524,2,0,P|427:245|393:245,1,68.0000012969971,8|0,0:0|0:0,0:0:0:0:
318,305,6863,2,0,P|265:338|183:330,1,136.000002593994,8|8,0:0|0:0,0:0:0:0:
69,370,7372,1,2,0:0:0:0:
69,370,7541,6,0,P|61:338|42:310,1,68.0000012969971,8|0,0:0|0:0,0:0:0:0:
7,220,7880,2,0,L|38:146,1,68.0000012969971,8|0,0:0|0:0,0:0:0:0:
112,103,8219,2,0,P|167:102|236:41,1,136.000002593994,8|8,0:0|0:0,0:0:0:0:
429,113,8897,5,2,1:2:0:0:
421,208,9067,1,0,1:0:0:0:
342,155,9236,5,0,1:0:0:0:
334,250,9406,1,0,1:0:0:0:
255,197,9575,5,0,1:0:0:0:
247,292,9745,1,0,1:0:0:0:
168,239,9914,2,0,L|88:232,1,68.0000012969971,0|0,1:0|1:0,0:0:0:0:
39,71,11100,5,8,0:0:0:0:
39,71,11185,1,8,0:0:0:0:
39,71,11270,2,0,L|199:68,1,155.999992858887,0|0,1:0|0:0,0:0:0:0:
225,42,11609,6,0,P|276:82|302:176,1,160,14|0,0:0|1:0,0:0:0:0:
241,245,12117,1,8,0:0:0:0:
316,304,12287,2,0,L|419:291,1,80,2|8,1:2|0:0,0:0:0:0:
241,245,12626,1,0,1:0:0:0:
241,245,12795,6,0,L|138:232,1,80,8|2,0:0|1:2,0:0:0:0:
89,299,13134,1,0,0:0:0:0:
20,230,13304,2,0,P|29:168|103:105,1,160,0|0,1:0|1:0,0:0:0:0:
170,41,13812,1,10,0:0:0:0:
246,99,13982,1,0,1:0:0:0:
312,29,14151,1,8,0:0:0:0:
312,29,14321,6,0,L|404:17,1,80,2|0,1:2|0:0,0:0:0:0:
468,76,14660,1,0,1:0:0:0:
414,155,14829,1,8,0:0:0:0:
414,155,14999,2,0,P|408:203|420:243,1,80,2|8,1:2|0:0,0:0:0:0:
496,284,15338,1,0,1:0:0:0:
413,332,15507,6,0,L|314:319,1,80,8|2,0:0|1:2,0:0:0:0:
244,357,15846,1,0,0:0:0:0:
190,276,16016,2,0,P|187:223|174:196,1,80,0|8,1:0|0:0,0:0:0:0:
249,136,16355,2,0,L|337:122,1,80,2|10,1:2|0:0,0:0:0:0:
198,54,16694,2,0,L|118:41,1,80,2|10,1:2|0:0,0:0:0:0:
23,141,17033,6,0,P|18:218|72:275,1,160,6|0,1:2|1:0,0:0:0:0:
141,342,17541,1,8,0:0:0:0:
211,276,17711,2,0,L|322:267,1,80,2|8,1:2|0:0,0:0:0:0:
373,220,18050,1,0,1:0:0:0:
373,220,18219,6,0,P|388:256|383:295,1,80,8|2,0:0|1:2,0:0:0:0:
446,368,18558,1,0,0:0:0:0:
504,291,18728,2,0,L|488:113,1,160,0|2,1:0|1:2,0:0:0:0:
416,69,19236,1,8,0:0:0:0:
337,124,19406,1,0,1:0:0:0:
266,59,19575,1,8,0:0:0:0:
266,59,19745,6,0,L|167:50,1,80,2|0,1:2|0:0,0:0:0:0:
38,96,20084,2,0,L|117:103,1,80,0|8,1:0|0:0,0:0:0:0:
260,167,20423,2,0,L|161:158,1,80,2|8,1:2|0:0,0:0:0:0:
32,204,20762,2,0,L|111:211,1,80,0|8,1:0|0:0,0:0:0:0:
187,270,21100,6,0,P|203:306|207:346,1,80,6|8,1:2|0:0,0:0:0:0:
298,313,21439,2,0,L|306:204,1,80,0|8,1:0|0:0,0:0:0:0:
332,204,21694,1,8,2:3:0:0:
332,204,21778,2,0,L|324:95,1,80,2|8,1:2|2:3,0:0:0:0:
388,42,22117,1,0,1:0:0:0:
388,42,22202,1,0,1:0:0:0:
388,42,22287,1,8,2:3:0:0:
388,42,22372,1,8,2:3:0:0:
388,42,22456,6,0,L|468:30,2,71.9999978027344,14|0|8,0:0|0:0|0:0,0:0:0:0:
319,96,22965,1,0,0:0:0:0:
319,96,23134,2,0,L|239:84,1,71.9999978027344,8|0,0:0|0:0,0:0:0:0:
172,42,23473,1,8,0:0:0:0:
172,42,23643,6,0,L|92:30,2,71.9999978027344,0|8|0,0:0|0:0|0:0,0:0:0:0:
172,128,24151,2,0,P|174:163|163:197,1,71.9999978027344,8|0,0:0|0:0,0:0:0:0:
82,228,24490,2,0,L|68:305,1,71.9999978027344,8|0,0:0|0:0,0:0:0:0:
155,287,24829,2,0,L|141:364,1,71.9999978027344,8|0,0:0|0:0,0:0:0:0:
288,270,25168,6,0,P|327:267|374:247,2,71.9999978027344,10|0|8,0:0|0:0|0:0,0:0:0:0:
250,191,25677,1,0,0:0:0:0:
250,191,25846,2,0,L|246:113,1,71.9999978027344,8|0,0:0|0:0,0:0:0:0:
295,47,26185,2,0,P|330:47|363:62,1,71.9999978027344,8|0,0:0|0:0,0:0:0:0:
437,108,26524,6,0,L|440:179,1,71.9999978027344,8|0,0:0|0:0,0:0:0:0:
448,266,26863,2,0,L|451:337,1,71.9999978027344,8|0,0:0|0:0,0:0:0:0:
371,371,27202,2,0,P|308:372|251:314,1,143.999995605469,8|8,0:0|0:0,0:0:0:0:
268,232,27711,1,0,0:0:0:0:
156,168,27880,6,0,L|67:159,1,71.9999978027344,10|2,0:0|0:0,0:0:0:0:
167,90,28219,2,0,L|78:81,1,71.9999978027344,10|0,0:0|0:0,0:0:0:0:
178,12,28558,2,0,L|89:3,1,71.9999978027344,8|0,0:0|0:0,0:0:0:0:
254,61,28897,1,10,0:0:0:0:
337,37,29067,1,0,0:0:0:0:
337,37,29236,6,0,P|336:91|319:119,1,71.9999978027344,10|2,0:0|0:0,0:0:0:0:
276,175,29575,2,0,P|277:229|294:257,1,71.9999978027344,10|2,0:0|0:0,0:0:0:0:
358,290,29914,2,0,L|454:280,1,71.9999978027344,10|2,0:0|0:0,0:0:0:0:
307,359,30253,2,0,L|211:349,1,71.9999978027344,10|2,0:0|0:0,0:0:0:0:
111,378,30592,6,0,P|111:306|148:245,1,143.999995605469,8|10,0:0|0:0,0:0:0:0:
225,206,31100,1,0,0:0:0:0:
171,138,31270,2,0,L|8:155,1,143.999995605469,8|8,0:0|0:0,0:0:0:0:
14,238,31778,1,0,0:0:0:0:
0,71,31948,5,14,0:0:0:0:
0,71,32117,1,8,0:0:0:0:
69,20,32287,2,0,P|123:20|171:44,1,107.999996704102,0|2,1:0|1:2,0:0:0:0:
171,44,32626,2,0,L|290:33,1,107.999996704102,10|0,0:0|0:0,0:0:0:0:
313,45,32965,1,0,1:0:0:0:
340,68,33050,1,0,1:0:0:0:
357,99,33134,1,0,1:0:0:0:
361,135,33219,1,0,1:0:0:0:
351,169,33304,6,0,L|166:147,1,160,14|8,0:0|2:1,0:0:0:0:
115,207,33812,1,2,0:0:0:0:
34,151,33982,2,0,P|37:112|58:79,1,80,10|0,0:0|0:0,0:0:0:0:
147,42,34321,1,8,2:1:0:0:
147,42,34490,6,0,L|262:28,2,80,2|10|2,0:0|0:0|0:0,0:0:0:0:
200,129,34999,2,0,P|217:164|217:204,1,80,8|2,2:1|0:0,0:0:0:0:
202,228,35253,1,0,0:0:0:0:
187,251,35338,2,0,P|188:333|267:324,1,160,8|8,0:0|2:1,0:0:0:0:
318,269,35846,1,2,0:0:0:0:
425,355,36016,6,0,L|447:177,1,160,10|8,0:0|2:1,0:0:0:0:
507,123,36524,1,2,0:0:0:0:
456,40,36694,2,0,P|416:40|381:59,1,80,10|2,0:0|0:0,0:0:0:0:
318,131,37033,2,0,P|278:130|243:111,1,80,8|2,2:1|0:0,0:0:0:0:
211,20,37372,5,10,0:0:0:0:
211,20,37541,1,2,0:0:0:0:
118,45,37711,1,8,2:1:0:0:
118,45,37880,1,2,0:0:0:0:
155,133,38050,2,0,P|162:212|144:290,1,160,8|8,0:0|2:1,0:0:0:0:
69,350,38558,1,0,0:0:0:0:
232,314,38728,6,0,L|329:309,1,80,10|0,0:0|0:0,0:0:0:0:
384,246,39067,2,0,P|388:189|379:149,1,80,8|2,2:1|0:0,0:0:0:0:
475,197,39406,2,0,P|460:118|413:55,1,160,8|8,0:0|2:1,0:0:0:0:
266,31,39914,1,0,0:0:0:0:
222,116,40084,6,0,L|241:227,1,80,10|0,0:0|0:0,0:0:0:0:
179,273,40423,2,0,P|139:278|102:265,1,80,8|2,2:1|0:0,0:0:0:0:
38,192,40762,2,0,L|59:26,1,160,8|8,0:0|2:1,0:0:0:0:
145,73,41270,1,0,0:0:0:0:
226,22,41439,6,0,P|297:52|312:127,1,160,14|8,0:0|2:1,0:0:0:0:
232,182,41948,1,2,0:0:0:0:
295,253,42117,2,0,L|303:344,1,80,10|2,0:0|0:0,0:0:0:0:
389,244,42456,2,0,L|397:335,1,80,8|2,2:1|0:0,0:0:0:0:
485,359,42795,6,0,L|500:216,1,120,14|0,0:0|0:0,0:0:0:0:
474,197,43134,2,0,P|436:163|424:84,1,120,8|0,2:1|0:0,0:0:0:0:
445,56,43473,1,10,0:0:0:0:
360,10,43643,1,0,1:0:0:0:
320,14,43728,1,0,1:0:0:0:
280,17,43812,1,8,2:3:0:0:
214,87,43982,1,8,2:3:0:0:
131,36,44151,6,0,B|102:138|197:193|167:288,1,256,14|2,0:0|1:2,0:0:0:0:
329,355,45168,1,2,0:0:0:0:
329,355,45338,1,2,0:0:0:0:
329,355,45507,6,0,L|400:371,1,64,10|0,0:0|1:0,0:0:0:0:
454,324,45846,2,0,L|470:253,1,64,10|0,0:0|0:0,0:0:0:0:
423,199,46185,2,0,L|352:183,1,64,2|2,1:2|2:3,0:0:0:0:
284,199,46524,1,2,2:3:0:0:
284,199,46694,1,2,1:3:0:0:
254,105,46863,6,0,B|248:23|193:-1|193:-1|153:68|69:66,1,256,10|2,0:0|1:2,0:0:0:0:
13,71,47711,1,0,0:0:0:0:
25,146,47880,2,0,L|32:225,1,64,2|2,0:0|0:0,0:0:0:0:
80,268,48219,6,0,L|73:347,2,64,10|0|10,0:0|1:0|0:0,0:0:0:0:
214,193,48897,2,0,L|207:114,2,64,2|2|2,1:2|2:3|2:3,0:0:0:0:
272,243,49406,1,2,1:3:0:0:
354,167,49575,6,0,P|442:162|440:306,1,256,14|2,0:0|1:2,0:0:0:0:
298,323,50592,2,0,L|266:394,1,64,2|2,0:0|0:0,0:0:0:0:
196,364,50931,2,0,L|164:293,1,64,10|0,0:0|1:0,0:0:0:0:
106,261,51270,1,8,0:0:0:0:
29,265,51439,2,0,L|-11:267,2,32,0|0|0,1:0|1:0|1:0,0:0:0:0:
113,176,51778,1,0,1:0:0:0:
38,159,51948,2,0,L|34:80,1,64,0|0,1:0|1:0,0:0:0:0:
133,21,52287,6,0,L|208:28,1,64,14|2,0:0|0:0,0:0:0:0:
334,40,52626,2,0,L|270:34,1,64,2|10,1:2|0:0,0:0:0:0:
161,98,52965,2,0,L|236:105,1,64,10|2,0:0|0:0,0:0:0:0:
362,117,53304,2,0,L|298:111,1,64,2|10,1:2|0:0,0:0:0:0:
189,175,53643,6,0,L|264:182,1,64,2|10,0:0|0:0,0:0:0:0:
390,194,53982,2,0,L|326:188,1,64,2|2,1:2|0:0,0:0:0:0:
217,252,54321,2,0,L|292:259,1,64,10|10,0:0|0:0,0:0:0:0:
418,271,54660,2,0,L|354:265,1,64,2|2,1:2|0:0,0:0:0:0:
308,334,54999,5,0,1:0:0:0:
183,356,55168,1,0,1:0:0:0:
183,356,55338,2,0,L|69:347,1,96,2|0,2:1|0:0,0:0:0:0:
68,314,55677,5,0,1:0:0:0:
130,176,55846,1,0,1:0:0:0:
130,176,56016,2,0,L|110:64,1,96,2|8,2:1|0:0,0:0:0:0:
113,81,56355,6,0,P|154:51|205:55,1,103.999995239258,4|0,1:2|0:0,0:0:0:0:
321,10,56694,2,0,P|367:30|389:76,1,103.999995239258,4|0,1:2|0:0,0:0:0:0:
486,154,57033,2,0,P|491:204|462:246,1,103.999995239258,4|0,1:2|0:0,0:0:0:0:
384,312,57372,1,0,1:0:0:0:
342,305,57457,1,0,1:0:0:0:
301,299,57541,2,0,L|308:364,1,51.999997619629,0|0,1:0|1:0,0:0:0:0:
228,371,57711,6,0,P|170:362|141:312,1,120,14|0,0:0|0:0,0:0:0:0:
157,276,58050,2,0,L|211:193,1,80,0|10,1:0|0:0,0:0:0:0:
276,148,58389,2,0,P|249:77|173:71,1,160,2|0,1:2|1:0,0:0:0:0:
94,126,58897,6,0,L|-3:131,1,80,8|2,0:0|1:2,0:0:0:0:
49,219,59236,1,2,0:0:0:0:
53,35,59406,2,0,L|150:40,1,80,2|8,1:2|0:0,0:0:0:0:
226,14,59745,2,0,P|239:63|233:101,1,80,2|8,1:2|0:0,0:0:0:0:
183,172,60084,1,0,1:0:0:0:
269,213,60253,1,10,0:0:0:0:
361,112,60423,6,0,P|438:117|491:175,1,160,2|0,1:2|1:0,0:0:0:0:
439,256,60931,1,10,0:0:0:0:
446,351,61100,2,0,L|262:332,1,160,2|2,1:2|1:2,0:0:0:0:
205,281,61609,1,8,0:0:0:0:
205,281,61778,6,0,P|189:237|185:189,1,80,2|2,1:2|0:0,0:0:0:0:
247,131,62117,2,0,P|263:87|267:39,1,80,2|8,1:2|0:0,0:0:0:0:
178,16,62456,1,2,1:2:0:0:
93,62,62626,1,8,0:0:0:0:
10,11,62795,1,0,1:0:0:0:
93,62,62965,1,8,0:0:0:0:
39,167,63134,6,0,P|72:215|128:230,1,120,2|0,1:2|0:0,0:0:0:0:
176,225,63473,2,0,L|279:212,1,80,0|8,1:0|0:0,0:0:0:0:
326,149,63812,2,0,P|411:170|430:247,1,160,2|0,1:2|1:0,0:0:0:0:
477,317,64321,6,0,P|439:329|400:322,1,80,2|0,0:0|1:0,0:0:0:0:
317,370,64660,1,10,0:0:0:0:
262,294,64829,2,0,L|253:199,1,80,2|8,1:2|0:0,0:0:0:0:
300,129,65168,2,0,L|309:34,1,80,2|8,1:2|0:0,0:0:0:0:
216,18,65507,1,0,1:0:0:0:
143,80,65677,1,2,0:0:0:0:
39,40,65846,6,0,P|32:79|38:118,1,80,2|8,1:2|0:0,0:0:0:0:
118,172,66185,2,0,L|220:162,1,80,2|8,1:2|0:0,0:0:0:0:
283,208,66524,2,0,P|289:247|283:286,1,80,2|8,1:2|0:0,0:0:0:0:
211,351,66863,2,0,L|109:341,1,80,2|0,1:2|0:0,0:0:0:0:
38,370,67202,5,2,1:2:0:0:
14,276,67372,1,8,0:0:0:0:
81,207,67541,2,0,P|100:158|97:107,1,80,0|8,1:0|0:0,0:0:0:0:
36,59,67880,1,2,1:2:0:0:
123,18,68050,1,8,0:0:0:0:
197,77,68219,1,0,1:0:0:0:
221,97,68304,1,0,1:0:0:0:
250,110,68389,1,0,1:0:0:0:
282,113,68473,1,0,1:0:0:0:
313,107,68558,6,0,P|368:86|427:94,1,120,14|0,0:0|0:0,0:0:0:0:
474,82,68897,2,0,L|468:166,1,80,2|8,1:2|0:0,0:0:0:0:
497,253,69236,2,0,P|422:278|343:271,1,160,0|0,1:0|1:0,0:0:0:0:
255,312,69745,6,0,L|249:232,1,80,8|0,0:0|1:0,0:0:0:0:
324,172,70084,1,2,0:0:0:0:
171,272,70253,2,0,L|165:192,1,80,2|10,1:2|0:0,0:0:0:0:
112,110,70592,2,0,P|73:103|34:111,1,80,2|10,1:2|0:0,0:0:0:0:
179,42,70931,1,2,1:2:0:0:
269,73,71100,1,10,0:0:0:0:
390,16,71270,6,0,P|372:92|359:182,1,160,2|0,1:2|1:0,0:0:0:0:
420,248,71778,1,8,0:0:0:0:
463,334,71948,2,0,P|512:274|502:197,1,160,2|0,1:2|1:0,0:0:0:0:
424,139,72456,1,10,0:0:0:0:
424,139,72626,6,0,L|417:44,1,80,0|2,1:0|0:0,0:0:0:0:
502,13,72965,2,0,L|507:92,1,80,2|8,1:2|0:0,0:0:0:0:
334,106,73304,2,0,P|294:101|257:85,1,80,2|8,1:2|0:0,0:0:0:0:
199,8,73643,1,0,1:0:0:0:
124,68,73812,1,8,0:0:0:0:
205,166,73982,6,0,P|233:218|234:277,1,120,2|0,1:2|0:0,0:0:0:0:
199,310,74321,2,0,L|86:297,1,80,0|8,1:0|0:0,0:0:0:0:
34,345,74660,2,0,P|31:267|88:214,1,160,2|0,1:2|1:0,0:0:0:0:
158,148,75168,6,0,L|250:156,1,80,2|0,0:0|1:0,0:0:0:0:
331,135,75507,1,8,0:0:0:0:
374,48,75677,2,0,P|335:37|296:44,1,80,0|8,1:0|0:0,0:0:0:0:
200,52,76016,2,0,P|161:62|122:55,1,80,2|8,1:2|0:0,0:0:0:0:
32,25,76354,1,0,1:0:0:0:
17,120,76524,1,0,0:0:0:0:
138,156,76694,6,0,P|145:201|144:240,1,80,2|8,1:2|0:0,0:0:0:0:
217,298,77033,2,0,P|262:290|301:292,1,80,0|8,1:0|0:0,0:0:0:0:
359,219,77372,2,0,P|351:173|353:135,1,80,0|8,1:0|0:0,0:0:0:0:
280,77,77711,2,0,P|234:84|196:83,1,80,0|0,1:0|0:0,0:0:0:0:
107,22,78050,5,6,1:2:0:0:
82,114,78219,1,8,0:0:0:0:
82,114,78389,1,8,0:0:0:0:
172,210,78558,1,0,1:0:0:0:
147,302,78727,1,0,1:0:0:0:
169,325,78812,1,0,1:0:0:0:
199,336,78897,1,8,2:3:0:0:
231,337,78982,1,0,1:0:0:0:
262,331,79067,2,0,L|290:277,3,40,0|0|8|8,1:0|1:0|2:3|2:3,0:0:0:0:
336,361,79406,6,0,L|431:348,1,71.9999978027344,14|8,0:0|0:0,0:0:0:0:
493,361,79745,1,0,1:0:0:0:
502,275,79914,1,8,0:0:0:0:
439,215,80084,2,0,P|391:192|363:106,1,143.999995605469,8|0,0:0|1:0,0:0:0:0:
435,27,80592,6,0,L|288:41,1,143.999995605469,10|8,0:0|0:0,0:0:0:0:
209,14,81100,2,0,P|209:49|219:84,1,71.9999978027344,0|8,1:0|0:0,0:0:0:0:
237,102,81355,1,8,2:3:0:0:
256,117,81439,2,0,P|255:152|245:187,1,71.9999978027344,8|8,0:0|0:0,0:0:0:0:
179,244,81778,2,0,L|82:251,1,71.9999978027344,0|0,1:0|0:0,0:0:0:0:
235,309,82117,6,0,L|332:316,1,71.9999978027344,10|8,0:0|0:0,0:0:0:0:
376,365,82456,1,0,1:0:0:0:
390,279,82626,1,8,0:0:0:0:
339,209,82795,2,0,P|326:132|386:60,1,143.999995605469,8|0,0:0|1:0,0:0:0:0:
458,16,83304,1,10,0:0:0:0:
458,16,83389,1,0,0:0:0:0:
458,16,83473,6,0,L|465:101,1,71.9999978027344,0|8,0:0|0:0,0:0:0:0:
407,153,83812,1,0,1:0:0:0:
473,208,83982,2,0,L|524:200,2,35.9999989013672,8|8|8,0:0|0:0|0:0,0:0:0:0:
435,286,84321,1,8,0:0:0:0:
319,262,84490,1,0,1:0:0:0:
242,328,84660,1,8,0:0:0:0:
213,332,84745,1,0,1:0:0:0:
184,336,84829,6,0,L|89:319,1,71.9999978027344,14|8,0:0|0:0,0:0:0:0:
43,272,85168,1,0,1:0:0:0:
47,185,85338,1,8,0:0:0:0:
112,128,85507,2,0,P|194:130|254:189,1,143.999995605469,8|0,0:0|1:0,0:0:0:0:
339,221,86016,6,0,P|353:157|387:51,1,143.999995605469,10|8,0:0|0:0,0:0:0:0:
450,38,86524,2,0,P|466:80|474:112,1,71.9999978027344,0|8,1:0|0:0,0:0:0:0:
473,131,86778,1,8,0:0:0:0:
466,155,86863,2,0,P|450:197|442:229,1,71.9999978027344,8|8,0:0|0:0,0:0:0:0:
470,305,87202,2,0,L|382:288,1,71.9999978027344,0|0,1:0|0:0,0:0:0:0:
307,208,87541,6,0,P|301:161|308:119,1,71.9999978027344,10|8,0:0|0:0,0:0:0:0:
235,83,87880,1,0,1:0:0:0:
151,105,88050,1,8,0:0:0:0:
97,37,88219,2,0,P|45:60|62:147,1,143.999995605469,8|0,0:0|1:0,0:0:0:0:
122,231,88728,6,0,P|130:302|111:384,1,143.999995605469,10|8,0:0|0:0,0:0:0:0:
35,339,89236,2,0,L|29:254,1,71.9999978027344,0|8,1:0|0:0,0:0:0:0:
21,180,89575,1,8,0:0:0:0:
94,133,89745,1,0,1:0:0:0:
127,119,89829,1,0,1:0:0:0:
163,121,89914,2,0,L|215:138,3,35.9999989013672,8|0|0|0,1:2|1:0|1:0|1:0,0:0:0:0:
208,51,90253,6,0,L|289:45,1,80,14|0,0:0|0:0,0:0:0:0:
383,55,90592,2,0,P|394:92|389:132,1,80,0|8,1:0|0:0,0:0:0:0:
312,189,90931,1,0,1:0:0:0:
232,242,91100,1,8,0:0:0:0:
253,335,91270,1,0,1:0:0:0:
372,367,91439,1,10,0:0:0:0:
372,367,91609,6,0,L|451:361,1,80,4|0,1:2|0:0,0:0:0:0:
504,280,91948,2,0,P|501:241|483:205,1,80,0|8,1:0|0:0,0:0:0:0:
404,151,92287,2,0,L|321:142,1,80,0|8,1:0|0:0,0:0:0:0:
259,70,92626,1,0,1:0:0:0:
233,162,92795,1,8,0:0:0:0:
142,77,92965,6,0,P|103:76|63:83,1,80,6|0,1:2|0:0,0:0:0:0:
10,163,93304,2,0,P|8:202|15:242,1,80,2|8,1:2|0:0,0:0:0:0:
69,321,93643,1,2,1:2:0:0:
124,243,93812,1,10,0:0:0:0:
200,301,93982,1,0,1:0:0:0:
288,218,94151,1,10,0:0:0:0:
288,218,94321,6,0,P|289:279|283:307,1,80,4|0,1:2|0:0,0:0:0:0:
360,357,94660,2,0,L|453:332,1,80,0|8,1:0|0:0,0:0:0:0:
469,245,94999,2,0,P|438:219|416:186,1,80,0|8,1:0|0:0,0:0:0:0:
458,99,95338,1,0,1:0:0:0:
389,31,95507,1,8,0:0:0:0:
311,125,95677,6,0,L|217:109,1,80,2|8,1:2|0:0,0:0:0:0:
150,61,96016,2,0,P|138:99|141:138,1,80,0|8,1:0|0:0,0:0:0:0:
187,223,96355,2,0,P|198:261|195:300,1,80,0|8,1:0|0:0,0:0:0:0:
276,353,96694,5,0,1:0:0:0:
276,353,96863,2,0,P|314:362|347:384,1,80,2|0,0:0|1:0,0:0:0:0:
433,340,97202,1,8,0:0:0:0:
433,340,97372,2,0,P|460:311|496:293,1,80,0|8,1:0|0:0,0:0:0:0:
500,197,97711,1,2,1:2:0:0:
500,197,97880,2,0,P|488:158|491:119,1,80,8|0,0:0|1:0,0:0:0:0:
409,67,98219,5,0,0:0:0:0:
409,67,98389,2,0,P|370:57|337:35,1,80,2|8,1:2|0:0,0:0:0:0:
250,80,98728,1,2,1:2:0:0:
250,80,98897,2,0,P|222:108|186:126,1,80,8|2,0:0|1:2,0:0:0:0:
97,90,99236,1,10,0:0:0:0:
35,164,99406,1,2,1:2:0:0:
119,258,99575,5,2,0:0:0:0:
119,258,99745,2,0,L|221:243,1,80,0|8,1:0|0:0,0:0:0:0:
285,205,100084,2,0,L|387:220,1,80,0|8,1:0|0:0,0:0:0:0:
445,268,100423,2,0,L|489:263,2,40,0|0|8,1:0|1:0|0:3,0:0:0:0:
362,365,100762,1,0,1:0:0:0:
362,365,100931,1,0,1:0:0:0:
134,304,101948,5,0,0:0:0:0:
71,230,102117,5,0,1:0:0:0:
79,184,102202,1,0,1:0:0:0:
106,145,102287,1,0,1:0:0:0:
148,122,102372,1,0,1:0:0:0:
195,119,102456,6,0,L|361:137,1,160,14|0,0:0|1:0,0:0:0:0:
434,81,102965,1,8,0:0:0:0:
472,168,103134,2,0,L|480:272,1,80,2|8,1:2|0:0,0:0:0:0:
434,81,103473,1,0,1:0:0:0:
434,81,103643,6,0,L|442:-23,1,80,8|2,0:0|1:2,0:0:0:0:
350,35,103982,1,0,0:0:0:0:
259,3,104151,2,0,P|191:40|175:116,1,160,0|2,1:0|1:2,0:0:0:0:
257,168,104660,1,8,0:0:0:0:
243,263,104830,1,0,1:0:0:0:
149,281,104999,1,10,0:0:0:0:
149,281,105168,6,0,P|110:285|76:266,1,80,2|0,1:2|0:0,0:0:0:0:
10,195,105507,1,0,1:0:0:0:
90,142,105677,1,8,0:0:0:0:
90,142,105846,2,0,L|103:59,1,80,2|8,1:2|0:0,0:0:0:0:
184,12,106185,1,0,1:0:0:0:
265,63,106355,6,0,L|277:142,1,80,8|2,0:0|1:2,0:0:0:0:
199,199,106694,1,0,0:0:0:0:
280,248,106863,2,0,L|267:327,1,80,0|8,1:0|0:0,0:0:0:0:
353,371,107203,5,2,1:2:0:0:
433,319,107372,1,0,1:0:0:0:
431,287,107456,1,0,1:0:0:0:
429,254,107541,2,0,L|425:178,3,40,0|0|0|0,1:0|1:0|1:0|1:0,0:0:0:0:
492,168,107880,6,0,P|485:129|463:96,1,80,12|0,0:0|3:0,0:0:0:0:
383,43,108219,2,0,L|276:56,1,80,0|8,1:0|3:2,0:0:0:0:
208,52,108558,2,0,L|129:43,1,80,0|8,1:0|3:2,0:0:0:0:
48,96,108897,2,0,P|26:129|19:168,1,80,0|8,1:0|3:2,0:0:0:0:
81,242,109236,5,0,1:0:0:0:
167,199,109406,1,8,3:2:0:0:
204,287,109575,2,0,L|209:384,1,80,0|8,1:0|3:2,0:0:0:0:
303,366,109914,2,0,L|308:287,1,80,0|8,1:0|3:2,0:0:0:0:
345,199,110253,1,0,1:0:0:0:
431,242,110423,1,8,3:2:0:0:
495,150,110592,6,0,P|479:115|444:97,1,80,4|0,1:2|0:0,0:0:0:0:
360,21,110931,2,0,P|320:17|287:39,1,80,0|8,1:0|0:0,0:0:0:0:
231,136,111270,2,0,P|214:171|179:189,1,80,0|8,1:0|0:0,0:0:0:0:
99,268,111609,2,0,P|59:271|26:249,1,80,0|8,1:0|0:0,0:0:0:0:
13,138,111948,5,0,1:0:0:0:
108,79,112117,1,8,0:0:0:0:
191,153,112287,2,0,L|294:142,1,80,0|8,1:0|0:0,0:0:0:0:
364,84,112626,1,0,1:0:0:0:
381,49,112711,1,0,1:0:0:0:
357,19,112795,1,0,1:0:0:0:
320,28,112880,1,0,1:0:0:0:
311,64,112965,1,12,1:2:0:0:
