osu file format v14

[General]
AudioFilename: audio.mp3
AudioLeadIn: 0
PreviewTime: 56401
Countdown: 0
SampleSet: Soft
StackLeniency: 0.7
Mode: 0
LetterboxInBreaks: 0
WidescreenStoryboard: 1

[Editor]
Bookmarks: 6231,22502,57757,79452
DistanceSpacing: 1.2
BeatDivisor: 4
GridSize: 32
TimelineZoom: 2.4

[Metadata]
Title:Seishun Mode! Mou Ikkai!!
TitleUnicode:青春モード!もう1回!!
Artist:Honma Himawari
ArtistUnicode:本間ひまわり
Creator:Yugu
Version:Hard
Source:
Tags:honhima 本ひま gamers ゲーマーズ HoneyWorks smash the paint!! vtuber virtual youtuber バーチャルyoutuber にじさんじ 2434 japanese pop jpop
BeatmapID:2319270
BeatmapSetID:1109861

[Difficulty]
HPDrainRate:5
CircleSize:3.8
OverallDifficulty:7
ApproachRate:8
SliderMultiplier:1.4
SliderTickRate:1

[Events]
//Background and Video events
0,0,"75736413_p0.jpg",0,0
//Break Periods
//Storyboard Layer 0 (Background)
//Storyboard Layer 1 (Fail)
//Storyboard Layer 2 (Pass)
//Storyboard Layer 3 (Foreground)
//Storyboard Layer 4 (Overlay)
//Storyboard Sound Samples

[TimingPoints]
762,338.983050847458,4,2,1,30,1,0
762,-100,4,2,1,30,0,0
6185,-100,4,2,1,40,0,0
8897,-100,4,2,1,45,0,0
9236,-100,4,2,1,50,0,0
9575,-100,4,2,1,55,0,0
9914,-100,4,2,1,60,0,0
11270,-100,4,2,1,60,0,0
11609,-100,4,2,1,80,0,0
22456,-111.111111111111,4,2,1,60,0,0
33304,-100,4,2,1,60,0,0
44151,-111.111111111111,4,2,1,50,0,0
52287,-100,4,2,1,60,0,0
56355,-90.9090909090909,4,2,1,80,0,0
57711,-100,4,2,1,90,0,0
79406,-100,4,2,1,70,0,0
90253,-100,4,2,1,80,0,0
101948,-100,4,2,1,60,0,0
102117,-100,4,2,1,60,0,0
102456,-100,4,2,1,80,0,0

[Colours]
Combo1 : 201,254,148
Combo2 : 251,227,64

[HitObjects]
200,142,762,6,0,P|200:107|213:74,1,70,2|2,0:0|0:0,0:0:0:0:
298,74,1100,2,0,P|311:107|312:142,1,70,2|2,0:0|0:0,0:0:0:0:
384,184,1439,2,0,P|347:243|329:310,1,140,2|0,0:0|0:0,0:0:0:0:
399,358,1948,1,2,0:0:0:0:
399,358,2117,6,0,L|482:347,1,70,0|2,0:0|0:0,0:0:0:0:
508,274,2456,2,0,L|497:191,1,70,2|2,0:0|0:0,0:0:0:0:
486,121,2795,2,0,L|333:95,1,140,2|0,0:0|0:0,0:0:0:0:
192,30,3473,6,0,P|166:55|149:85,1,70,2|2,0:0|0:0,0:0:0:0:
75,125,3812,2,0,P|83:158|101:188,1,70,2|2,0:0|0:0,0:0:0:0:
178,221,4151,2,0,P|188:288|147:342,1,140,2|0,0:0|0:0,0:0:0:0:
66,368,4660,1,2,0:0:0:0:
66,368,4829,6,0,L|36:294,1,70,0|2,0:0|0:0,0:0:0:0:
40,218,5168,2,0,L|66:153,1,70,2|2,0:0|0:0,0:0:0:0:
139,111,5507,1,2,0:0:0:0:
194,48,5677,2,0,L|192:9,2,35,2|0|0,3:2|3:0|3:0,0:0:0:0:
351,107,6185,6,0,L|440:99,1,70,10|0,0:0|0:0,0:0:0:0:
486,152,6524,2,0,L|492:221,1,70,8|0,0:0|0:0,0:0:0:0:
441,287,6863,2,0,L|280:301,1,140,8|8,0:0|0:0,0:0:0:0:
225,337,7372,1,2,0:0:0:0:
225,337,7541,6,0,P|215:303|221:269,1,70,8|0,0:0|0:0,0:0:0:0:
273,203,7880,2,0,P|282:169|276:135,1,70,8|0,0:0|0:0,0:0:0:0:
217,76,8219,2,0,P|149:65|89:99,1,140,8|8,0:0|0:0,0:0:0:0:
28,256,8897,5,2,1:2:0:0:
28,256,9067,1,0,1:0:0:0:
28,256,9236,2,0,L|39:341,1,70,0|0,1:0|1:0,0:0:0:0:
112,362,9575,2,0,L|181:353,1,70,0|0,1:0|1:0,0:0:0:0:
238,290,9914,1,0,1:0:0:0:
321,303,10084,1,0,1:0:0:0:
271,130,11100,5,8,0:0:0:0:
271,130,11185,1,8,0:0:0:0:
271,130,11270,2,0,P|301:87|300:35,1,105,0|0,1:0|0:0,0:0:0:0:
264,14,11609,6,0,L|103:4,1,140,14|0,0:0|1:0,0:0:0:0:
55,53,12117,1,8,0:0:0:0:
113,113,12287,2,0,P|136:177|117:243,1,140,2|0,1:2|1:0,0:0:0:0:
69,313,12795,6,0,L|-15:296,2,70,8|2|0,0:0|1:2|0:0,0:0:0:0:
134,366,13304,2,0,L|218:349,1,70,0|10,1:0|0:0,0:0:0:0:
261,292,13643,1,0,1:0:0:0:
342,309,13812,1,10,0:0:0:0:
397,372,13982,2,0,P|417:344|425:309,1,70,0|8,1:0|0:0,0:0:0:0:
398,230,14321,6,0,L|384:75,1,140,2|0,1:2|1:0,0:0:0:0:
426,16,14829,1,8,0:0:0:0:
341,3,14999,2,0,P|273:14|223:61,1,140,2|0,1:2|1:0,0:0:0:0:
152,107,15507,1,8,0:0:0:0:
152,107,15677,6,0,P|174:155|184:197,1,70,2|0,1:2|0:0,0:0:0:0:
261,181,16016,2,0,P|271:250|260:319,1,140,0|2,1:0|1:2,0:0:0:0:
189,366,16524,1,10,0:0:0:0:
132,303,16694,2,0,L|48:293,1,70,2|10,1:2|0:0,0:0:0:0:
7,230,17033,6,0,L|-3:69,1,140,6|0,1:2|1:0,0:0:0:0:
46,21,17541,1,8,0:0:0:0:
106,79,17711,2,0,P|170:102|236:83,1,140,2|0,1:2|1:0,0:0:0:0:
296,24,18219,6,0,P|329:13|363:11,2,70,8|2|0,0:0|1:2|0:0,0:0:0:0:
236,83,18728,2,0,L|230:163,1,70,0|10,1:0|0:0,0:0:0:0:
183,222,19067,1,2,1:2:0:0:
241,282,19236,1,8,0:0:0:0:
204,357,19406,2,0,P|237:366|276:358,1,70,0|8,1:0|0:0,0:0:0:0:
355,364,19745,6,0,L|365:285,1,70,2|0,1:2|0:0,0:0:0:0:
438,256,20084,2,0,L|448:177,1,70,0|8,1:0|0:0,0:0:0:0:
395,119,20423,2,0,L|316:109,1,70,2|8,1:2|0:0,0:0:0:0:
287,36,20762,2,0,L|208:26,1,70,0|8,1:0|0:0,0:0:0:0:
142,64,21100,6,0,P|113:126|128:193,1,140,6|0,1:2|1:0,0:0:0:0:
211,211,21609,1,8,0:0:0:0:
292,229,21778,1,2,1:2:0:0:
292,229,21863,1,0,0:0:0:0:
292,229,21948,1,8,2:3:0:0:
373,247,22117,2,0,L|419:241,2,35,0|0|8,1:0|1:0|2:3,0:0:0:0:
317,309,22456,6,0,P|258:332|196:332,1,125.999996154785,14|8,0:0|0:0,0:0:0:0:
143,277,22965,1,0,0:0:0:0:
74,245,23134,2,0,P|67:183|53:103,1,125.999996154785,8|8,0:0|0:0,0:0:0:0:
93,53,23643,1,0,0:0:0:0:
93,53,23812,6,0,L|173:43,1,62.9999980773926,8|0,0:0|0:0,0:0:0:0:
231,38,24151,2,0,L|241:118,1,62.9999980773926,8|0,0:0|0:0,0:0:0:0:
195,162,24490,2,0,P|178:209|189:292,1,125.999996154785,8|8,0:0|0:0,0:0:0:0:
314,362,25168,6,0,P|363:353|429:302,1,125.999996154785,10|8,0:0|0:0,0:0:0:0:
476,253,25677,1,0,0:0:0:0:
476,253,25846,2,0,L|469:172,1,62.9999980773926,8|0,0:0|0:0,0:0:0:0:
415,138,26185,2,0,L|334:145,1,62.9999980773926,8|0,0:0|0:0,0:0:0:0:
282,113,26524,6,0,P|276:68|281:38,2,62.9999980773926,8|0|8,0:0|0:0|0:0,0:0:0:0:
218,155,27033,1,0,0:0:0:0:
218,155,27202,2,0,L|216:239,1,62.9999980773926,8|0,0:0|0:0,0:0:0:0:
165,274,27541,2,0,L|167:358,1,62.9999980773926,8|0,0:0|0:0,0:0:0:0:
234,369,27880,6,0,P|281:372|348:303,1,125.999996154785,10|10,0:0|0:0,0:0:0:0:
397,274,28389,1,0,0:0:0:0:
436,209,28558,2,0,L|429:81,1,125.999996154785,8|10,0:0|0:0,0:0:0:0:
368,36,29067,1,0,0:0:0:0:
368,36,29236,6,0,P|326:43|295:62,1,62.9999980773926,10|2,0:0|0:0,0:0:0:0:
232,53,29575,2,0,P|217:92|218:129,1,62.9999980773926,10|2,0:0|0:0,0:0:0:0:
265,168,29914,2,0,P|268:230|227:276,1,125.999996154785,10|10,0:0|0:0,0:0:0:0:
80,315,30592,6,0,P|62:219|46:174,1,125.999996154785,8|10,0:0|0:0,0:0:0:0:
18,124,31100,1,0,0:0:0:0:
55,58,31270,2,0,L|185:44,1,125.999996154785,8|8,0:0|0:0,0:0:0:0:
255,36,31778,1,0,0:0:0:0:
255,36,31948,6,0,L|248:171,1,125.999996154785,14|0,0:0|1:0,0:0:0:0:
195,216,32456,1,2,0:0:0:0:
195,216,32626,2,0,P|221:232|252:238,1,62.9999980773926,10|8,0:0|0:0,0:0:0:0:
324,215,32965,2,0,L|381:203,3,31.4999990386963,0|0|0|0,1:0|1:0|1:0|1:0,0:0:0:0:
388,219,33304,6,0,P|394:279|350:343,1,140,14|8,0:0|2:1,0:0:0:0:
270,315,33812,1,2,0:0:0:0:
195,353,33982,2,0,L|58:325,1,140,10|8,0:0|2:1,0:0:0:0:
26,246,34490,1,2,0:0:0:0:
26,246,34660,6,0,P|31:211|52:184,1,70,10|2,0:0|0:0,0:0:0:0:
43,100,34999,2,0,P|75:87|109:92,1,70,8|2,2:1|0:0,0:0:0:0:
181,48,35338,2,0,P|227:71|325:79,1,140,8|8,0:0|2:1,0:0:0:0:
465,8,36016,6,0,P|452:76|447:146,1,140,10|8,0:0|2:1,0:0:0:0:
507,206,36524,1,2,0:0:0:0:
507,206,36694,2,0,P|480:246|458:258,1,70,10|2,0:0|0:0,0:0:0:0:
415,327,37033,2,0,P|366:323|345:310,1,70,8|2,2:1|0:0,0:0:0:0:
264,313,37372,5,10,0:0:0:0:
228,237,37541,1,2,0:0:0:0:
268,163,37711,2,0,L|279:89,1,70,8|2,2:1|0:0,0:0:0:0:
206,49,38050,2,0,P|141:33|43:27,1,140,8|8,0:0|2:1,0:0:0:0:
4,182,38728,6,0,P|69:198|167:204,1,140,10|8,0:0|2:1,0:0:0:0:
286,290,39406,2,0,P|302:335|306:375,1,70,8|0,0:0|0:0,0:0:0:0:
382,324,39745,1,8,2:1:0:0:
463,343,39914,1,0,0:0:0:0:
463,343,40084,6,0,P|468:287|479:254,1,70,10|0,0:0|0:0,0:0:0:0:
428,201,40423,2,0,P|420:166|419:131,1,70,8|2,2:1|0:0,0:0:0:0:
432,48,40762,2,0,P|362:42|296:65,1,140,8|8,0:0|2:1,0:0:0:0:
139,124,41439,6,0,P|75:95|26:45,1,140,14|8,0:0|2:1,0:0:0:0:
191,9,42117,2,0,P|226:12|260:29,1,70,10|2,0:0|0:0,0:0:0:0:
301,98,42456,2,0,L|291:169,1,70,8|2,2:1|0:0,0:0:0:0:
230,225,42795,5,14,0:0:0:0:
314,370,43134,1,8,2:1:0:0:
459,286,43473,1,10,0:0:0:0:
464,201,43643,1,0,1:0:0:0:
464,201,43728,1,0,1:0:0:0:
464,201,43812,1,8,2:3:0:0:
384,174,43982,1,8,2:3:0:0:
325,233,44151,6,0,P|284:237|205:196,2,125.999996154785,14|0|2,0:0|0:0|1:2,0:0:0:0:
411,108,45168,2,0,L|401:33,1,62.9999980773926,2|2,0:0|0:0,0:0:0:0:
331,19,45507,6,0,P|269:16|205:75,1,125.999996154785,10|10,0:0|0:0,0:0:0:0:
145,73,46016,1,0,0:0:0:0:
95,129,46185,2,0,L|17:117,2,62.9999980773926,2|2|2,1:2|2:3|2:3,0:0:0:0:
194,243,46863,6,0,P|196:310|209:382,2,125.999996154785,10|0|2,0:0|0:0|1:2,0:0:0:0:
251,192,47711,1,0,0:0:0:0:
251,192,47880,2,0,L|261:104,1,62.9999980773926,2|2,0:0|0:0,0:0:0:0:
320,85,48219,6,0,L|397:72,2,62.9999980773926,10|0|10,0:0|1:0|0:0,0:0:0:0:
170,61,48897,2,0,L|157:-16,2,62.9999980773926,2|2|2,1:2|2:3|2:3,0:0:0:0:
125,122,49406,1,2,1:3:0:0:
125,122,49575,6,0,P|75:130|18:55,2,125.999996154785,14|2|2,0:0|0:0|1:2,0:0:0:0:
204,251,50592,2,0,L|295:260,1,62.9999980773926,2|2,0:0|0:0,0:0:0:0:
335,226,50931,6,0,P|341:256|335:287,2,62.9999980773926,10|0|8,0:0|1:0|0:0,0:0:0:0:
293,162,51439,1,0,1:0:0:0:
293,162,51524,1,0,1:0:0:0:
293,162,51609,2,0,P|299:100|343:34,1,125.999996154785,0|0,1:0|1:0,0:0:0:0:
405,34,52117,1,0,1:0:0:0:
472,67,52287,6,0,L|477:225,1,140,14|2,0:0|1:2,0:0:0:0:
382,346,52965,2,0,L|224:351,1,140,10|2,0:0|1:2,0:0:0:0:
103,256,53643,2,0,L|98:98,1,140,2|2,0:0|1:2,0:0:0:0:
243,30,54321,2,0,L|247:169,1,140,10|2,0:0|1:2,0:0:0:0:
383,269,54999,5,0,1:0:0:0:
422,195,55168,1,0,1:0:0:0:
375,125,55338,2,0,P|361:79|355:16,1,105,2|0,2:1|0:0,0:0:0:0:
354,22,55677,1,0,1:0:0:0:
272,10,55846,1,0,1:0:0:0:
204,60,56016,2,0,P|198:112|183:162,1,105,2|8,2:1|0:0,0:0:0:0:
152,177,56355,6,0,L|71:159,1,77.0000023498536,4|0,1:2|0:0,0:0:0:0:
218,239,56694,2,0,L|274:177,1,77.0000023498536,4|0,1:2|0:0,0:0:0:0:
131,265,57033,2,0,L|155:344,1,77.0000023498536,4|0,1:2|0:0,0:0:0:0:
245,346,57372,2,0,L|240:391,3,38.5000011749268,0|0|0|0,1:0|1:0|1:0|1:0,0:0:0:0:
280,320,57711,6,0,P|339:336|423:292,1,140,14|0,0:0|1:0,0:0:0:0:
460,239,58219,1,10,0:0:0:0:
412,169,58389,2,0,L|393:21,1,140,2|0,1:2|1:0,0:0:0:0:
313,4,58897,6,0,P|244:-1|186:36,1,140,8|2,0:0|0:0,0:0:0:0:
106,64,59406,2,0,P|117:98|122:132,1,70,2|8,1:2|0:0,0:0:0:0:
198,170,59745,2,0,P|190:204|177:236,1,70,2|8,1:2|0:0,0:0:0:0:
121,299,60084,1,0,1:0:0:0:
38,283,60253,1,10,0:0:0:0:
19,200,60423,6,0,L|4:34,1,140,2|0,1:2|1:0,0:0:0:0:
75,11,60931,1,10,0:0:0:0:
152,43,61100,2,0,L|164:182,1,140,2|2,1:2|1:2,0:0:0:0:
228,237,61609,6,0,P|296:227|348:182,1,140,8|2,0:0|0:0,0:0:0:0:
415,131,62117,2,0,L|490:125,1,70,2|8,1:2|0:0,0:0:0:0:
474,41,62456,1,2,1:2:0:0:
396,7,62626,1,8,0:0:0:0:
333,63,62795,2,0,L|263:68,1,70,0|8,1:0|0:0,0:0:0:0:
193,21,63134,6,0,P|184:90|198:158,1,140,2|0,1:2|1:0,0:0:0:0:
276,190,63643,1,8,0:0:0:0:
340,242,63812,2,0,P|279:272|213:243,1,140,2|0,1:2|1:0,0:0:0:0:
137,277,64321,6,0,P|101:218|38:189,1,140,2|10,0:0|0:0,0:0:0:0:
28,105,64829,2,0,L|34:35,1,70,2|8,1:2|0:0,0:0:0:0:
118,35,65168,2,0,L|124:104,1,70,2|8,1:2|0:0,0:0:0:0:
197,147,65507,1,0,1:0:0:0:
278,126,65677,1,2,0:0:0:0:
338,67,65846,6,0,P|407:68|475:123,1,140,2|2,1:2|1:2,0:0:0:0:
464,277,66524,2,0,P|407:315|338:317,1,140,2|2,1:2|1:2,0:0:0:0:
199,220,67202,2,0,L|118:205,1,70,2|8,1:2|0:0,0:0:0:0:
86,135,67541,2,0,L|101:54,1,70,0|8,1:0|0:0,0:0:0:0:
171,22,67880,2,0,L|252:37,1,70,2|8,1:2|0:0,0:0:0:0:
310,80,68219,2,0,L|359:75,3,35,0|0|0|0,1:0|1:0|1:0|1:0,0:0:0:0:
308,118,68558,6,0,P|324:177|280:261,1,140,14|2,0:0|1:2,0:0:0:0:
227,298,69067,1,8,0:0:0:0:
157,250,69236,2,0,L|9:231,1,140,0|0,1:0|1:0,0:0:0:0:
11,316,69745,6,0,L|149:333,1,140,8|2,0:0|0:0,0:0:0:0:
227,298,70253,2,0,P|260:287|294:282,1,70,2|10,1:2|0:0,0:0:0:0:
332,206,70592,2,0,P|366:213|398:226,1,70,2|10,1:2|0:0,0:0:0:0:
469,272,70931,1,2,1:2:0:0:
485,189,71100,1,10,0:0:0:0:
468,106,71270,6,0,P|436:67|350:57,1,140,2|0,1:2|1:0,0:0:0:0:
275,18,71778,1,8,0:0:0:0:
218,79,71948,2,0,L|230:218,1,140,2|0,1:2|1:0,0:0:0:0:
313,235,72456,6,0,P|272:289|204:296,1,140
130,256,72965,2,0,L|52:246,1,70,2|8,1:2|0:0,0:0:0:0:
10,179,73304,1,2,1:2:0:0:
27,97,73473,1,8,0:0:0:0:
109,82,73643,2,0,L|178:90,1,70,0|8,1:0|0:0,0:0:0:0:
232,26,73982,6,0,P|260:87|235:151,1,140,2|0,1:2|1:0,0:0:0:0:
201,228,74490,1,8,0:0:0:0:
255,292,74660,2,0,L|423:269,1,140,2|0,1:2|1:0,0:0:0:0:
455,217,75168,6,0,P|476:150|456:84,1,140,2|8,0:0|0:0,0:0:0:0:
387,35,75677,2,0,L|299:21,1,70,0|8,1:0|0:0,0:0:0:0:
240,56,76016,2,0,L|226:144,1,70,2|8,1:2|0:0,0:0:0:0:
295,176,76355,1,0,1:0:0:0:
311,258,76524,1,0,0:0:0:0:
260,325,76694,6,0,P|205:337|123:289,1,140,2|0,1:2|1:0,0:0:0:0:
24,171,77372,2,0,P|12:116|60:34,1,140,0|0,1:0|1:0,0:0:0:0:
214,66,78050,2,0,L|234:-10,2,70,6|8|8,1:2|0:0|0:0,0:0:0:0:
147,117,78558,1,0,1:0:0:0:
195,185,78728,1,0,1:0:0:0:
195,185,78812,1,0,1:0:0:0:
195,185,78897,2,0,L|272:179,2,70,8|0|8,2:3|1:0|2:3,0:0:0:0:
145,253,79406,6,0,P|127:297|127:335,1,70,14|8,0:0|0:0,0:0:0:0:
193,368,79745,2,0,L|270:362,1,70,0|8,1:0|0:0,0:0:0:0:
339,326,80084,2,0,P|355:274|341:174,1,140,8|0,0:0|1:0,0:0:0:0:
338,105,80592,1,10,0:0:0:0:
338,105,80762,6,0,P|372:95|406:101,1,70,0|8,0:0|0:0,0:0:0:0:
482,134,81100,2,0,P|492:168|486:202,1,70,0|8,1:0|0:0,0:0:0:0:
423,257,81439,2,0,L|255:239,1,140,8|0,0:0|1:0,0:0:0:0:
181,107,82117,6,0,P|178:52|191:20,1,70,10|8,0:0|0:0,0:0:0:0:
266,38,82456,2,0,P|272:72|267:106,1,70,0|8,1:0|0:0,0:0:0:0:
233,184,82795,2,0,P|212:244|242:331,1,140,8|0,0:0|1:0,0:0:0:0:
308,349,83304,1,10,0:0:0:0:
308,349,83473,6,0,L|403:339,1,70,0|8,0:0|0:0,0:0:0:0:
459,360,83812,2,0,L|497:272,1,70,0|8,1:0|0:0,0:0:0:0:
476,212,84151,2,0,L|461:69,1,140,8|0,0:0|1:0,0:0:0:0:
297,32,84829,6,0,P|262:31|229:43,1,70,14|8,0:0|0:0,0:0:0:0:
145,52,85168,2,0,P|126:81|121:116,1,70,0|8,1:0|0:0,0:0:0:0:
50,162,85507,2,0,P|63:217|145:280,1,140,8|0,0:0|1:0,0:0:0:0:
193,227,86016,1,10,0:0:0:0:
193,227,86185,6,0,L|271:219,1,70,0|8,0:0|0:0,0:0:0:0:
330,270,86524,2,0,L|338:348,1,70,0|8,1:0|0:0,0:0:0:0:
256,363,86863,2,0,P|197:361|135:298,1,140,8|0,0:0|1:0,0:0:0:0:
177,144,87541,6,0,L|255:136,1,70,10|8,0:0|0:0,0:0:0:0:
301,73,87880,2,0,L|346:136,1,70,0|8,1:0|0:0,0:0:0:0:
425,119,88219,2,0,L|418:273,1,140,8|0,0:0|1:0,0:0:0:0:
425,343,88728,1,10,0:0:0:0:
425,343,88897,6,0,P|390:339|360:321,1,70,0|8,0:0|0:0,0:0:0:0:
299,263,89236,2,0,L|207:257,1,70,0|8,1:0|0:0,0:0:0:0:
161,309,89575,2,0,P|86:314|132:199,1,245,8|0,0:0|1:0,0:0:0:0:
159,178,90253,6,0,P|177:145|186:100,1,70,14|0,0:0|0:0,0:0:0:0:
263,82,90592,2,0,P|262:44|247:0,1,70,0|8,1:0|0:0,0:0:0:0:
169,19,90931,2,0,L|25:30,1,140,0|0,1:0|1:0,0:0:0:0:
5,110,91439,1,10,0:0:0:0:
5,109,91609,6,0,P|2:144|15:177,1,70,4|0,1:2|0:0,0:0:0:0:
96,201,91948,2,0,P|136:220|158:246,1,70,0|8,1:0|0:0,0:0:0:0:
194,311,92287,2,0,P|236:352|324:343,1,140,0|0,1:0|1:0,0:0:0:0:
467,282,92965,6,0,L|458:191,1,70,6|0,1:2|0:0,0:0:0:0:
473,129,93304,2,0,L|382:138,1,70,2|8,1:2|0:0,0:0:0:0:
338,81,93643,2,0,P|279:74|223:144,1,140,2|0,1:2|1:0,0:0:0:0:
271,198,94151,1,10,0:0:0:0:
271,198,94321,6,0,P|272:247|259:274,1,70,4|0,1:2|0:0,0:0:0:0:
191,308,94660,2,0,P|142:309|115:296,1,70,0|8,1:0|0:0,0:0:0:0:
64,241,94999,2,0,P|53:151|28:83,1,140,0|0,1:0|1:0,0:0:0:0:
187,27,95677,6,0,L|286:39,1,70,2|8,1:2|0:0,0:0:0:0:
319,91,96016,2,0,L|418:79,1,70,0|8,1:0|0:0,0:0:0:0:
458,35,96355,1,0,1:0:0:0:
481,201,96694,5,0,1:0:0:0:
481,201,96863,2,0,L|411:209,1,70,2|0,0:0|1:0,0:0:0:0:
339,253,97202,1,8,0:0:0:0:
339,253,97371,2,0,L|269:261,1,70,0|8,1:0|0:0,0:0:0:0:
197,305,97711,1,2,1:2:0:0:
197,305,97880,2,0,L|127:313,1,70,8|0,0:0|1:0,0:0:0:0:
66,254,98219,5,0,0:0:0:0:
66,254,98389,2,0,P|68:219|84:188,1,70,2|8,1:2|0:0,0:0:0:0:
68,105,98728,1,2,1:2:0:0:
68,105,98898,2,0,P|99:89|133:88,2,70,8|2|10,0:0|1:2|0:0,0:0:0:0:
23,33,99406,1,2,1:2:0:0:
23,33,99575,6,0,P|92:8|161:9,1,140,2|8,0:0|0:0,0:0:0:0:
238,32,100084,2,0,P|250:76|253:110,1,70,0|8,1:0|0:0,0:0:0:0:
198,164,100423,1,0,1:0:0:0:
198,164,100507,1,0,1:0:0:0:
198,164,100592,1,8,0:3:0:0:
263,216,100762,1,0,1:0:0:0:
238,296,100931,1,0,1:0:0:0:
376,343,101948,5,0,0:0:0:0:
421,272,102117,2,0,L|471:264,3,35,0|0|0|0,1:0|1:0|1:0|1:0,0:0:0:0:
391,255,102456,6,0,P|380:212|414:118,1,140,14|0,0:0|1:0,0:0:0:0:
482,81,102965,1,8,0:0:0:0:
421,23,103134,2,0,L|259:10,1,140,2|0,1:2|1:0,0:0:0:0:
204,47,103643,6,0,P|170:39|143:16,2,70,8|2|0,0:0|1:2|0:0,0:0:0:0:
263,106,104151,2,0,L|271:183,1,70,0|8,1:0|0:0,0:0:0:0:
238,253,104490,1,2,1:2:0:0:
154,265,104660,1,8,0:0:0:0:
85,313,104829,2,0,P|71:281|72:246,1,70,0|10,1:0|0:0,0:0:0:0:
17,182,105168,6,0,P|60:129|128:118,1,140,2|0,1:2|1:0,0:0:0:0:
191,63,105676,1,8,0:0:0:0:
263,106,105846,2,0,L|415:93,1,140,2|0,1:2|1:0,0:0:0:0:
477,131,106355,1,8,0:0:0:0:
477,131,106524,6,0,P|472:183|459:224,1,70,2|0,1:2|0:0,0:0:0:0:
396,244,106863,2,0,L|244:231,1,140,0|2,1:0|1:2,0:0:0:0:
177,263,107372,1,0,1:0:0:0:
177,263,107456,1,0,1:0:0:0:
177,263,107541,2,0,L|185:317,3,35,0|0|0|0,1:0|1:0|1:0|1:0,0:0:0:0:
143,245,107880,6,0,P|152:211|173:183,1,70,12|0,0:0|3:0,0:0:0:0:
137,107,108219,2,0,P|170:98|205:102,1,70,0|8,1:0|3:2,0:0:0:0:
253,32,108558,2,0,P|277:57|290:89,1,70,0|8,1:0|3:2,0:0:0:0:
375,94,108897,2,0,P|365:127|344:155,1,70,0|8,1:0|3:2,0:0:0:0:
382,230,109236,6,0,P|348:238|313:234,1,70,0|8,1:0|3:2,0:0:0:0:
267,304,109575,2,0,P|242:278|229:246,1,70,0|8,1:0|3:2,0:0:0:0:
143,245,109914,1,0,1:0:0:0:
94,176,110084,2,0,P|36:203|51:303,1,175,8|0,3:2|0:0,0:0:0:0:
48,342,110592,6,0,L|202:330,1,140,4|0,1:2|1:0,0:0:0:0:
338,256,111270,2,0,L|477:266,1,140,0|0,1:0|1:0,0:0:0:0:
340,118,111948,1,0,1:0:0:0:
172,118,112287,1,0,1:0:0:0:
256,68,112456,1,8,0:0:0:0:
256,68,112626,2,0,L|256:23,4,35,0|0|0|0|12,1:0|1:0|1:0|1:0|1:2,0:0:0:0:
