osu file format v14

[General]
AudioFilename: audio.mp3
AudioLeadIn: 0
PreviewTime: 162430
Countdown: 0
SampleSet: Soft
StackLeniency: 0.7
Mode: 0
LetterboxInBreaks: 0
WidescreenStoryboard: 0

[Editor]
Bookmarks: 15893,45430,60199,74969,89738,119276,134046,134507,134969,135430,135892,136353,136815,137276,137738,138199,138661,139123,139584,140046,140507,140969,141430,141892,142353,142815,143276,143738,144199,144661,145123,145584,146046,146507,146969,147430,147892,148353,148815,156199,163584,193123,207892,237430,255892,263276
DistanceSpacing: 2
BeatDivisor: 2
GridSize: 32
TimelineZoom: 1.5

[Metadata]
Title:Ninja Re Bang Bang
TitleUnicode:にんじゃりばんばん
Artist:Honma Himawari
ArtistUnicode:本間ひまわり
Creator:Venyera
Version:Bloom Ring
Source:
Tags:honhima 本ひま gamers ゲーマーズ virtual youtuber vtuber バーチャルyoutuber 2434 japanese Kyary Pamyu electronic BNY963
BeatmapID:3032862
BeatmapSetID:1478309

[Difficulty]
HPDrainRate:5
CircleSize:4
OverallDifficulty:8
ApproachRate:8
SliderMultiplier:1.5
SliderTickRate:1

[Events]
//Background and Video events
0,0,"EZtwLBXU0AI313t.jpg",0,0
//Break Periods
2,134246,148065
//Storyboard Layer 0 (Background)
//Storyboard Layer 1 (Fail)
//Storyboard Layer 2 (Pass)
//Storyboard Layer 3 (Foreground)
//Storyboard Layer 4 (Overlay)
//Storyboard Sound Samples

[TimingPoints]
431,461.538461538462,4,2,1,60,1,0
431,-100,4,2,1,60,0,0
1123,461.538461538462,4,2,1,70,1,0
15892,-83.3333333333333,4,2,1,80,0,1
19584,-66.6666666666667,4,2,1,80,0,1
20969,-83.3333333333333,4,2,1,80,0,1
26969,-66.6666666666667,4,2,1,80,0,1
28353,-83.3333333333333,4,2,1,80,0,1
34353,-66.6666666666667,4,2,1,80,0,1
35738,-83.3333333333333,4,2,1,80,0,1
41738,-66.6666666666667,4,2,1,80,0,1
45430,-100,4,2,1,70,0,0
89738,-83.3333333333333,4,2,1,80,0,1
93430,-66.6666666666667,4,2,1,80,0,1
94815,-83.3333333333333,4,2,1,80,0,1
100815,-66.6666666666667,4,2,1,80,0,1
102199,-83.3333333333333,4,2,1,80,0,1
108199,-66.6666666666667,4,2,1,80,0,1
109584,-83.3333333333333,4,2,1,80,0,1
115584,-66.6666666666667,4,2,1,80,0,1
119276,-100,4,2,1,70,0,0
148815,-100,4,2,1,60,0,0
163584,-83.3333333333333,4,2,1,80,0,1
167276,-66.6666666666667,4,2,1,80,0,1
168661,-83.3333333333333,4,2,1,80,0,1
174661,-66.6666666666667,4,2,1,80,0,1
176046,-83.3333333333333,4,2,1,80,0,1
182046,-66.6666666666667,4,2,1,80,0,1
183430,-83.3333333333333,4,2,1,80,0,1
189430,-66.6666666666667,4,2,1,80,0,1
193123,-83.3333333333333,4,2,1,70,0,0
196815,-66.6666666666667,4,2,1,70,0,0
198199,-83.3333333333333,4,2,1,70,0,0
204199,-66.6666666666667,4,2,1,70,0,0
207892,-83.3333333333333,4,2,1,80,0,1
211584,-66.6666666666667,4,2,1,80,0,1
212969,-83.3333333333333,4,2,1,80,0,1
218969,-66.6666666666667,4,2,1,80,0,1
220353,-83.3333333333333,4,2,1,80,0,1
226353,-66.6666666666667,4,2,1,80,0,1
227738,-83.3333333333333,4,2,1,80,0,1
233738,-66.6666666666667,4,2,1,80,0,1
237430,-100,4,2,1,70,0,0
256007,-100,4,2,1,60,0,0
257738,-100,4,2,1,45,0,0
259584,-100,4,2,1,30,0,0
261430,-100,4,2,1,15,0,0
262353,-100,4,2,1,5,0,0

[Colours]
Combo1 : 255,255,128
Combo2 : 255,128,64
Combo3 : 255,255,0
Combo4 : 255,128,0

[HitObjects]
437,75,431,6,0,L|444:45,3,18.75
369,116,661,2,0,L|373:134,3,18.75
308,63,892,2,0,L|312:44,3,18.75
246,116,1123,6,0,P|250:162|276:195,1,75,6|0,0:0|0:0,0:0:0:0:
361,204,1584,2,0,P|350:239|324:266,1,75,10|0,0:0|0:0,0:0:0:0:
234,304,2046,1,0,0:0:0:0:
312,361,2276,1,0,0:0:0:0:
403,327,2507,1,8,0:0:0:0:
487,376,2739,1,0,0:0:0:0:
501,278,2969,6,0,P|483:246|452:226,1,75,2|0,0:0|0:0,0:0:0:0:
391,302,3430,2,0,P|358:283|338:252,1,75,10|0,0:0|0:0,0:0:0:0:
382,164,3893,1,0,0:0:0:0:
284,174,4124,1,8,0:1:0:0:
284,174,4239,1,8,0:1:0:0:
284,174,4354,1,8,0:0:0:0:
321,84,4585,1,0,0:0:0:0:
262,4,4816,6,0,P|232:27|218:61,1,75,2|0,0:0|0:0,0:0:0:0:
128,98,5276,2,0,P|157:120|171:154,1,75,10|0,0:0|0:0,0:0:0:0:
264,186,5738,2,0,P|234:208|220:242,1,75,2|0,0:0|0:0,0:0:0:0:
255,334,6200,1,8,0:0:0:0:
162,364,6431,1,0,0:0:0:0:
107,283,6661,5,0,0:0:0:0:
28,341,6892,1,0,0:0:0:0:
3,246,7123,1,8,0:0:0:0:
72,178,7353,1,0,0:0:0:0:
9,103,7584,1,0,0:0:0:0:
59,19,7815,1,8,0:1:0:0:
59,19,7930,1,8,0:1:0:0:
59,19,8046,1,8,0:0:0:0:
122,92,8276,1,0,0:0:0:0:
194,26,8507,6,0,L|296:33,1,75,2|0,0:0|0:0,0:0:0:0:
289,126,8969,2,0,L|363:120,1,75,10|0,0:0|0:0,0:0:0:0:
386,26,9430,1,0,0:0:0:0:
467,80,9661,1,0,0:0:0:0:
445,175,9892,1,8,0:0:0:0:
363,120,10123,1,0,0:0:0:0:
349,215,10353,6,0,L|378:299,1,75,2|0,0:0|0:0,0:0:0:0:
471,286,10815,2,0,L|442:369,1,75,10|0,0:0|0:0,0:0:0:0:
351,376,11276,1,0,0:0:0:0:
282,306,11507,1,8,0:1:0:0:
282,306,11623,1,8,0:1:0:0:
282,306,11738,1,8,0:0:0:0:
199,357,11969,1,0,0:0:0:0:
117,304,12199,6,0,L|81:309,7,18.75,2|0|0|0|0|0|0|0,0:0|0:0|0:0|0:0|0:0|0:0|0:0|0:0,0:0:0:0:
173,249,12661,2,0,L|191:251,7,18.75,10|0|0|0|0|0|0|0,0:0|0:0|0:0|0:0|0:0|0:0|0:0|0:0,0:0:0:0:
122,189,13123,6,0,L|86:194,7,18.75,2|0|0|0|0|0|0|0,0:0|0:0|0:0|0:0|0:0|0:0|0:0|0:0,0:0:0:0:
175,129,13585,2,0,L|193:131,7,18.75,10|0|0|0|0|0|0|0,0:0|0:0|0:0|0:0|0:0|0:0|0:0|0:0,0:0:0:0:
66,59,14046,5,8,0:1:0:0:
40,180,14276,1,8,0:1:0:0:
40,180,14392,1,8,0:1:0:0:
40,180,14507,1,8,0:1:0:0:
153,121,14738,1,8,0:1:0:0:
254,195,14969,5,8,0:1:0:0:
229,318,15199,1,8,0:1:0:0:
229,318,15315,2,0,L|226:344,1,18.75,2|8,0:0|0:1,0:0:0:0:
229,318,15430,1,8,0:0:0:0:
127,258,15661,1,8,0:1:0:0:
140,136,15893,6,0,B|189:123|189:123|225:138,1,89.9999972534181,6|0,0:0|0:0,0:0:0:0:
161,235,16353,2,0,B|124:250|124:250|75:237,1,89.9999972534181,8|0,0:0|0:0,0:0:0:0:
33,126,16816,1,2,0:0:0:0:
102,31,17047,1,8,0:1:0:0:
102,31,17162,1,8,0:1:0:0:
102,31,17277,1,8,0:0:0:0:
168,127,17508,1,0,0:0:0:0:
240,35,17739,6,0,B|270:73|270:73|275:114,1,89.9999972534181,2|0,0:0|0:0,0:0:0:0:
349,204,18199,2,0,B|379:166|379:166|384:124,1,89.9999972534181,8|0,0:0|0:0,0:0:0:0:
362,8,18662,1,2,0:0:0:0:
474,41,18893,1,8,0:1:0:0:
474,41,19008,1,8,0:1:0:0:
474,41,19124,1,8,0:0:0:0:
386,117,19354,1,0,0:0:0:0:
489,172,19585,6,0,L|474:284,1,112.500004291535,6|0,0:0|0:0,0:0:0:0:
384,351,20046,2,0,L|367:239,1,112.500004291535,12|0,0:0|0:0,0:0:0:0:
270,181,20507,2,0,L|255:293,1,112.500004291535,6|0,0:0|0:0,0:0:0:0:
189,362,20969,1,8,0:0:0:0:
134,259,21199,1,0,0:0:0:0:
39,328,21430,5,2,0:0:0:0:
6,215,21661,1,0,0:0:0:0:
96,140,21892,1,8,0:0:0:0:
63,27,22123,1,0,0:0:0:0:
176,0,22353,1,2,0:0:0:0:
209,113,22584,1,8,0:1:0:0:
209,113,22699,1,8,0:1:0:0:
209,113,22815,1,8,0:0:0:0:
296,35,23046,1,8,0:1:0:0:
336,143,23276,6,0,P|375:120|420:117,1,89.9999972534181,2|0,0:0|0:0,0:0:0:0:
508,194,23738,2,0,P|469:217|424:220,1,89.9999972534181,8|0,0:0|0:0,0:0:0:0:
320,274,24199,1,2,0:0:0:0:
379,374,24430,1,8,0:1:0:0:
379,374,24546,1,8,0:1:0:0:
379,374,24661,1,8,0:0:0:0:
475,308,24892,1,0,0:0:0:0:
412,208,25123,6,0,P|370:222|338:253,1,89.9999972534181,2|0,0:0|0:0,0:0:0:0:
270,348,25584,2,0,P|227:333|195:302,1,89.9999972534181,8|0,0:0|0:0,0:0:0:0:
241,194,26046,1,2,0:0:0:0:
127,222,26276,1,8,0:1:0:0:
127,222,26392,1,8,0:1:0:0:
127,222,26507,1,8,0:0:0:0:
82,330,26738,1,0,0:0:0:0:
23,225,26969,6,0,P|34:171|70:129,1,112.500004291535,6|0,0:0|0:0,0:0:0:0:
155,55,27430,2,0,P|187:99|190:155,1,112.500004291535,12|0,0:0|0:0,0:0:0:0:
177,267,27892,2,0,P|231:256|273:220,1,112.500004291535,6|0,0:0|0:0,0:0:0:0:
275,110,28353,1,8,0:0:0:0:
355,195,28584,1,0,0:0:0:0:
468,166,28815,5,2,0:0:0:0:
495,52,29046,1,0,0:0:0:0:
387,97,29276,1,8,0:0:0:0:
457,190,29507,1,0,0:0:0:0:
349,236,29738,1,2,0:0:0:0:
441,307,29969,1,12,0:1:0:0:
441,307,30084,1,8,0:1:0:0:
441,307,30199,1,8,0:0:0:0:
339,366,30430,1,8,0:1:0:0:
252,285,30661,6,0,P|240:243|250:199,1,89.9999972534181,6|0,0:0|0:0,0:0:0:0:
352,142,31123,2,0,P|364:99|354:55,1,89.9999972534181,8|0,0:0|0:0,0:0:0:0:
248,7,31584,1,2,0:0:0:0:
153,76,31815,1,8,0:1:0:0:
153,76,31930,1,8,0:1:0:0:
153,76,32046,1,8,0:0:0:0:
267,98,32276,1,0,0:0:0:0:
179,176,32507,6,0,P|135:181|94:164,1,89.9999972534181,2|0,0:0|0:0,0:0:0:0:
60,52,32969,2,0,P|104:46|145:63,1,89.9999972534181,8|0,0:0|0:0,0:0:0:0:
257,28,33430,1,2,0:0:0:0:
359,85,33661,1,8,0:1:0:0:
359,85,33776,1,8,0:1:0:0:
359,85,33892,1,8,0:0:0:0:
466,37,34123,1,0,0:0:0:0:
494,150,34353,6,0,L|477:261,1,112.500004291535,6|0,0:0|0:0,0:0:0:0:
365,207,34815,2,0,L|383:318,1,112.500004291535,12|0,0:0|0:0,0:0:0:0:
267,273,35276,2,0,L|249:385,1,112.500004291535,6|0,0:0|0:0,0:0:0:0:
139,374,35738,1,8,0:0:0:0:
27,339,35969,1,0,0:0:0:0:
107,254,36199,5,2,0:0:0:0:
43,155,36430,1,0,0:0:0:0:
85,45,36661,1,8,0:0:0:0:
176,118,36892,1,0,0:0:0:0:
274,54,37123,1,2,0:0:0:0:
375,111,37353,1,12,0:1:0:0:
375,111,37469,1,8,0:1:0:0:
375,111,37584,1,8,0:0:0:0:
462,32,37815,1,8,0:1:0:0:
499,143,38046,6,0,P|469:185|469:241,1,89.9999972534181,2|0,0:0|0:0,0:0:0:0:
384,306,38507,2,0,P|377:261|349:226,1,89.9999972534181,8|0,0:0|0:0,0:0:0:0:
236,197,38969,1,2,0:0:0:0:
270,308,39199,1,8,0:1:0:0:
270,308,39315,1,8,0:1:0:0:
270,308,39430,1,8,0:0:0:0:
159,347,39661,1,0,0:0:0:0:
124,235,39892,6,0,P|117:192|129:148,1,89.9999972534181,2|0,0:0|0:0,0:0:0:0:
233,94,40353,2,0,P|240:50|228:6,1,89.9999972534181,8|0,0:0|0:0,0:0:0:0:
126,65,40815,1,2,0:0:0:0:
18,18,41046,1,8,0:1:0:0:
18,18,41161,1,8,0:1:0:0:
18,18,41276,1,8,0:0:0:0:
1,133,41507,1,0,0:0:0:0:
106,197,41738,6,0,B|151:205|151:205|213:169,1,112.500004291535,6|0,0:1|0:0,0:0:0:0:
231,49,42199,2,0,B|268:25|268:25|340:38,1,112.500004291535,12|0,0:1|0:0,0:0:0:0:
389,149,42661,2,0,B|434:157|434:157|492:119,1,112.500004291535,6|0,0:1|0:0,0:0:0:0:
511,20,43123,1,8,0:0:0:0:
399,54,43353,1,0,0:0:0:0:
290,8,43584,5,2,0:0:0:0:
209,92,43815,1,0,0:0:0:0:
106,35,44046,1,8,0:0:0:0:
55,140,44276,1,0,0:0:0:0:
158,197,44507,1,2,0:0:0:0:
114,305,44738,1,8,0:1:0:0:
114,305,44853,1,8,0:1:0:0:
114,305,44969,1,12,0:1:0:0:
6,260,45199,1,8,0:1:0:0:
43,170,45430,6,0,P|79:159|115:166,1,75,6|0,0:0|0:0,0:0:0:0:
194,225,45892,2,0,P|229:235|265:228,1,75,8|0,0:0|0:0,0:0:0:0:
340,166,46353,2,0,P|375:155|411:162,1,75,2|0,0:0|0:0,0:0:0:0:
467,242,46815,1,8,0:0:0:0:
425,330,47046,1,8,0:1:0:0:
425,330,47161,1,8,0:1:0:0:
425,330,47276,6,0,P|393:313|372:282,1,75,2|0,0:0|0:0,0:0:0:0:
305,208,47623,1,8,0:1:0:0:
305,208,47738,2,0,P|283:238|251:256,1,75,8|0,0:0|0:0,0:0:0:0:
212,345,48084,1,8,0:1:0:0:
212,345,48199,2,0,P|179:327|158:296,1,75,2|0,0:0|0:0,0:0:0:0:
141,250,48546,1,8,0:1:0:0:
141,250,48661,1,8,0:1:0:0:
63,309,48892,1,8,0:1:0:0:
63,309,49007,1,8,0:1:0:0:
63,309,49123,6,0,L|44:203,1,75,2|0,0:0|0:0,0:0:0:0:
141,202,49469,1,8,0:1:0:0:
141,202,49584,2,0,L|160:95,1,75,8|0,0:0|0:0,0:0:0:0:
59,104,49930,1,8,0:1:0:0:
59,104,50046,2,0,L|39:-2,1,75,2|0,0:0|0:0,0:0:0:0:
141,43,50392,1,8,0:1:0:0:
141,43,50507,2,0,L|177:33,1,37.5,8|0,0:0|0:0,0:0:0:0:
190,137,50738,2,0,L|153:127,1,37.5
273,92,50969,6,0,P|284:127|277:163,1,75,2|0,0:0|0:0,0:0:0:0:
236,250,51315,1,8,0:1:0:0:
236,250,51430,2,0,L|244:295,1,37.5,8|0,0:0|0:0,0:0:0:0:
319,341,51661,2,0,L|325:304,1,37.5
403,261,51892,2,0,L|411:306,1,37.5,2|0,0:0|0:0,0:0:0:0:
486,349,52123,2,0,L|492:312,1,37.5
492,219,52353,6,0,L|512:215,3,18.75,8|0|0|0,0:0|0:0|0:0|0:0,0:0:0:0:
420,179,52584,2,0,L|399:174,3,18.75
311,207,52815,6,0,L|301:132,1,75,6|0,0:0|0:0,0:0:0:0:
208,102,53276,2,0,L|198:176,1,75,8|0,0:0|0:0,0:0:0:0:
113,224,53738,2,0,L|103:149,1,75,2|0,0:0|0:0,0:0:0:0:
17,103,54199,1,8,0:0:0:0:
86,33,54430,1,8,0:1:0:0:
86,33,54546,1,8,0:1:0:0:
86,32,54661,6,0,P|123:33|158:46,1,75,2|0,0:0|0:0,0:0:0:0:
228,114,55007,1,8,0:1:0:0:
228,114,55123,2,0,P|265:113|300:100,1,75,8|0,0:0|0:0,0:0:0:0:
381,46,55469,1,8,0:1:0:0:
381,46,55584,2,0,P|418:46|453:59,1,75,2|0,0:0|0:0,0:0:0:0:
494,86,55930,1,8,0:1:0:0:
494,86,56046,1,8,0:1:0:0:
417,145,56276,1,8,0:1:0:0:
417,145,56392,1,8,0:1:0:0:
417,145,56507,6,0,L|428:240,1,75,2|0,0:0|0:0,0:0:0:0:
327,213,56853,1,8,0:1:0:0:
327,213,56969,2,0,L|316:308,1,75,8|0,0:0|0:0,0:0:0:0:
221,279,57315,1,8,0:1:0:0:
221,279,57430,2,0,L|232:374,1,75,2|0,0:0|0:0,0:0:0:0:
129,380,57776,1,8,0:1:0:0:
129,380,57892,2,0,L|139:344,1,37.5,8|0,0:0|0:0,0:0:0:0:
35,331,58123,2,0,L|45:368,1,37.5
80,248,58354,6,0,P|45:237|9:244,1,75,2|0,0:0|0:0,0:0:0:0:
27,148,58699,1,8,0:1:0:0:
27,148,58815,2,0,L|35:103,1,37.5,8|0,0:0|0:0,0:0:0:0:
110,57,59046,2,0,L|116:94,1,37.5
185,152,59276,6,0,L|218:145,3,18.75,6|0|0|0,0:0|0:0|0:0|0:0,0:0:0:0:
239,72,59507,2,0,L|206:65,3,18.75
302,135,59738,2,0,L|335:128,3,18.75,6|0|0|0,0:0|0:0|0:0|0:0,0:0:0:0:
356,55,59969,2,0,L|323:48,3,18.75
451,52,60199,6,0,P|448:89|427:119,1,75,6|0,0:0|0:0,0:0:0:0:
365,195,60661,2,0,P|367:232|388:262,1,75,8|0,0:0|0:0,0:0:0:0:
479,297,61123,2,0,P|476:334|455:364,1,75,2|0,0:0|0:0,0:0:0:0:
409,380,61469,1,8,0:1:0:0:
409,380,61584,1,8,0:0:0:0:
344,306,61815,1,0,0:0:0:0:
278,378,62046,6,0,L|192:360,1,75,2|0,0:0|0:0,0:0:0:0:
202,265,62507,2,0,L|128:280,1,75,8|0,0:0|0:0,0:0:0:0:
107,376,62969,2,0,L|21:358,1,75,2|0,0:0|0:0,0:0:0:0:
0,324,63315,1,8,0:1:0:0:
0,324,63430,1,8,0:0:0:0:
90,287,63661,1,0,0:0:0:0:
26,211,63892,6,0,P|60:194|97:188,1,75,2|0,0:0|0:0,0:0:0:0:
163,116,64353,2,0,P|129:99|92:93,1,75,8|0,0:0|0:0,0:0:0:0:
25,22,64815,2,0,P|58:5|95:0,1,75,2|0,0:0|0:0,0:0:0:0:
141,15,65161,1,8,0:1:0:0:
141,15,65276,1,8,0:0:0:0:
163,109,65507,1,0,0:0:0:0:
234,42,65738,6,0,L|334:28,1,75,2|0,0:0|0:0,0:0:0:0:
287,127,66199,2,0,L|361:137,1,75,8|0,0:0|0:0,0:0:0:0:
339,232,66661,2,0,L|413:221,1,75,2|0,0:0|0:0,0:0:0:0:
461,216,67007,1,8,0:1:0:0:
461,216,67123,1,8,0:0:0:0:
493,124,67353,1,0,0:0:0:0:
449,36,67584,6,0,P|420:58|400:90,1,75,2|0,0:0|0:0,0:0:0:0:
334,163,68046,2,0,P|363:185|383:217,1,75,8|0,0:0|0:0,0:0:0:0:
463,273,68507,2,0,P|433:295|413:327,1,75,2|0,0:0|0:0,0:0:0:0:
394,372,68853,1,8,0:1:0:0:
394,372,68969,1,8,0:0:0:0:
315,314,69199,1,0,0:0:0:0:
236,371,69430,6,0,P|221:336|219:299,1,75,2|0,0:0|0:0,0:0:0:0:
294,236,69892,2,0,P|308:201|310:164,1,75,8|0,0:0|0:0,0:0:0:0:
221,123,70353,2,0,P|206:88|204:51,1,75,2|0,0:0|0:0,0:0:0:0:
218,4,70699,1,8,0:1:0:0:
218,4,70815,1,8,0:0:0:0:
296,62,71046,1,0,0:0:0:0:
221,123,71276,6,0,L|146:113,1,75,2|0,0:0|0:0,0:0:0:0:
165,209,71738,2,0,L|90:218,1,75,8|0,0:0|0:0,0:0:0:0:
106,315,72199,2,0,L|31:305,1,75,2|0,0:0|0:0,0:0:0:0:
1,265,72546,1,8,0:1:0:0:
1,265,72661,1,8,0:0:0:0:
39,175,72892,1,0,0:0:0:0:
0,84,73123,6,0,P|37:76|74:83,1,75,2|0,0:0|0:0,0:0:0:0:
163,123,73584,2,0,P|199:130|236:123,1,75,8|0,0:0|0:0,0:0:0:0:
324,81,74046,2,0,P|360:73|397:80,1,75,2|0,0:0|0:0,0:0:0:0:
443,98,74392,1,8,0:1:0:0:
443,98,74507,1,8,0:0:0:0:
452,195,74738,1,0,0:0:0:0:
357,168,74969,6,0,P|352:205|363:241,1,75,6|0,0:0|0:0,0:0:0:0:
408,328,75315,1,8,0:1:0:0:
408,328,75430,2,0,P|372:338|335:334,1,75,8|0,0:0|0:0,0:0:0:0:
247,377,75776,1,8,0:1:0:0:
247,377,75892,2,0,P|236:341|240:304,1,75,2|0,0:0|0:0,0:0:0:0:
263,260,76238,1,8,0:1:0:0:
263,260,76353,1,8,0:0:0:0:
332,329,76584,1,0,0:0:0:0:
365,236,76815,6,0,L|352:163,1,75,2|0,0:0|0:0,0:0:0:0:
264,121,77161,1,8,0:1:0:0:
264,121,77276,2,0,L|250:194,1,75,8|0,0:0|0:0,0:0:0:0:
161,235,77623,1,8,0:1:0:0:
161,235,77738,2,0,L|147:161,1,75,2|0,0:0|0:0,0:0:0:0:
139,112,78084,1,8,0:1:0:0:
139,112,78199,1,8,0:0:0:0:
55,163,78430,1,0,0:0:0:0:
46,64,78661,6,0,P|68:35|101:16,1,75,2|0,0:0|0:0,0:0:0:0:
198,25,79007,1,8,0:1:0:0:
198,25,79123,2,0,P|227:47|246:80,1,75,8|0,0:0|0:0,0:0:0:0:
229,171,79469,1,8,0:1:0:0:
229,171,79584,2,0,P|206:200|173:219,1,75,2|0,0:0|0:0,0:0:0:0:
125,221,79930,1,8,0:1:0:0:
125,221,80046,1,8,0:0:0:0:
138,124,80276,1,0,0:0:0:0:
43,149,80507,6,0,L|29:222,1,75,2|0,0:0|0:0,0:0:0:0:
125,221,80853,1,8,0:1:0:0:
125,221,80969,2,0,L|138:294,1,75,8|0,0:0|0:0,0:0:0:0:
236,292,81315,1,8,0:1:0:0:
236,292,81430,2,0,L|222:365,1,75,2|0,0:0|0:0,0:0:0:0:
176,381,81776,1,8,0:1:0:0:
176,381,81892,1,8,0:0:0:0:
138,294,82123,1,0,0:0:0:0:
56,347,82353,6,0,P|41:312|41:275,1,75,2|0,0:0|0:0,0:0:0:0:
136,252,82699,1,8,0:1:0:0:
136,252,82815,2,0,P|150:217|150:180,1,75,8|0,0:0|0:0,0:0:0:0:
57,153,83161,1,8,0:1:0:0:
57,153,83276,2,0,P|42:118|42:81,1,75,2|0,0:0|0:0,0:0:0:0:
57,34,83623,1,8,0:1:0:0:
57,34,83738,1,8,0:0:0:0:
130,98,83969,1,0,0:0:0:0:
208,40,84199,6,0,L|304:51,1,75,2|0,0:0|0:0,0:0:0:0:
284,146,84546,1,8,0:1:0:0:
284,146,84661,2,0,L|358:137,1,75,8|0,0:0|0:0,0:0:0:0:
373,42,85007,1,8,0:1:0:0:
373,42,85123,2,0,L|447:50,1,75,2|0,0:0|0:0,0:0:0:0:
496,56,85469,1,8,0:1:0:0:
496,56,85584,1,8,0:0:0:0:
469,150,85815,1,0,0:0:0:0:
373,129,86046,5,2,0:0:0:0:
369,147,86161,1,0,0:0:0:0:
369,166,86276,1,0,0:0:0:0:
374,184,86392,1,0,0:0:0:0:
381,201,86507,1,8,0:0:0:0:
393,216,86622,1,0,0:0:0:0:
407,228,86738,1,0,0:0:0:0:
423,237,86853,1,0,0:0:0:0:
441,243,86969,5,2,0:0:0:0:
445,261,87084,1,0,0:0:0:0:
444,280,87199,1,4,0:1:0:0:
440,298,87315,1,0,0:0:0:0:
432,315,87430,1,8,0:0:0:0:
421,330,87545,1,0,0:0:0:0:
407,343,87661,1,0,0:0:0:0:
391,352,87776,1,0,0:0:0:0:
373,358,87892,5,6,0:1:0:0:
285,299,88123,1,8,0:1:0:0:
285,299,88238,1,8,0:1:0:0:
285,299,88353,1,8,0:1:0:0:
200,361,88584,1,8,0:1:0:0:
129,282,88815,5,8,0:1:0:0:
50,351,89046,2,0,L|46:325,1,18.75,2|8,0:0|0:1,0:0:0:0:
50,351,89161,1,8,0:0:0:0:
50,351,89276,1,10,0:0:0:0:
13,252,89507,1,8,0:1:0:0:
105,179,89738,6,0,B|153:175|153:175|189:195,1,89.9999972534181,6|0,0:0|0:0,0:0:0:0:
252,294,90199,2,0,B|300:298|300:298|336:277,1,89.9999972534181,8|0,0:0|0:0,0:0:0:0:
392,173,90661,1,2,0:0:0:0:
487,240,90892,1,8,0:1:0:0:
487,240,91007,1,8,0:1:0:0:
487,240,91122,1,8,0:0:0:0:
440,347,91353,1,0,0:0:0:0:
345,280,91584,6,0,B|336:234|336:234|350:193,1,89.9999972534181,2|0,0:0|0:0,0:0:0:0:
457,143,92046,2,0,B|466:97|466:97|451:56,1,89.9999972534181,8|0,0:0|0:0,0:0:0:0:
344,8,92507,1,2,0:0:0:0:
263,92,92738,1,8,0:1:0:0:
263,92,92853,1,8,0:1:0:0:
263,92,92969,1,8,0:0:0:0:
166,26,93199,1,0,0:0:0:0:
63,82,93430,6,0,L|81:201,1,112.500004291535,6|0,0:0|0:0,0:0:0:0:
180,266,93892,2,0,L|195:152,1,112.500004291535,12|0,0:0|0:0,0:0:0:0:
286,70,94353,2,0,L|302:182,1,112.500004291535,6|0,0:0|0:0,0:0:0:0:
402,222,94814,1,8,0:0:0:0:
298,275,95046,1,0,0:0:0:0:
366,369,95276,5,2,0:0:0:0:
398,256,95507,1,0,0:0:0:0:
311,177,95738,1,8,0:0:0:0:
342,64,95969,1,0,0:0:0:0:
241,5,96199,1,2,0:0:0:0:
206,116,96430,1,8,0:1:0:0:
206,116,96546,1,8,0:1:0:0:
206,116,96661,1,8,0:0:0:0:
90,134,96892,1,8,0:1:0:0:
19,41,97123,6,0,P|58:18|103:15,1,89.9999972534181,2|0,0:0|0:0,0:0:0:0:
172,107,97584,2,0,P|133:130|88:133,1,89.9999972534181,8|0,0:0|0:0,0:0:0:0:
21,228,98046,1,2,0:0:0:0:
78,330,98276,1,8,0:1:0:0:
78,330,98392,1,8,0:1:0:0:
78,330,98507,1,8,0:0:0:0:
147,235,98738,1,0,0:0:0:0:
221,324,98969,6,0,P|249:291|260:247,1,89.9999972534181,2|0,0:0|0:0,0:0:0:0:
337,169,99430,2,0,P|348:213|377:247,1,89.9999972534181,8|0,0:0|0:0,0:0:0:0:
340,358,99892,1,2,0:0:0:0:
455,338,100123,1,8,0:1:0:0:
455,338,100238,1,8,0:1:0:0:
455,338,100353,1,8,0:0:0:0:
491,226,100584,1,0,0:0:0:0:
415,134,100815,6,0,P|399:82|418:30,1,112.500004291535,6|0,0:0|0:0,0:0:0:0:
306,83,101276,2,0,P|311:138|287:188,1,112.500004291535,12|0,0:0|0:0,0:0:0:0:
175,134,101738,2,0,P|158:81|177:29,1,112.500004291535,6|0,0:0|0:0,0:0:0:0:
57,73,102199,1,8,0:0:0:0:
92,184,102430,1,0,0:0:0:0:
4,262,102661,5,2,0:0:0:0:
115,296,102892,1,0,0:0:0:0:
205,222,103123,1,8,0:0:0:0:
252,328,103353,1,0,0:0:0:0:
344,255,103584,1,2,0:0:0:0:
449,305,103815,1,12,0:1:0:0:
449,305,103930,1,8,0:1:0:0:
449,305,104046,1,8,0:0:0:0:
359,379,104276,1,8,0:1:0:0:
252,328,104507,6,0,P|240:286|250:242,1,89.9999972534181,6|0,0:0|0:0,0:0:0:0:
344,171,104969,2,0,P|353:127|341:84,1,89.9999972534181,8|0,0:0|0:0,0:0:0:0:
246,16,105430,1,2,0:0:0:0:
155,90,105661,1,8,0:1:0:0:
155,90,105776,1,8,0:1:0:0:
155,90,105892,1,8,0:0:0:0:
261,137,106123,1,0,0:0:0:0:
163,203,106353,6,0,P|119:198|82:173,1,89.9999972534181,2|0,0:0|0:0,0:0:0:0:
8,81,106815,2,0,P|44:55|89:51,1,89.9999972534181,8|0,0:0|0:0,0:0:0:0:
197,94,107276,1,2,0:0:0:0:
290,23,107507,1,8,0:1:0:0:
290,23,107622,1,8,0:1:0:0:
290,23,107738,1,8,0:0:0:0:
377,101,107969,1,0,0:0:0:0:
489,51,108199,6,0,L|473:171,1,112.500004291535,6|0,0:0|0:0,0:0:0:0:
361,212,108661,2,0,L|377:99,1,112.500004291535,12|0,0:0|0:0,0:0:0:0:
291,9,109123,2,0,L|272:124,1,112.500004291535,6|0,0:0|0:0,0:0:0:0:
174,174,109584,1,8,0:0:0:0:
158,57,109815,1,0,0:0:0:0:
43,32,110047,5,2,0:0:0:0:
59,149,110276,1,0,0:0:0:0:
1,249,110507,1,8,0:0:0:0:
48,356,110738,1,0,0:0:0:0:
115,260,110969,1,2,0:0:0:0:
219,311,111200,1,12,0:1:0:0:
219,311,111316,1,8,0:1:0:0:
219,311,111430,1,8,0:0:0:0:
271,206,111661,1,8,0:1:0:0:
357,284,111892,6,0,P|387:326|387:382,1,89.9999972534181,2|0,0:0|0:0,0:0:0:0:
471,278,112353,2,0,P|478:233|506:198,1,89.9999972534181,8|0,0:0|0:0,0:0:0:0:
387,193,112816,1,2,0:0:0:0:
465,106,113045,1,8,0:1:0:0:
465,106,113161,1,8,0:1:0:0:
465,106,113276,1,8,0:0:0:0:
383,22,113507,1,0,0:0:0:0:
290,94,113738,6,0,P|277:137|284:181,1,89.9999972534181,2|0,0:0|0:0,0:0:0:0:
395,220,114199,2,0,P|406:263|399:307,1,89.9999972534181,8|0,0:0|0:0,0:0:0:0:
300,370,114661,1,2,0:0:0:0:
202,305,114891,1,8,0:1:0:0:
202,305,115006,1,8,0:1:0:0:
202,305,115123,1,8,0:0:0:0:
106,372,115352,1,0,0:0:0:0:
71,252,115584,6,0,B|93:206|93:206|149:182,1,112.500004291535,6|0,0:1|0:0,0:0:0:0:
273,191,116046,2,0,B|308:206|308:206|341:282,1,112.500004291535,12|0,0:1|0:0,0:0:0:0:
408,376,116507,2,0,B|454:354|454:354|480:295,1,112.500004291535,6|0,0:1|0:0,0:0:0:0:
453,185,116969,1,8,0:0:0:0:
359,115,117199,1,0,0:0:0:0:
457,52,117430,5,2,0:0:0:0:
348,6,117661,1,0,0:0:0:0:
251,72,117892,1,8,0:0:0:0:
146,20,118123,1,0,0:0:0:0:
45,80,118353,1,2,0:0:0:0:
85,189,118584,1,8,0:1:0:0:
85,189,118699,1,8,0:1:0:0:
85,189,118815,1,8,0:0:0:0:
26,289,119046,1,8,0:1:0:0:
122,355,119276,6,0,L|213:345,1,75,6|0,0:0|0:0,0:0:0:0:
270,283,119738,2,0,L|344:291,1,75,8|0,0:0|0:0,0:0:0:0:
427,343,120199,2,0,L|501:334,1,75,2|0,0:0|0:0,0:0:0:0:
453,249,120661,1,8,0:0:0:0:
362,212,120892,1,8,0:1:0:0:
362,212,121007,1,8,0:1:0:0:
362,212,121122,6,0,P|379:180|410:159,1,75,2|0,0:0|0:0,0:0:0:0:
455,71,121469,1,8,0:1:0:0:
455,71,121584,2,0,P|418:72|385:55,1,75,8|0,0:0|0:0,0:0:0:0:
286,63,121930,1,8,0:1:0:0:
286,63,122046,2,0,P|305:93|307:131,1,75,2|0,0:0|0:0,0:0:0:0:
280,172,122392,1,8,0:1:0:0:
280,172,122507,1,8,0:1:0:0:
201,114,122738,1,8,0:1:0:0:
201,114,122853,1,8,0:1:0:0:
201,114,122969,6,0,L|98:131,1,75,2|0,0:0|0:0,0:0:0:0:
160,217,123315,1,8,0:1:0:0:
160,217,123430,2,0,L|263:234,1,75,8|0,0:0|0:0,0:0:0:0:
208,323,123776,1,8,0:1:0:0:
208,323,123892,2,0,L|134:335,1,75,2|0,0:0|0:0,0:0:0:0:
53,279,124238,1,8,0:1:0:0:
53,279,124353,2,0,L|63:239,1,37.5,8|0,0:0|0:0,0:0:0:0:
31,150,124584,2,0,L|21:110,1,37.5
69,20,124815,6,0,P|105:12|140:23,1,75,2|0,0:0|0:0,0:0:0:0:
162,118,125161,1,8,0:1:0:0:
162,118,125276,2,0,L|206:109,1,37.5,8|0,0:0|0:0,0:0:0:0:
241,27,125507,2,0,L|277:34,1,37.5
350,94,125738,2,0,L|394:85,1,37.5,2|0,0:0|0:0,0:0:0:0:
429,3,125969,2,0,L|465:10,1,37.5
500,104,126199,6,0,L|494:122,3,18.75,8|0|0|0,0:0|0:0|0:0|0:0,0:0:0:0:
439,195,126430,2,0,L|444:213,3,18.75
506,284,126661,6,0,L|496:359,1,75,6|0,0:0|0:0,0:0:0:0:
401,383,127122,2,0,L|391:309,1,75,8|0,0:0|0:0,0:0:0:0:
297,277,127584,2,0,L|287:352,1,75,2|0,0:0|0:0,0:0:0:0:
194,381,128045,1,8,0:0:0:0:
205,284,128276,1,8,0:1:0:0:
205,284,128392,1,8,0:1:0:0:
205,284,128507,6,0,P|167:285|132:298,1,75,2|0,0:0|0:0,0:0:0:0:
38,325,128853,1,8,0:1:0:0:
38,325,128969,2,8,P|35:288|45:252,1,75,8|0,0:0|0:0,0:0:0:0:
110,178,129315,1,8,0:1:0:0:
110,178,129430,2,0,P|77:159|41:152,1,75,2|0,0:0|0:0,0:0:0:0:
0,160,129776,1,8,0:1:0:0:
0,160,129892,1,8,0:1:0:0:
14,63,130122,1,8,0:1:0:0:
14,63,130238,1,8,0:1:0:0:
14,63,130353,6,0,L|101:43,1,75,2|0,0:0|0:0,0:0:0:0:
165,105,130699,1,8,0:1:0:0:
165,105,130815,2,0,L|238:121,1,75,8|0,0:0|0:0,0:0:0:0:
315,62,131161,1,8,0:1:0:0:
315,62,131276,2,0,L|388:45,1,75,2|0,0:0|0:0,0:0:0:0:
448,122,131623,1,8,0:1:0:0:
448,122,131738,2,0,L|403:137,1,37.5,8|0,0:0|0:0,0:0:0:0:
349,217,131969,2,0,L|394:232,1,37.5
477,312,132200,6,0,P|452:339|417:350,1,75,2|0,0:0|0:0,0:0:0:0:
326,313,132546,1,8,0:1:0:0:
326,313,132661,2,0,L|277:324,1,37.5,8|0,0:0|0:0,0:0:0:0:
193,362,132892,2,0,L|156:353,1,37.5
61,318,133122,6,0,L|91:302,3,18.75,6|0|0|0,0:0|0:0|0:0|0:0,0:0:0:0:
92,226,133353,2,0,L|58:227,3,18.75
169,271,133584,2,0,L|199:255,3,18.75,6|0|0|0,0:0|0:0|0:0|0:0,0:0:0:0:
201,180,133815,2,0,L|167:181,3,18.75
273,236,134046,5,4,0:0:0:0:
430,341,148815,6,0,L|439:258,1,75,4|0,0:0|0:0,0:0:0:0:
443,217,149161,1,8,0:1:0:0:
443,217,149276,1,8,0:1:0:0:
348,241,149507,1,8,0:1:0:0:
348,241,149623,1,8,0:1:0:0:
348,241,149738,1,8,0:1:0:0:
363,144,149969,1,0,0:0:0:0:
457,119,150199,1,0,0:0:0:0:
473,22,150430,1,0,0:0:0:0:
377,42,150661,6,0,L|296:31,1,75,2|0,0:1|0:0,0:0:0:0:
253,27,151007,1,8,0:1:0:0:
253,27,151123,1,8,0:1:0:0:
166,70,151353,1,8,0:1:0:0:
166,70,151469,1,8,0:1:0:0:
166,71,151584,1,8,0:1:0:0:
80,24,151815,1,0,0:0:0:0:
30,108,152046,1,0,0:0:0:0:
116,155,152277,1,0,0:0:0:0:
67,238,152507,6,0,L|87:332,1,75,2|0,0:1|0:0,0:0:0:0:
93,359,152853,1,8,0:1:0:0:
93,359,152969,1,8,0:1:0:0:
183,323,153199,1,8,0:1:0:0:
183,323,153315,1,8,0:1:0:0:
183,323,153430,1,8,0:1:0:0:
261,381,153661,1,0,0:0:0:0:
350,341,153892,1,0,0:0:0:0:
438,382,154123,1,0,0:0:0:0:
508,314,154353,6,0,L|489:233,1,75,2|0,0:1|0:0,0:0:0:0:
482,192,154699,1,8,0:1:0:0:
482,192,154815,1,8,0:1:0:0:
394,234,155046,1,8,0:1:0:0:
394,234,155161,1,8,0:1:0:0:
394,234,155276,1,8,0:1:0:0:
342,151,155507,1,0,0:0:0:0:
255,196,155738,1,0,0:0:0:0:
197,117,155969,1,0,0:0:0:0:
125,51,156199,6,0,P|87:51|53:66,1,75,2|0,0:0|0:0,0:0:0:0:
8,140,156546,1,8,0:1:0:0:
8,140,156661,2,0,P|42:153|79:154,1,75,8|0,0:0|0:0,0:0:0:0:
166,136,157007,1,8,0:1:0:0:
166,136,157122,2,0,P|165:173|150:207,1,75,2|0,0:0|0:0,0:0:0:0:
131,242,157469,1,8,0:1:0:0:
131,242,157584,1,8,0:0:0:0:
27,252,157815,1,0,0:0:0:0:
67,340,158045,6,0,L|163:351,1,75,2|0,0:0|0:0,0:0:0:0:
212,305,158392,1,8,0:1:0:0:
212,305,158507,2,0,L|286:296,1,75,8|0,0:0|0:0,0:0:0:0:
356,346,158853,1,8,0:1:0:0:
356,346,158969,2,0,L|430:354,1,75,2|0,0:0|0:0,0:0:0:0:
474,333,159315,1,8,0:1:0:0:
474,333,159430,1,8,0:0:0:0:
430,245,159661,1,0,0:0:0:0:
503,181,159892,5,2,0:0:0:0:
393,153,160123,1,8,0:1:0:0:
393,153,160238,1,8,0:1:0:0:
393,153,160353,1,8,0:0:0:0:
461,63,160584,1,8,0:1:0:0:
461,63,160699,1,8,0:1:0:0:
461,63,160815,1,2,0:0:0:0:
350,40,161046,1,8,0:1:0:0:
350,40,161161,1,8,0:1:0:0:
350,40,161276,1,8,0:0:0:0:
257,104,161507,1,8,0:1:0:0:
257,104,161623,1,8,0:1:0:0:
257,104,161738,5,12,0:1:0:0:
295,214,162430,5,8,0:1:0:0:
183,197,162661,1,8,0:1:0:0:
154,88,162892,2,0,L|161:63,1,18.75,2|8,0:0|0:1,0:0:0:0:
154,88,163007,1,0,0:0:0:0:
154,88,163123,1,8,0:0:0:0:
43,107,163353,1,8,0:1:0:0:
144,195,163584,6,0,B|157:244|157:244|142:280,1,89.9999972534181,6|0,0:0|0:0,0:0:0:0:
45,216,164046,2,0,B|30:179|30:179|43:130,1,89.9999972534181,8|0,0:0|0:0,0:0:0:0:
154,88,164507,1,2,0:0:0:0:
246,159,164738,1,8,0:1:0:0:
246,159,164853,1,8,0:1:0:0:
246,159,164969,1,8,0:0:0:0:
302,52,165199,1,0,0:0:0:0:
363,151,165430,6,0,B|393:189|393:189|398:230,1,89.9999972534181,2|0,0:0|0:0,0:0:0:0:
457,130,165892,2,0,B|487:92|487:92|492:50,1,89.9999972534181,8|0,0:0|0:0,0:0:0:0:
373,49,166353,1,2,0:0:0:0:
457,130,166584,1,8,0:1:0:0:
457,130,166699,1,8,0:1:0:0:
457,130,166815,1,8,0:0:0:0:
398,230,167046,1,0,0:0:0:0:
471,320,167276,6,0,L|361:341,1,112.500004291535,6|0,0:0|0:0,0:0:0:0:
295,235,167738,2,0,L|183:217,1,112.500004291535,12|0,0:0|0:0,0:0:0:0:
151,336,168199,2,0,L|39:355,1,112.500004291535,6|0,0:0|0:0,0:0:0:0:
6,250,168661,1,8,0:0:0:0:
112,203,168892,1,0,0:0:0:0:
35,114,169123,5,2,0:0:0:0:
141,65,169353,1,0,0:0:0:0:
217,153,169584,1,8,0:0:0:0:
320,99,169815,1,0,0:0:0:0:
406,176,170046,1,2,0:0:0:0:
498,104,170276,1,8,0:1:0:0:
498,104,170391,1,8,0:1:0:0:
498,104,170507,1,8,0:0:0:0:
416,19,170738,1,8,0:1:0:0:
320,99,170969,6,0,P|323:143|346:181,1,89.9999972534181,2|0,0:0|0:0,0:0:0:0:
427,266,171430,2,0,P|388:289|343:292,1,89.9999972534181,8|0,0:0|0:0,0:0:0:0:
243,232,171892,1,2,0:0:0:0:
168,322,172123,1,8,0:1:0:0:
168,322,172238,1,8,0:1:0:0:
168,322,172353,1,8,0:0:0:0:
66,264,172584,1,0,0:0:0:0:
127,164,172815,6,0,P|158:132|203:113,1,89.9999972534181,2|0,0:0|0:0,0:0:0:0:
303,58,173276,2,0,P|271:26|227:7,1,89.9999972534181,8|0,0:0|0:0,0:0:0:0:
116,36,173738,1,2,0:0:0:0:
199,113,173968,1,8,0:1:0:0:
199,113,174084,1,8,0:1:0:0:
199,113,174199,1,8,0:0:0:0:
113,193,174430,1,0,0:0:0:0:
113,316,174661,6,0,P|157:310|208:264,1,112.500004291535,6|0,0:0|0:0,0:0:0:0:
280,166,175123,2,0,P|324:172|374:218,1,112.500004291535,12|0,0:0|0:0,0:0:0:0:
418,331,175584,2,0,P|462:325|515:277,1,112.500004291535,6|0,0:0|0:0,0:0:0:0:
448,177,176045,1,8,0:0:0:0:
507,75,176276,1,0,0:0:0:0:
399,27,176507,5,2,0:0:0:0:
512,52,176738,1,0,0:0:0:0:
459,156,176969,1,8,0:0:0:0:
344,130,177199,1,0,0:0:0:0:
362,245,177430,1,2,0:0:0:0:
256,296,177661,1,12,0:1:0:0:
256,296,177776,1,8,0:1:0:0:
256,296,177892,1,8,0:0:0:0:
348,368,178123,1,8,0:1:0:0:
256,296,178353,6,0,P|244:254|254:210,1,89.9999972534181,6|0,0:0|0:0,0:0:0:0:
348,140,178815,2,0,P|359:97|350:53,1,89.9999972534181,8|0,0:0|0:0,0:0:0:0:
242,8,179276,1,2,0:0:0:0:
157,89,179507,1,8,0:1:0:0:
157,89,179622,1,8,0:1:0:0:
157,89,179738,1,8,0:0:0:0:
59,24,179969,1,0,0:0:0:0:
63,141,180199,6,0,P|90:176|131:193,1,89.9999972534181,2|0,0:0|0:0,0:0:0:0:
234,251,180661,2,0,P|206:286|165:303,1,89.9999972534181,8|0,0:0|0:0,0:0:0:0:
52,277,181123,1,2,0:0:0:0:
105,381,181353,1,8,0:1:0:0:
105,381,181469,1,8,0:1:0:0:
105,381,181584,1,8,0:0:0:0:
151,273,181815,1,0,0:0:0:0:
240,347,182046,6,0,L|261:226,1,112.500004291535,6|0,0:0|0:0,0:0:0:0:
367,176,182507,2,0,L|385:291,1,112.500004291535,12|0,0:0|0:0,0:0:0:0:
485,360,182969,2,0,L|504:242,1,112.500004291535,6|0,0:0|0:0,0:0:0:0:
457,144,183430,1,8,0:0:0:0:
511,40,183661,1,0,0:0:0:0:
400,4,183892,5,2,0:0:0:0:
341,105,184123,1,0,0:0:0:0:
240,44,184353,1,8,0:0:0:0:
147,115,184584,1,0,0:0:0:0:
69,27,184815,1,2,0:0:0:0:
2,123,185046,1,12,0:1:0:0:
2,123,185161,1,8,0:1:0:0:
2,123,185276,1,8,0:0:0:0:
66,221,185507,1,8,0:1:0:0:
157,147,185738,6,0,P|187:189|187:245,1,89.9999972534181,2|0,0:0|0:0,0:0:0:0:
99,300,186199,2,0,P|92:255|65:220,1,89.9999972534181,8|0,0:0|0:0,0:0:0:0:
2,123,186661,1,2,0:0:0:0:
107,73,186892,1,8,0:1:0:0:
107,73,187007,1,8,0:1:0:0:
107,73,187123,1,8,0:0:0:0:
172,170,187353,1,0,0:0:0:0:
275,115,187584,6,0,P|318:108|362:120,1,89.9999972534181,2|0,0:0|0:0,0:0:0:0:
399,231,188046,2,0,P|443:238|487:226,1,89.9999972534181,8|0,0:0|0:0,0:0:0:0:
507,110,188507,1,2,0:0:0:0:
392,136,188739,1,8,0:1:0:0:
392,136,188854,1,8,0:1:0:0:
392,136,188969,1,8,0:0:0:0:
356,24,189199,1,0,0:0:0:0:
238,37,189431,6,0,B|231:90|231:90|269:139,1,112.500004291535,6|0,0:1|0:0,0:0:0:0:
392,136,189892,2,0,B|416:173|416:173|405:241,1,112.500004291535,12|0,0:1|0:0,0:0:0:0:
274,269,190353,2,0,B|266:314|266:314|304:370,1,112.500004291535,6|0,0:1|0:0,0:0:0:0:
403,376,190815,1,8,0:0:0:0:
484,292,191046,1,0,0:0:0:0:
385,228,191276,5,2,0:0:0:0:
274,265,191507,1,0,0:0:0:0:
214,164,191738,1,8,0:0:0:0:
102,199,191969,1,0,0:0:0:0:
63,88,192199,1,2,0:0:0:0:
175,56,192430,1,8,0:1:0:0:
175,56,192546,1,8,0:1:0:0:
175,56,192661,1,12,0:1:0:0:
286,89,192892,1,8,0:1:0:0:
394,46,193123,6,0,B|406:90|406:90|395:141,1,89.9999972534181,6|0,0:0|0:0,0:0:0:0:
289,179,193584,2,0,B|277:223|277:223|288:274,1,89.9999972534181,8|0,0:0|0:0,0:0:0:0:
391,316,194046,1,2,0:0:0:0:
290,375,194276,1,8,0:1:0:0:
290,375,194392,1,8,0:1:0:0:
290,375,194507,1,8,0:0:0:0:
190,314,194738,1,0,0:0:0:0:
85,366,194969,6,0,B|70:320|70:320|82:280,1,89.9999972534181,2|0,0:0|0:0,0:0:0:0:
192,228,195430,2,0,B|204:267|204:267|189:313,1,89.9999972534181,8|0,0:0|0:0,0:0:0:0:
290,375,195892,1,2,0:0:0:0:
336,267,196123,1,8,0:1:0:0:
336,267,196238,1,8,0:1:0:0:
336,267,196353,1,8,0:0:0:0:
448,300,196584,1,0,0:0:0:0:
485,181,196815,6,0,B|427:172|427:172|380:199,1,112.500004291535,6|0,0:0|0:0,0:0:0:0:
318,306,197276,2,0,B|255:315|255:315|212:290,1,112.500004291535,12|0,0:0|0:0,0:0:0:0:
139,190,197738,2,0,B|79:178|79:178|34:204,1,112.500004291535,6|0,0:0|0:0,0:0:0:0:
19,315,198199,1,8,0:0:0:0:
130,349,198430,1,0,0:0:0:0:
215,269,198661,5,2,0:0:0:0:
194,153,198892,1,0,0:0:0:0:
83,119,199123,1,8,0:0:0:0:
7,199,199354,1,0,0:0:0:0:
116,240,199584,1,2,0:0:0:0:
194,153,199815,1,8,0:1:0:0:
194,153,199930,1,8,0:1:0:0:
194,153,200046,1,8,0:0:0:0:
177,37,200276,1,8,0:1:0:0:
60,15,200507,6,0,P|49:62|77:113,1,89.9999972534181,6|0,0:0|0:0,0:0:0:0:
165,158,200969,2,0,P|179:199|167:242,1,89.9999972534181,8|0,0:0|0:0,0:0:0:0:
69,307,201430,1,2,0:0:0:0:
160,379,201661,1,8,0:1:0:0:
160,379,201776,1,8,0:1:0:0:
160,379,201892,1,8,0:0:0:0:
251,306,202123,1,0,0:0:0:0:
352,361,202353,6,0,P|373:321|371:277,1,89.9999972534181,2|0,0:0|0:0,0:0:0:0:
279,203,202815,2,0,P|276:158|297:119,1,89.9999972534181,8|0,0:0|0:0,0:0:0:0:
402,67,203276,1,2,0:0:0:0:
380,182,203507,1,8,0:1:0:0:
380,182,203623,1,8,0:1:0:0:
380,182,203738,1,8,0:0:0:0:
475,250,203969,1,0,0:0:0:0:
477,373,204199,6,0,L|365:359,1,112.500004291535,6|0,0:0|0:0,0:0:0:0:
274,275,204661,2,0,L|385:263,1,112.500004291535,12|0,0:0|0:0,0:0:0:0:
470,171,205123,2,0,L|358:158,1,112.500004291535,6|0,0:0|0:0,0:0:0:0:
286,68,205584,1,8,0:0:0:0:
199,146,205815,1,0,0:0:0:0:
145,41,206046,5,2,0:0:0:0:
32,73,206276,1,8,0:1:0:0:
82,178,206507,1,8,0:1:0:0:
25,280,206738,1,8,0:1:0:0:
81,382,206969,1,10,0:1:0:0:
183,327,207199,1,8,0:1:0:0:
183,327,207315,1,8,0:1:0:0:
183,327,207430,1,8,0:0:0:0:
286,382,207661,1,8,0:1:0:0:
267,266,207892,6,0,B|315:262|315:262|351:282,1,89.9999972534181,6|0,0:0|0:0,0:0:0:0:
424,373,208353,2,0,B|472:377|472:377|508:356,1,89.9999972534181,8|0,0:0|0:0,0:0:0:0:
463,247,208815,1,2,0:0:0:0:
511,140,209046,1,8,0:1:0:0:
511,140,209161,1,8,0:1:0:0:
511,140,209276,1,8,0:0:0:0:
434,51,209507,1,0,0:0:0:0:
376,153,209738,6,0,B|330:162|330:162|289:148,1,89.9999972534181,2|0,0:0|0:0,0:0:0:0:
316,33,210200,2,0,B|270:24|270:24|229:39,1,89.9999972534181,8|0,0:0|0:0,0:0:0:0:
125,92,210661,1,2,0:0:0:0:
24,31,210892,1,8,0:1:0:0:
24,31,211007,1,8,0:1:0:0:
24,31,211123,1,8,0:0:0:0:
7,146,211353,1,0,0:0:0:0:
129,124,211584,6,0,L|144:241,1,112.500004291535,6|0,0:0|0:0,0:0:0:0:
24,191,212046,2,0,L|7:312,1,112.500004291535,12|0,0:0|0:0,0:0:0:0:
127,269,212507,2,0,L|145:386,1,112.500004291535,6|0,0:0|0:0,0:0:0:0:
242,350,212968,1,8,0:0:0:0:
356,378,213200,1,0,0:0:0:0:
420,280,213430,5,2,0:0:0:0:
340,365,213661,1,0,0:0:0:0:
302,254,213892,1,8,0:0:0:0:
380,167,214123,1,0,0:0:0:0:
494,191,214353,1,2,0:0:0:0:
420,280,214584,1,8,0:1:0:0:
420,280,214700,1,8,0:1:0:0:
420,280,214815,1,8,0:0:0:0:
302,254,215045,1,8,0:1:0:0:
225,164,215277,6,0,P|264:141|309:138,1,89.9999972534181,2|0,0:0|0:0,0:0:0:0:
390,54,215738,2,0,P|351:31|306:28,1,89.9999972534181,8|0,0:0|0:0,0:0:0:0:
196,68,216200,1,2,0:0:0:0:
93,11,216430,1,8,0:1:0:0:
93,11,216546,1,8,0:1:0:0:
93,11,216661,1,8,0:0:0:0:
3,86,216892,1,0,0:0:0:0:
45,195,217123,6,0,P|87:208|131:201,1,89.9999972534181,2|0,0:0|0:0,0:0:0:0:
186,98,217584,2,0,P|228:84|272:91,1,89.9999972534181,8|0,0:0|0:0,0:0:0:0:
383,130,218046,1,2,0:0:0:0:
477,61,218277,1,8,0:1:0:0:
477,61,218392,1,8,0:1:0:0:
477,61,218507,1,8,0:0:0:0:
367,19,218738,1,0,0:0:0:0:
265,89,218969,6,0,P|259:144|282:195,1,112.500004291535,6|0,0:0|0:0,0:0:0:0:
405,197,219430,2,0,P|410:252|387:302,1,112.500004291535,12|0,0:0|0:0,0:0:0:0:
286,376,219892,2,0,P|269:323|282:269,1,112.500004291535,6|0,0:0|0:0,0:0:0:0:
180,201,220353,1,8,0:0:0:0:
72,246,220584,1,0,0:0:0:0:
156,327,220815,5,2,0:0:0:0:
51,379,221046,1,0,0:0:0:0:
2,272,221277,1,8,0:0:0:0:
107,222,221507,1,0,0:0:0:0:
58,115,221738,1,2,0:0:0:0:
163,65,221969,1,12,0:1:0:0:
163,65,222084,1,8,0:1:0:0:
163,65,222200,1,8,0:0:0:0:
215,168,222430,1,8,0:1:0:0:
319,220,222661,6,0,P|331:178|321:134,1,89.9999972534181,6|0,0:0|0:0,0:0:0:0:
204,147,223123,2,0,P|194:103|206:60,1,89.9999972534181,8|0,0:0|0:0,0:0:0:0:
317,21,223584,1,2,0:0:0:0:
419,78,223815,1,8,0:1:0:0:
419,78,223930,1,8,0:1:0:0:
419,78,224046,1,8,0:0:0:0:
320,133,224277,1,0,0:0:0:0:
408,209,224507,6,0,P|403:253|378:290,1,89.9999972534181,2|0,0:0|0:0,0:0:0:0:
286,364,224969,2,0,P|260:328|256:283,1,89.9999972534181,8|0,0:0|0:0,0:0:0:0:
306,177,225430,1,2,0:0:0:0:
192,206,225661,1,8,0:1:0:0:
192,206,225776,1,8,0:1:0:0:
192,206,225892,1,8,0:0:0:0:
163,92,226123,1,0,0:0:0:0:
54,50,226353,6,0,L|70:162,1,112.500004291535,6|0,0:0|0:0,0:0:0:0:
181,203,226815,2,0,L|163:92,1,112.500004291535,12|0,0:0|0:0,0:0:0:0:
257,11,227277,2,0,L|274:123,1,112.500004291535,6|0,0:0|0:0,0:0:0:0:
348,186,227738,1,8,0:0:0:0:
380,73,227969,1,0,0:0:0:0:
475,139,228199,5,2,0:0:0:0:
391,56,228430,1,0,0:0:0:0:
355,167,228661,1,8,0:0:0:0:
440,247,228892,1,0,0:0:0:0:
402,358,229123,1,2,0:0:0:0:
286,374,229354,1,12,0:1:0:0:
286,374,229470,1,8,0:1:0:0:
286,374,229584,1,8,0:0:0:0:
238,266,229815,1,8,0:1:0:0:
327,190,230046,6,0,P|357:232|357:288,1,89.9999972534181,2|0,0:0|0:0,0:0:0:0:
271,345,230507,2,0,P|243:309|237:265,1,89.9999972534181,8|0,0:0|0:0,0:0:0:0:
219,148,230970,1,2,0:0:0:0:
127,219,231199,1,8,0:1:0:0:
127,219,231315,1,8,0:1:0:0:
127,219,231430,1,8,0:0:0:0:
41,139,231661,1,0,0:0:0:0:
89,32,231892,6,0,P|133:25|175:38,1,89.9999972534181,2|0,0:0|0:0,0:0:0:0:
218,147,232353,2,0,P|261:158|305:151,1,89.9999972534181,8|0,0:0|0:0,0:0:0:0:
345,40,232815,1,2,0:0:0:0:
459,63,233045,1,8,0:1:0:0:
459,63,233160,1,8,0:1:0:0:
459,63,233277,1,8,0:0:0:0:
431,175,233506,1,0,0:0:0:0:
326,243,233738,6,0,B|342:278|342:278|413:298,1,112.500004291535,6|0,0:1|0:0,0:0:0:0:
431,175,234199,2,0,B|416:140|416:140|339:121,1,112.500004291535,12|0,0:1|0:0,0:0:0:0:
252,206,234661,2,0,B|206:184|206:184|194:123,1,112.500004291535,6|0,0:1|0:0,0:0:0:0:
297,38,235123,1,8,0:0:0:0:
184,8,235353,1,0,0:0:0:0:
97,86,235584,5,2,0:0:0:0:
129,198,235815,1,0,0:0:0:0:
28,258,236046,1,8,0:0:0:0:
59,370,236277,1,0,0:0:0:0:
161,313,236507,1,2,0:0:0:0:
256,380,236738,1,8,0:1:0:0:
256,380,236853,1,8,0:1:0:0:
256,380,236969,1,8,0:0:0:0:
356,319,237200,1,8,0:1:0:0:
442,362,237430,6,0,P|453:326|446:290,1,75,6|0,0:0|0:0,0:0:0:0:
368,229,237892,2,0,P|358:194|365:158,1,75,8|0,0:0|0:0,0:0:0:0:
446,102,238353,2,0,P|457:67|450:31,1,75,2|0,0:0|0:0,0:0:0:0:
360,71,238815,1,8,0:0:0:0:
271,30,239046,1,8,0:1:0:0:
271,30,239161,1,8,0:1:0:0:
271,30,239276,6,0,P|260:64|267:101,1,75,2|0,0:0|0:0,0:0:0:0:
306,191,239623,1,8,0:1:0:0:
306,191,239738,2,0,P|271:201|234:194,1,75,8|0,0:0|0:0,0:0:0:0:
143,158,240084,1,8,0:1:0:0:
143,158,240199,2,0,P|135:194|146:229,1,75,2|0,0:0|0:0,0:0:0:0:
169,273,240546,1,8,0:1:0:0:
169,273,240661,1,8,0:1:0:0:
112,352,240892,1,8,0:1:0:0:
112,352,241007,1,8,0:1:0:0:
112,352,241123,6,0,L|38:337,1,75,2|0,0:0|0:0,0:0:0:0:
100,262,241469,1,8,0:1:0:0:
100,262,241584,2,0,L|173:247,1,75,8|0,0:0|0:0,0:0:0:0:
116,168,241930,1,8,0:1:0:0:
116,168,242046,2,0,L|42:153,1,75,2|0,0:0|0:0,0:0:0:0:
13,60,242392,1,8,0:1:0:0:
13,60,242507,2,0,L|59:50,1,37.5,8|0,0:0|0:0,0:0:0:0:
148,87,242738,2,0,L|184:94,1,37.5
281,54,242969,6,0,P|292:89|285:125,1,75,2|0,0:0|0:0,0:0:0:0:
237,207,243315,1,8,0:1:0:0:
237,207,243430,2,0,L|245:252,1,37.5,8|0,0:0|0:0,0:0:0:0:
320,298,243661,2,0,L|326:261,1,37.5
404,218,243892,2,0,L|412:263,1,37.5,2|0,0:0|0:0,0:0:0:0:
487,306,244123,2,0,L|493:269,1,37.5
509,186,244353,6,0,L|491:180,3,18.75,8|0|0|0,0:0|0:0|0:0|0:0,0:0:0:0:
418,125,244584,2,0,L|400:130,3,18.75
318,171,244815,6,0,L|308:96,1,75,6|0,0:0|0:0,0:0:0:0:
223,47,245276,2,0,L|213:121,1,75,8|0,0:0|0:0,0:0:0:0:
129,172,245738,2,0,L|119:97,1,75,2|0,0:0|0:0,0:0:0:0:
25,68,246199,1,8,0:0:0:0:
15,165,246430,1,8,0:1:0:0:
15,165,246546,1,8,0:1:0:0:
15,166,246661,6,0,P|52:165|87:152,1,75,2|0,0:0|0:0,0:0:0:0:
183,134,247007,1,8,0:1:0:0:
183,134,247123,2,0,P|182:171|169:206,1,75,8|0,0:0|0:0,0:0:0:0:
154,302,247469,1,8,0:1:0:0:
154,302,247584,2,0,P|191:301|226:288,1,75,2|0,0:0|0:0,0:0:0:0:
263,257,247930,1,8,0:1:0:0:
263,257,248046,1,8,0:1:0:0:
353,291,248276,1,8,0:1:0:0:
353,291,248392,1,8,0:1:0:0:
353,291,248507,6,0,L|427:299,1,75,2|0,0:0|0:0,0:0:0:0:
467,210,248853,1,8,0:1:0:0:
467,210,248969,2,0,L|392:201,1,75,8|0,0:0|0:0,0:0:0:0:
375,105,249315,1,8,0:1:0:0:
375,105,249430,2,0,L|449:113,1,75,2|0,0:0|0:0,0:0:0:0:
481,20,249776,1,8,0:1:0:0:
481,20,249892,2,0,L|444:26,1,37.5,8|0,0:0|0:0,0:0:0:0:
357,85,250123,2,0,L|320:78,1,37.5
223,38,250354,6,0,P|212:73|219:109,1,75,2|0,0:0|0:0,0:0:0:0:
279,186,250699,1,8,0:1:0:0:
279,186,250815,2,0,L|272:222,1,37.5,8|0,0:0|0:0,0:0:0:0:
182,274,251046,2,0,L|188:311,1,37.5
278,363,251276,6,0,L|306:356,15,18.75,6|0|0|0|0|0|0|0|0|0|0|0|0|0|0|0,0:0|0:0|0:0|0:0|0:0|0:0|0:0|0:0|0:0|0:0|0:0|0:0|0:0|0:0|0:0|0:0,0:0:0:0:
369,308,252199,6,0,L|387:312,15,18.75,6|0|0|0|0|0|0|0|0|0|0|0|0|0|0|0,0:0|0:0|0:0|0:0|0:0|0:0|0:0|0:0|0:0|0:0|0:0|0:0|0:0|0:0|0:0|0:0,0:0:0:0:
461,364,253123,6,0,L|479:359,15,18.75,6|0|0|0|0|0|0|0|0|0|0|0|0|0|0|0,0:0|0:0|0:0|0:0|0:0|0:0|0:0|0:0|0:0|0:0|0:0|0:0|0:0|0:0|0:0|0:0,0:0:0:0:
470,271,254046,5,6,0:0:0:0:
386,317,254969,5,6,0:0:0:0:
305,264,255892,5,6,0:0:0:0:
256,192,256007,12,0,262353,0:0:0:0:
