osu file format v14

[General]
AudioFilename: ctw.ogg
AudioLeadIn: 0
PreviewTime: 82691
Countdown: 0
SampleSet: Soft
StackLeniency: 0.7
Mode: 3
LetterboxInBreaks: 0
SpecialStyle: 0
WidescreenStoryboard: 0

[Editor]
DistanceSpacing: 0.8
BeatDivisor: 4
GridSize: 32
TimelineZoom: 2.7

[Metadata]
Title:Colorful Toys Wonderland
TitleUnicode:カラフルトイズ・ワンダーランド
Artist:Honjou Daikichi
ArtistUnicode:本城ダイキチ
Creator:MJH
Version:Make-believe-realize! // 5K
Source:pop'n music éclale
Tags:Video Game Instrumental Other melodic pop chiptune chip rock ポップン ポップンミュージック popn eclale pnm arcade default songs お題に挑んでクリエイト!ポップンオリジナル楽曲コンテスト☆大収録祭 odai ni idonde create! pop'n original gakkyoku contest daishuurokusai ファンタジー fantasy Honjo KONAMI BEMANI GFCA-424 LC-2288 pop'n music éclale Original Soundtrack disc 2 disc2 LeiN-
BeatmapID:4263721
BeatmapSetID:2043077

[Difficulty]
HPDrainRate:8.5
CircleSize:5
OverallDifficulty:8
ApproachRate:5
SliderMultiplier:1.4
SliderTickRate:1

[Events]
//Background and Video events
0,0,"BG.jpg",0,0
//Break Periods
//Storyboard Layer 0 (Background)
//Storyboard Layer 1 (Fail)
//Storyboard Layer 2 (Pass)
//Storyboard Layer 3 (Foreground)
//Storyboard Layer 4 (Overlay)
//Storyboard Sound Samples

[TimingPoints]
692,333.333333,2,2,1,40,1,0
15358,333.333333,4,2,1,40,1,0
44692,333.333333,3,2,1,40,1,0
47358,333.333333,3,2,1,40,1,0
56358,333.333333,2,2,1,40,1,0
59024,-100,4,2,1,40,0,1
59080,-100,4,2,1,40,0,0
69691,-100,4,2,1,40,0,1
69746,-100,4,2,1,40,0,0
83025,333.333333,4,2,1,40,1,0
83025,-100,4,2,1,40,0,1
83080,-100,4,2,1,40,0,0
93691,-100,4,2,1,40,0,1
99024,-100,4,2,1,40,0,0
101691,333.333333,2,2,1,40,1,0
104358,333.333333,4,2,1,40,1,0

[HitObjects]
51,192,469,5,0,0:0:0:0:
255,192,469,1,0,0:0:0:0:
459,192,469,1,0,0:0:0:0:
51,192,580,1,0,0:0:0:0:
255,192,580,1,0,0:0:0:0:
459,192,580,1,0,0:0:0:0:
153,192,692,1,0,0:0:0:0:
255,192,692,1,0,0:0:0:0:
357,192,747,1,0,0:0:0:0:
153,192,803,1,0,0:0:0:0:
459,192,803,128,0,1136:0:0:0:0:
51,192,1136,1,0,0:0:0:0:
255,192,1136,1,0,0:0:0:0:
255,192,1247,1,0,0:0:0:0:
153,192,1358,1,0,0:0:0:0:
357,192,1358,1,0,0:0:0:0:
459,192,1358,1,0,0:0:0:0:
153,192,1580,1,0,0:0:0:0:
255,192,1580,1,0,0:0:0:0:
459,192,1691,1,0,0:0:0:0:
357,192,1747,1,0,0:0:0:0:
51,192,1803,1,0,0:0:0:0:
255,192,1803,1,0,0:0:0:0:
357,192,1914,1,0,0:0:0:0:
51,192,2025,1,0,0:0:0:0:
153,192,2025,1,0,0:0:0:0:
255,192,2080,1,0,0:0:0:0:
51,192,2136,1,0,0:0:0:0:
357,192,2136,128,0,2469:0:0:0:0:
255,192,2358,1,0,0:0:0:0:
153,192,2469,1,0,0:0:0:0:
459,192,2469,1,0,0:0:0:0:
459,192,2580,1,0,0:0:0:0:
51,192,2691,1,0,0:0:0:0:
255,192,2691,1,0,0:0:0:0:
357,192,2691,1,0,0:0:0:0:
255,192,2914,1,0,0:0:0:0:
459,192,2914,1,0,0:0:0:0:
153,192,2969,1,0,0:0:0:0:
51,192,3025,1,0,0:0:0:0:
255,192,3025,1,0,0:0:0:0:
357,192,3136,1,0,0:0:0:0:
357,192,3247,1,0,0:0:0:0:
51,192,3358,1,0,0:0:0:0:
153,192,3358,1,0,0:0:0:0:
357,192,3358,1,0,0:0:0:0:
255,192,3469,1,0,0:0:0:0:
153,192,3580,1,0,0:0:0:0:
459,192,3580,1,0,0:0:0:0:
255,192,3636,1,0,0:0:0:0:
357,192,3691,1,0,0:0:0:0:
51,192,3803,1,0,0:0:0:0:
153,192,3803,1,0,0:0:0:0:
255,192,3914,1,0,0:0:0:0:
51,192,4025,1,0,0:0:0:0:
357,192,4025,1,0,0:0:0:0:
459,192,4025,1,0,0:0:0:0:
153,192,4080,1,0,0:0:0:0:
255,192,4136,128,0,4469:0:0:0:0:
153,192,4469,1,0,0:0:0:0:
357,192,4469,1,0,0:0:0:0:
357,192,4580,1,0,0:0:0:0:
153,192,4691,128,0,5025:0:0:0:0:
255,192,4691,1,0,0:0:0:0:
459,192,4691,1,0,0:0:0:0:
51,192,5025,1,0,0:0:0:0:
357,192,5025,1,0,0:0:0:0:
459,192,5025,1,0,0:0:0:0:
255,192,5136,1,0,0:0:0:0:
255,192,5247,1,0,0:0:0:0:
51,192,5358,1,0,0:0:0:0:
153,192,5358,1,0,0:0:0:0:
357,192,5358,1,0,0:0:0:0:
51,192,5525,1,0,0:0:0:0:
153,192,5580,1,0,0:0:0:0:
357,192,5636,1,0,0:0:0:0:
153,192,5691,1,0,0:0:0:0:
255,192,5691,1,0,0:0:0:0:
459,192,5691,1,0,0:0:0:0:
459,192,5858,1,0,0:0:0:0:
255,192,5914,1,0,0:0:0:0:
51,192,5969,1,0,0:0:0:0:
255,192,6025,1,0,0:0:0:0:
357,192,6025,1,0,0:0:0:0:
153,192,6080,1,0,0:0:0:0:
51,192,6136,128,0,6469:0:0:0:0:
357,192,6136,1,0,0:0:0:0:
255,192,6469,1,0,0:0:0:0:
459,192,6469,1,0,0:0:0:0:
255,192,6580,1,0,0:0:0:0:
51,192,6691,1,0,0:0:0:0:
153,192,6691,1,0,0:0:0:0:
357,192,6691,1,0,0:0:0:0:
459,192,6747,1,0,0:0:0:0:
255,192,6803,1,0,0:0:0:0:
153,192,6914,1,0,0:0:0:0:
357,192,6914,1,0,0:0:0:0:
51,192,7025,1,0,0:0:0:0:
153,192,7080,1,0,0:0:0:0:
255,192,7136,1,0,0:0:0:0:
459,192,7136,1,0,0:0:0:0:
153,192,7247,1,0,0:0:0:0:
357,192,7358,1,0,0:0:0:0:
459,192,7358,1,0,0:0:0:0:
255,192,7414,1,0,0:0:0:0:
153,192,7469,128,0,7803:0:0:0:0:
459,192,7469,1,0,0:0:0:0:
255,192,7691,1,0,0:0:0:0:
51,192,7803,1,0,0:0:0:0:
357,192,7803,1,0,0:0:0:0:
51,192,7914,1,0,0:0:0:0:
153,192,8025,1,0,0:0:0:0:
255,192,8025,1,0,0:0:0:0:
459,192,8025,1,0,0:0:0:0:
51,192,8247,1,0,0:0:0:0:
255,192,8247,1,0,0:0:0:0:
357,192,8303,1,0,0:0:0:0:
255,192,8358,1,0,0:0:0:0:
459,192,8358,1,0,0:0:0:0:
153,192,8469,1,0,0:0:0:0:
153,192,8580,1,0,0:0:0:0:
153,192,8691,1,0,0:0:0:0:
459,192,8691,1,0,0:0:0:0:
357,192,8747,1,0,0:0:0:0:
255,192,8803,128,0,9136:0:0:0:0:
459,192,8803,1,0,0:0:0:0:
51,192,9136,1,0,0:0:0:0:
357,192,9136,1,0,0:0:0:0:
357,192,9247,1,0,0:0:0:0:
153,192,9358,1,0,0:0:0:0:
255,192,9358,1,0,0:0:0:0:
459,192,9358,1,0,0:0:0:0:
153,192,9469,1,0,0:0:0:0:
51,192,9525,1,0,0:0:0:0:
255,192,9580,1,0,0:0:0:0:
357,192,9580,1,0,0:0:0:0:
357,192,9691,1,0,0:0:0:0:
255,192,9747,1,0,0:0:0:0:
153,192,9803,1,0,0:0:0:0:
459,192,9803,1,0,0:0:0:0:
51,192,10025,1,0,0:0:0:0:
153,192,10025,1,0,0:0:0:0:
357,192,10025,128,0,10469:0:0:0:0:
153,192,10358,1,0,0:0:0:0:
51,192,10469,1,0,0:0:0:0:
255,192,10469,1,0,0:0:0:0:
255,192,10580,1,0,0:0:0:0:
153,192,10691,1,0,0:0:0:0:
357,192,10691,1,0,0:0:0:0:
459,192,10691,1,0,0:0:0:0:
153,192,10803,1,0,0:0:0:0:
51,192,10914,1,0,0:0:0:0:
357,192,10914,1,0,0:0:0:0:
357,192,11025,1,0,0:0:0:0:
153,192,11136,1,0,0:0:0:0:
459,192,11136,1,0,0:0:0:0:
51,192,11358,1,0,0:0:0:0:
153,192,11358,1,0,0:0:0:0:
357,192,11358,1,0,0:0:0:0:
51,192,11469,1,0,0:0:0:0:
153,192,11469,1,0,0:0:0:0:
51,192,11580,1,0,0:0:0:0:
153,192,11580,1,0,0:0:0:0:
255,192,11691,1,0,0:0:0:0:
459,192,11691,1,0,0:0:0:0:
255,192,11803,1,0,0:0:0:0:
459,192,11803,1,0,0:0:0:0:
153,192,11914,1,0,0:0:0:0:
459,192,11914,1,0,0:0:0:0:
51,192,12025,1,0,0:0:0:0:
153,192,12025,1,0,0:0:0:0:
255,192,12025,1,0,0:0:0:0:
51,192,12247,1,0,0:0:0:0:
255,192,12247,1,0,0:0:0:0:
357,192,12247,1,0,0:0:0:0:
153,192,12469,1,0,0:0:0:0:
357,192,12469,1,0,0:0:0:0:
459,192,12469,1,0,0:0:0:0:
255,192,12691,1,0,0:0:0:0:
357,192,12691,1,0,0:0:0:0:
459,192,12691,1,0,0:0:0:0:
153,192,12803,1,0,0:0:0:0:
459,192,12803,1,0,0:0:0:0:
255,192,12858,1,0,0:0:0:0:
51,192,12914,1,0,0:0:0:0:
357,192,12914,1,0,0:0:0:0:
153,192,12969,1,0,0:0:0:0:
255,192,13025,1,0,0:0:0:0:
459,192,13025,1,0,0:0:0:0:
153,192,13136,1,0,0:0:0:0:
357,192,13136,1,0,0:0:0:0:
459,192,13191,1,0,0:0:0:0:
51,192,13247,1,0,0:0:0:0:
255,192,13247,1,0,0:0:0:0:
357,192,13303,1,0,0:0:0:0:
153,192,13358,1,0,0:0:0:0:
459,192,13358,1,0,0:0:0:0:
153,192,13469,1,0,0:0:0:0:
357,192,13469,1,0,0:0:0:0:
51,192,13525,1,0,0:0:0:0:
255,192,13580,1,0,0:0:0:0:
459,192,13580,1,0,0:0:0:0:
153,192,13636,1,0,0:0:0:0:
51,192,13691,1,0,0:0:0:0:
357,192,13691,1,0,0:0:0:0:
153,192,13803,1,0,0:0:0:0:
459,192,13803,1,0,0:0:0:0:
357,192,13858,1,0,0:0:0:0:
51,192,13914,1,0,0:0:0:0:
255,192,13914,1,0,0:0:0:0:
459,192,13969,1,0,0:0:0:0:
153,192,14025,1,0,0:0:0:0:
357,192,14025,1,0,0:0:0:0:
51,192,14136,1,0,0:0:0:0:
357,192,14136,1,0,0:0:0:0:
255,192,14191,1,0,0:0:0:0:
153,192,14247,1,0,0:0:0:0:
459,192,14247,1,0,0:0:0:0:
357,192,14303,1,0,0:0:0:0:
51,192,14358,1,0,0:0:0:0:
255,192,14358,1,0,0:0:0:0:
153,192,14414,1,0,0:0:0:0:
255,192,14469,1,0,0:0:0:0:
357,192,14525,1,0,0:0:0:0:
255,192,14608,1,0,0:0:0:0:
51,192,14691,1,0,0:0:0:0:
153,192,14691,1,0,0:0:0:0:
459,192,14691,1,0,0:0:0:0:
357,192,14775,1,0,0:0:0:0:
51,192,14858,1,0,0:0:0:0:
255,192,14858,1,0,0:0:0:0:
153,192,14941,1,0,0:0:0:0:
357,192,14941,1,0,0:0:0:0:
51,192,15025,1,0,0:0:0:0:
459,192,15025,1,0,0:0:0:0:
51,192,15191,1,0,0:0:0:0:
255,192,15191,1,0,0:0:0:0:
357,192,15191,128,0,15524:0:0:0:0:
51,192,15524,1,0,0:0:0:0:
153,192,15524,1,0,0:0:0:0:
357,192,15691,1,0,0:0:0:0:
459,192,15691,1,0,0:0:0:0:
153,192,15774,1,0,0:0:0:0:
255,192,15857,1,0,0:0:0:0:
357,192,15857,1,0,0:0:0:0:
153,192,16024,1,0,0:0:0:0:
255,192,16024,1,0,0:0:0:0:
459,192,16107,1,0,0:0:0:0:
255,192,16191,1,0,0:0:0:0:
153,192,16232,1,0,0:0:0:0:
255,192,16357,1,0,0:0:0:0:
357,192,16357,1,0,0:0:0:0:
51,192,16524,1,0,0:0:0:0:
153,192,16524,1,0,0:0:0:0:
357,192,16524,1,0,0:0:0:0:
459,192,16746,1,0,0:0:0:0:
357,192,16774,1,0,0:0:0:0:
255,192,16802,1,0,0:0:0:0:
51,192,16857,1,0,0:0:0:0:
153,192,16857,1,0,0:0:0:0:
255,192,16941,1,0,0:0:0:0:
153,192,17024,1,0,0:0:0:0:
459,192,17024,1,0,0:0:0:0:
51,192,17107,1,0,0:0:0:0:
357,192,17191,1,0,0:0:0:0:
459,192,17191,1,0,0:0:0:0:
153,192,17274,1,0,0:0:0:0:
255,192,17357,1,0,0:0:0:0:
357,192,17357,1,0,0:0:0:0:
459,192,17357,1,0,0:0:0:0:
51,192,17524,1,0,0:0:0:0:
153,192,17580,1,0,0:0:0:0:
255,192,17635,1,0,0:0:0:0:
51,192,17691,1,0,0:0:0:0:
459,192,17691,1,0,0:0:0:0:
51,192,17857,1,0,0:0:0:0:
357,192,17857,1,0,0:0:0:0:
153,192,17899,1,0,0:0:0:0:
255,192,17941,1,0,0:0:0:0:
357,192,17982,1,0,0:0:0:0:
51,192,18024,1,0,0:0:0:0:
459,192,18024,1,0,0:0:0:0:
255,192,18191,1,0,0:0:0:0:
357,192,18191,1,0,0:0:0:0:
459,192,18274,1,0,0:0:0:0:
153,192,18357,1,0,0:0:0:0:
255,192,18357,1,0,0:0:0:0:
357,192,18441,1,0,0:0:0:0:
153,192,18524,1,0,0:0:0:0:
51,192,18566,1,0,0:0:0:0:
255,192,18607,1,0,0:0:0:0:
153,192,18691,1,0,0:0:0:0:
357,192,18691,1,0,0:0:0:0:
459,192,18691,1,0,0:0:0:0:
255,192,18774,1,0,0:0:0:0:
51,192,18857,1,0,0:0:0:0:
357,192,18857,1,0,0:0:0:0:
153,192,18941,1,0,0:0:0:0:
51,192,19024,1,0,0:0:0:0:
255,192,19024,1,0,0:0:0:0:
255,192,19191,1,0,0:0:0:0:
357,192,19191,1,0,0:0:0:0:
459,192,19191,1,0,0:0:0:0:
153,192,19246,1,0,0:0:0:0:
255,192,19302,1,0,0:0:0:0:
51,192,19441,1,0,0:0:0:0:
153,192,19441,1,0,0:0:0:0:
255,192,19524,1,0,0:0:0:0:
459,192,19524,1,0,0:0:0:0:
357,192,19607,1,0,0:0:0:0:
51,192,19691,1,0,0:0:0:0:
153,192,19691,1,0,0:0:0:0:
51,192,19774,1,0,0:0:0:0:
459,192,19774,1,0,0:0:0:0:
357,192,19857,1,0,0:0:0:0:
153,192,19941,1,0,0:0:0:0:
255,192,19941,1,0,0:0:0:0:
153,192,20024,1,0,0:0:0:0:
459,192,20024,1,0,0:0:0:0:
357,192,20107,1,0,0:0:0:0:
51,192,20191,1,0,0:0:0:0:
255,192,20191,1,0,0:0:0:0:
153,192,20274,1,0,0:0:0:0:
459,192,20274,1,0,0:0:0:0:
51,192,20357,1,0,0:0:0:0:
357,192,20357,1,0,0:0:0:0:
357,192,20441,1,0,0:0:0:0:
51,192,20524,1,0,0:0:0:0:
153,192,20580,1,0,0:0:0:0:
357,192,20635,1,0,0:0:0:0:
51,192,20691,128,0,21024:0:0:0:0:
153,192,20691,1,0,0:0:0:0:
459,192,20691,1,0,0:0:0:0:
459,192,20941,1,0,0:0:0:0:
357,192,20969,1,0,0:0:0:0:
255,192,20996,1,0,0:0:0:0:
153,192,21024,1,0,0:0:0:0:
357,192,21107,1,0,0:0:0:0:
459,192,21107,1,0,0:0:0:0:
153,192,21191,1,0,0:0:0:0:
459,192,21274,1,0,0:0:0:0:
51,192,21357,1,0,0:0:0:0:
153,192,21357,1,0,0:0:0:0:
357,192,21385,1,0,0:0:0:0:
255,192,21524,1,0,0:0:0:0:
357,192,21524,1,0,0:0:0:0:
153,192,21566,1,0,0:0:0:0:
51,192,21607,1,0,0:0:0:0:
153,192,21649,1,0,0:0:0:0:
357,192,21691,1,0,0:0:0:0:
51,192,21857,1,0,0:0:0:0:
153,192,21857,1,0,0:0:0:0:
255,192,21857,1,0,0:0:0:0:
357,192,21941,1,0,0:0:0:0:
459,192,21982,1,0,0:0:0:0:
357,192,22024,1,0,0:0:0:0:
255,192,22066,1,0,0:0:0:0:
153,192,22107,1,0,0:0:0:0:
51,192,22191,1,0,0:0:0:0:
459,192,22191,1,0,0:0:0:0:
358,192,22357,1,0,0:0:0:0:
459,192,22357,1,0,0:0:0:0:
51,192,22441,1,0,0:0:0:0:
153,192,22482,1,0,0:0:0:0:
255,192,22524,1,0,0:0:0:0:
357,192,22524,1,0,0:0:0:0:
153,192,22607,1,0,0:0:0:0:
459,192,22607,1,0,0:0:0:0:
51,192,22691,1,0,0:0:0:0:
357,192,22691,1,0,0:0:0:0:
255,192,22774,1,0,0:0:0:0:
459,192,22774,1,0,0:0:0:0:
153,192,22857,1,0,0:0:0:0:
357,192,22857,1,0,0:0:0:0:
51,192,22941,1,0,0:0:0:0:
255,192,22941,1,0,0:0:0:0:
153,192,23024,1,0,0:0:0:0:
459,192,23024,1,0,0:0:0:0:
357,192,23107,1,0,0:0:0:0:
51,192,23191,1,0,0:0:0:0:
255,192,23191,1,0,0:0:0:0:
357,192,23246,1,0,0:0:0:0:
153,192,23274,1,0,0:0:0:0:
459,192,23302,1,0,0:0:0:0:
51,192,23357,1,0,0:0:0:0:
255,192,23357,1,0,0:0:0:0:
51,192,23524,1,0,0:0:0:0:
357,192,23524,1,0,0:0:0:0:
153,192,23580,1,0,0:0:0:0:
255,192,23635,1,0,0:0:0:0:
459,192,23635,1,0,0:0:0:0:
153,192,23691,1,0,0:0:0:0:
357,192,23691,1,0,0:0:0:0:
153,192,23857,1,0,0:0:0:0:
459,192,23857,1,0,0:0:0:0:
255,192,23913,1,0,0:0:0:0:
51,192,23969,1,0,0:0:0:0:
357,192,23969,1,0,0:0:0:0:
153,192,24024,1,0,0:0:0:0:
255,192,24024,1,0,0:0:0:0:
459,192,24024,1,0,0:0:0:0:
255,192,24191,1,0,0:0:0:0:
357,192,24191,1,0,0:0:0:0:
459,192,24191,1,0,0:0:0:0:
153,192,24246,1,0,0:0:0:0:
51,192,24357,1,0,0:0:0:0:
51,192,24524,1,0,0:0:0:0:
153,192,24524,1,0,0:0:0:0:
357,192,24524,1,0,0:0:0:0:
459,192,24524,1,0,0:0:0:0:
255,192,25024,1,0,0:0:0:0:
357,192,25135,1,0,0:0:0:0:
255,192,25246,1,0,0:0:0:0:
51,192,25357,1,0,0:0:0:0:
255,192,25469,1,0,0:0:0:0:
459,192,25524,1,0,0:0:0:0:
153,192,25580,1,0,0:0:0:0:
51,192,25691,1,0,0:0:0:0:
357,192,25691,1,0,0:0:0:0:
153,192,25802,1,0,0:0:0:0:
255,192,25857,1,0,0:0:0:0:
51,192,25913,1,0,0:0:0:0:
357,192,25913,1,0,0:0:0:0:
153,192,26024,128,0,26524:0:0:0:0:
357,192,26024,1,0,0:0:0:0:
459,192,26024,1,0,0:0:0:0:
255,192,26191,1,0,0:0:0:0:
51,192,26357,1,0,0:0:0:0:
357,192,26357,1,0,0:0:0:0:
255,192,26607,1,0,0:0:0:0:
357,192,26607,1,0,0:0:0:0:
51,192,26691,1,0,0:0:0:0:
153,192,26691,1,0,0:0:0:0:
153,192,26857,1,0,0:0:0:0:
357,192,26857,1,0,0:0:0:0:
51,192,27024,1,0,0:0:0:0:
459,192,27024,1,0,0:0:0:0:
51,192,27191,128,0,27857:0:0:0:0:
153,192,27191,1,0,0:0:0:0:
255,192,27191,1,0,0:0:0:0:
357,192,27357,1,0,0:0:0:0:
459,192,27524,1,0,0:0:0:0:
255,192,27607,1,0,0:0:0:0:
357,192,27691,1,0,0:0:0:0:
459,192,27691,1,0,0:0:0:0:
153,192,27857,1,0,0:0:0:0:
255,192,27857,1,0,0:0:0:0:
357,192,27857,1,0,0:0:0:0:
357,192,28024,1,0,0:0:0:0:
51,192,28191,1,0,0:0:0:0:
153,192,28191,1,0,0:0:0:0:
153,192,28357,1,0,0:0:0:0:
357,192,28357,1,0,0:0:0:0:
459,192,28413,1,0,0:0:0:0:
357,192,28469,1,0,0:0:0:0:
255,192,28524,1,0,0:0:0:0:
51,192,28607,1,0,0:0:0:0:
153,192,28691,128,0,29024:0:0:0:0:
255,192,28691,1,0,0:0:0:0:
459,192,28691,1,0,0:0:0:0:
357,192,28857,1,0,0:0:0:0:
51,192,29024,1,0,0:0:0:0:
459,192,29024,1,0,0:0:0:0:
153,192,29191,1,0,0:0:0:0:
255,192,29191,128,0,29524:0:0:0:0:
357,192,29274,1,0,0:0:0:0:
459,192,29274,1,0,0:0:0:0:
51,192,29357,1,0,0:0:0:0:
357,192,29524,128,0,29857:0:0:0:0:
459,192,29524,1,0,0:0:0:0:
51,192,29691,1,0,0:0:0:0:
51,192,29857,128,0,30524:0:0:0:0:
153,192,29857,1,0,0:0:0:0:
255,192,29857,1,0,0:0:0:0:
357,192,30024,1,0,0:0:0:0:
255,192,30191,1,0,0:0:0:0:
459,192,30191,1,0,0:0:0:0:
153,192,30357,1,0,0:0:0:0:
357,192,30357,1,0,0:0:0:0:
357,192,30524,1,0,0:0:0:0:
459,192,30524,1,0,0:0:0:0:
153,192,30607,1,0,0:0:0:0:
255,192,30607,1,0,0:0:0:0:
357,192,30691,1,0,0:0:0:0:
51,192,30857,1,0,0:0:0:0:
153,192,30857,1,0,0:0:0:0:
153,192,31024,1,0,0:0:0:0:
357,192,31024,1,0,0:0:0:0:
459,192,31066,1,0,0:0:0:0:
255,192,31107,1,0,0:0:0:0:
51,192,31191,1,0,0:0:0:0:
153,192,31357,128,0,31857:0:0:0:0:
357,192,31357,1,0,0:0:0:0:
459,192,31357,1,0,0:0:0:0:
255,192,31524,1,0,0:0:0:0:
459,192,31607,1,0,0:0:0:0:
51,192,31691,1,0,0:0:0:0:
357,192,31691,1,0,0:0:0:0:
357,192,31857,1,0,0:0:0:0:
459,192,31857,1,0,0:0:0:0:
51,192,32024,1,0,0:0:0:0:
153,192,32024,1,0,0:0:0:0:
153,192,32191,1,0,0:0:0:0:
357,192,32191,1,0,0:0:0:0:
51,192,32357,1,0,0:0:0:0:
459,192,32357,1,0,0:0:0:0:
460,192,32524,128,0,32857:0:0:0:0:
255,192,32524,1,0,0:0:0:0:
51,192,32524,1,0,0:0:0:0:
357,192,32691,1,0,0:0:0:0:
153,192,32857,1,0,0:0:0:0:
51,192,32857,1,0,0:0:0:0:
357,192,33024,1,0,0:0:0:0:
256,192,33024,1,0,0:0:0:0:
51,192,33191,128,0,33357:0:0:0:0:
255,192,33191,1,0,0:0:0:0:
460,192,33191,1,0,0:0:0:0:
153,192,33357,1,0,0:0:0:0:
358,192,33357,1,0,0:0:0:0:
357,192,33524,1,0,0:0:0:0:
459,192,33524,1,0,0:0:0:0:
51,192,33524,128,0,33691:0:0:0:0:
153,192,33691,1,0,0:0:0:0:
255,192,33691,1,0,0:0:0:0:
459,192,33691,1,0,0:0:0:0:
51,192,33857,1,0,0:0:0:0:
255,192,33857,1,0,0:0:0:0:
357,192,33857,128,0,34357:0:0:0:0:
153,192,34149,1,0,0:0:0:0:
51,192,34191,1,0,0:0:0:0:
153,192,34274,1,0,0:0:0:0:
51,192,34357,1,0,0:0:0:0:
255,192,34357,1,0,0:0:0:0:
459,192,34357,1,0,0:0:0:0:
153,192,34524,1,0,0:0:0:0:
255,192,34524,1,0,0:0:0:0:
459,192,34524,128,0,35024:0:0:0:0:
51,192,34816,1,0,0:0:0:0:
153,192,34857,1,0,0:0:0:0:
255,192,34941,1,0,0:0:0:0:
51,192,35024,1,0,0:0:0:0:
153,192,35024,1,0,0:0:0:0:
357,192,35024,1,0,0:0:0:0:
51,192,35191,1,0,0:0:0:0:
255,192,35191,1,0,0:0:0:0:
357,192,35191,128,0,35691:0:0:0:0:
153,192,35482,1,0,0:0:0:0:
51,192,35524,1,0,0:0:0:0:
153,192,35607,1,0,0:0:0:0:
51,192,35691,1,0,0:0:0:0:
255,192,35691,1,0,0:0:0:0:
459,192,35691,1,0,0:0:0:0:
255,192,35857,1,0,0:0:0:0:
459,192,35857,128,0,36357:0:0:0:0:
51,192,36024,1,0,0:0:0:0:
153,192,36024,1,0,0:0:0:0:
358,192,36107,1,0,0:0:0:0:
256,192,36191,1,0,0:0:0:0:
153,192,36246,1,0,0:0:0:0:
255,192,36302,1,0,0:0:0:0:
51,192,36357,1,0,0:0:0:0:
357,192,36357,1,0,0:0:0:0:
153,192,36524,1,0,0:0:0:0:
357,192,36524,1,0,0:0:0:0:
459,192,36524,1,0,0:0:0:0:
51,192,36691,1,0,0:0:0:0:
255,192,36732,1,0,0:0:0:0:
459,192,36774,1,0,0:0:0:0:
153,192,36816,1,0,0:0:0:0:
357,192,36857,1,0,0:0:0:0:
153,192,37024,1,0,0:0:0:0:
357,192,37024,1,0,0:0:0:0:
153,192,37191,1,0,0:0:0:0:
357,192,37191,1,0,0:0:0:0:
51,192,37274,1,0,0:0:0:0:
459,192,37274,1,0,0:0:0:0:
255,192,37357,1,0,0:0:0:0:
357,192,37399,1,0,0:0:0:0:
459,192,37441,1,0,0:0:0:0:
255,192,37482,1,0,0:0:0:0:
153,192,37524,1,0,0:0:0:0:
153,192,37691,1,0,0:0:0:0:
357,192,37691,1,0,0:0:0:0:
153,192,37857,1,0,0:0:0:0:
357,192,37899,1,0,0:0:0:0:
51,192,37941,1,0,0:0:0:0:
459,192,37982,1,0,0:0:0:0:
255,192,38024,1,0,0:0:0:0:
153,192,38066,1,0,0:0:0:0:
51,192,38107,1,0,0:0:0:0:
255,192,38149,1,0,0:0:0:0:
357,192,38191,1,0,0:0:0:0:
153,192,38357,1,0,0:0:0:0:
357,192,38357,1,0,0:0:0:0:
153,192,38524,1,0,0:0:0:0:
255,192,38524,1,0,0:0:0:0:
459,192,38524,1,0,0:0:0:0:
51,192,38691,1,0,0:0:0:0:
459,192,38691,1,0,0:0:0:0:
51,192,38857,1,0,0:0:0:0:
255,192,38857,1,0,0:0:0:0:
357,192,38857,1,0,0:0:0:0:
153,192,39024,1,0,0:0:0:0:
459,192,39024,1,0,0:0:0:0:
459,192,39191,1,0,0:0:0:0:
255,192,39232,1,0,0:0:0:0:
51,192,39274,1,0,0:0:0:0:
357,192,39316,1,0,0:0:0:0:
51,192,39357,1,0,0:0:0:0:
459,192,39399,1,0,0:0:0:0:
255,192,39441,1,0,0:0:0:0:
153,192,39482,1,0,0:0:0:0:
459,192,39524,1,0,0:0:0:0:
357,192,39580,1,0,0:0:0:0:
153,192,39635,1,0,0:0:0:0:
51,192,39691,1,0,0:0:0:0:
255,192,39691,1,0,0:0:0:0:
459,192,39857,1,0,0:0:0:0:
255,192,39899,1,0,0:0:0:0:
51,192,39941,1,0,0:0:0:0:
357,192,39982,1,0,0:0:0:0:
51,192,40024,1,0,0:0:0:0:
459,192,40066,1,0,0:0:0:0:
255,192,40107,1,0,0:0:0:0:
153,192,40149,1,0,0:0:0:0:
459,192,40191,1,0,0:0:0:0:
357,192,40246,1,0,0:0:0:0:
153,192,40302,1,0,0:0:0:0:
51,192,40357,1,0,0:0:0:0:
255,192,40357,1,0,0:0:0:0:
153,192,40524,1,0,0:0:0:0:
358,192,40566,1,0,0:0:0:0:
256,192,40607,1,0,0:0:0:0:
459,192,40649,1,0,0:0:0:0:
153,192,40691,1,0,0:0:0:0:
358,192,40732,1,0,0:0:0:0:
51,192,40774,1,0,0:0:0:0:
255,192,40816,1,0,0:0:0:0:
357,192,40857,1,0,0:0:0:0:
153,192,40941,1,0,0:0:0:0:
255,192,41024,1,0,0:0:0:0:
459,192,41024,1,0,0:0:0:0:
153,192,41107,1,0,0:0:0:0:
51,192,41191,1,0,0:0:0:0:
255,192,41191,1,0,0:0:0:0:
357,192,41191,1,0,0:0:0:0:
153,192,41524,1,0,0:0:0:0:
255,192,41524,1,0,0:0:0:0:
459,192,41524,1,0,0:0:0:0:
51,192,41857,1,0,0:0:0:0:
153,192,41857,1,0,0:0:0:0:
357,192,41857,1,0,0:0:0:0:
459,192,42024,1,0,0:0:0:0:
255,192,42066,1,0,0:0:0:0:
51,192,42107,1,0,0:0:0:0:
357,192,42149,1,0,0:0:0:0:
153,192,42191,1,0,0:0:0:0:
153,192,42357,1,0,0:0:0:0:
357,192,42357,1,0,0:0:0:0:
51,192,42524,1,0,0:0:0:0:
357,192,42524,1,0,0:0:0:0:
153,192,42607,1,0,0:0:0:0:
459,192,42607,1,0,0:0:0:0:
255,192,42691,1,0,0:0:0:0:
153,192,42774,1,0,0:0:0:0:
459,192,42774,1,0,0:0:0:0:
357,192,42857,1,0,0:0:0:0:
153,192,42913,1,0,0:0:0:0:
255,192,42969,1,0,0:0:0:0:
51,192,43024,1,0,0:0:0:0:
357,192,43024,1,0,0:0:0:0:
51,192,43191,1,0,0:0:0:0:
255,192,43232,1,0,0:0:0:0:
460,192,43274,1,0,0:0:0:0:
153,192,43316,1,0,0:0:0:0:
460,192,43357,1,0,0:0:0:0:
51,192,43399,1,0,0:0:0:0:
256,192,43441,1,0,0:0:0:0:
358,192,43482,1,0,0:0:0:0:
51,192,43524,1,0,0:0:0:0:
153,192,43580,1,0,0:0:0:0:
358,192,43635,1,0,0:0:0:0:
255,192,43691,1,0,0:0:0:0:
459,192,43691,1,0,0:0:0:0:
51,192,43857,1,0,0:0:0:0:
255,192,43899,1,0,0:0:0:0:
357,192,43941,1,0,0:0:0:0:
51,192,43982,1,0,0:0:0:0:
357,192,44024,1,0,0:0:0:0:
153,192,44066,1,0,0:0:0:0:
459,192,44107,1,0,0:0:0:0:
255,192,44149,1,0,0:0:0:0:
153,192,44191,1,0,0:0:0:0:
459,192,44232,1,0,0:0:0:0:
153,192,44274,1,0,0:0:0:0:
357,192,44316,1,0,0:0:0:0:
51,192,44357,1,0,0:0:0:0:
255,192,44399,1,0,0:0:0:0:
357,192,44441,1,0,0:0:0:0:
153,192,44524,1,0,0:0:0:0:
459,192,44524,1,0,0:0:0:0:
51,192,44607,1,0,0:0:0:0:
255,192,44607,1,0,0:0:0:0:
153,192,44692,1,0,0:0:0:0:
357,192,44692,1,0,0:0:0:0:
255,192,44858,1,0,0:0:0:0:
357,192,44858,1,0,0:0:0:0:
51,192,44941,1,0,0:0:0:0:
255,192,45025,1,0,0:0:0:0:
459,192,45025,1,0,0:0:0:0:
153,192,45191,1,0,0:0:0:0:
255,192,45191,1,0,0:0:0:0:
357,192,45191,1,0,0:0:0:0:
51,192,45358,1,0,0:0:0:0:
255,192,45358,1,0,0:0:0:0:
357,192,45441,1,0,0:0:0:0:
153,192,45525,1,0,0:0:0:0:
255,192,45525,1,0,0:0:0:0:
153,192,45691,1,0,0:0:0:0:
459,192,45691,1,0,0:0:0:0:
255,192,45858,1,0,0:0:0:0:
357,192,45858,1,0,0:0:0:0:
51,192,45941,1,0,0:0:0:0:
255,192,46025,1,0,0:0:0:0:
459,192,46025,1,0,0:0:0:0:
153,192,46191,1,0,0:0:0:0:
255,192,46191,1,0,0:0:0:0:
357,192,46191,1,0,0:0:0:0:
51,192,46358,1,0,0:0:0:0:
255,192,46358,1,0,0:0:0:0:
357,192,46441,1,0,0:0:0:0:
255,192,46525,1,0,0:0:0:0:
459,192,46525,1,0,0:0:0:0:
153,192,46691,1,0,0:0:0:0:
459,192,46691,1,0,0:0:0:0:
357,192,46775,1,0,0:0:0:0:
51,192,46858,1,0,0:0:0:0:
255,192,46858,1,0,0:0:0:0:
459,192,46941,1,0,0:0:0:0:
153,192,47025,1,0,0:0:0:0:
357,192,47025,1,0,0:0:0:0:
51,192,47108,1,0,0:0:0:0:
255,192,47191,1,0,0:0:0:0:
459,192,47191,1,0,0:0:0:0:
357,192,47247,1,0,0:0:0:0:
153,192,47275,1,0,0:0:0:0:
459,192,47303,1,0,0:0:0:0:
357,192,47358,128,0,47857:0:0:0:0:
51,192,47358,1,0,0:0:0:0:
51,192,47524,1,0,0:0:0:0:
153,192,47607,1,0,0:0:0:0:
459,192,47691,1,0,0:0:0:0:
255,192,47691,1,0,0:0:0:0:
459,192,47857,1,0,0:0:0:0:
357,192,48024,1,0,0:0:0:0:
51,192,48024,1,0,0:0:0:0:
255,192,48191,1,0,0:0:0:0:
357,192,48357,128,0,48691:0:0:0:0:
153,192,48357,1,0,0:0:0:0:
255,192,48524,1,0,0:0:0:0:
153,192,48607,1,0,0:0:0:0:
459,192,48691,1,0,0:0:0:0:
51,192,48691,1,0,0:0:0:0:
459,192,48857,1,0,0:0:0:0:
153,192,49024,1,0,0:0:0:0:
51,192,49024,1,0,0:0:0:0:
255,192,49191,1,0,0:0:0:0:
357,192,49274,1,0,0:0:0:0:
255,192,49316,1,0,0:0:0:0:
459,192,49357,1,0,0:0:0:0:
153,192,49357,1,0,0:0:0:0:
459,192,49524,1,0,0:0:0:0:
51,192,49524,1,0,0:0:0:0:
153,192,49607,1,0,0:0:0:0:
357,192,49691,1,0,0:0:0:0:
255,192,49691,1,0,0:0:0:0:
357,192,49857,1,0,0:0:0:0:
255,192,50024,1,0,0:0:0:0:
51,192,50024,1,0,0:0:0:0:
459,192,50191,1,0,0:0:0:0:
357,192,50357,128,0,50691:0:0:0:0:
153,192,50357,1,0,0:0:0:0:
255,192,50524,1,0,0:0:0:0:
153,192,50607,1,0,0:0:0:0:
459,192,50691,1,0,0:0:0:0:
51,192,50691,1,0,0:0:0:0:
459,192,50857,1,0,0:0:0:0:
255,192,50941,1,0,0:0:0:0:
153,192,51024,1,0,0:0:0:0:
51,192,51024,1,0,0:0:0:0:
357,192,51080,1,0,0:0:0:0:
459,192,51135,1,0,0:0:0:0:
255,192,51191,1,0,0:0:0:0:
357,192,51274,1,0,0:0:0:0:
255,192,51316,1,0,0:0:0:0:
459,192,51357,128,0,51857:0:0:0:0:
153,192,51357,1,0,0:0:0:0:
51,192,51524,1,0,0:0:0:0:
153,192,51607,1,0,0:0:0:0:
357,192,51691,1,0,0:0:0:0:
255,192,51691,1,0,0:0:0:0:
357,192,51857,1,0,0:0:0:0:
153,192,52024,1,0,0:0:0:0:
51,192,52024,1,0,0:0:0:0:
255,192,52191,1,0,0:0:0:0:
459,192,52357,128,0,52691:0:0:0:0:
153,192,52357,1,0,0:0:0:0:
255,192,52524,1,0,0:0:0:0:
153,192,52607,1,0,0:0:0:0:
357,192,52691,1,0,0:0:0:0:
51,192,52691,1,0,0:0:0:0:
357,192,52857,1,0,0:0:0:0:
459,192,53024,1,0,0:0:0:0:
51,192,53024,1,0,0:0:0:0:
255,192,53191,1,0,0:0:0:0:
51,192,53191,1,0,0:0:0:0:
357,192,53274,1,0,0:0:0:0:
153,192,53274,1,0,0:0:0:0:
459,192,53357,1,0,0:0:0:0:
255,192,53357,1,0,0:0:0:0:
357,192,53524,1,0,0:0:0:0:
255,192,53607,1,0,0:0:0:0:
153,192,53607,1,0,0:0:0:0:
459,192,53691,1,0,0:0:0:0:
255,192,53857,1,0,0:0:0:0:
153,192,53857,1,0,0:0:0:0:
51,192,53857,1,0,0:0:0:0:
357,192,54024,1,0,0:0:0:0:
51,192,54024,1,0,0:0:0:0:
459,192,54191,1,0,0:0:0:0:
153,192,54191,1,0,0:0:0:0:
459,192,54357,1,0,0:0:0:0:
255,192,54357,1,0,0:0:0:0:
153,192,54524,1,0,0:0:0:0:
357,192,54607,1,0,0:0:0:0:
255,192,54607,1,0,0:0:0:0:
51,192,54691,1,0,0:0:0:0:
459,192,54857,1,0,0:0:0:0:
357,192,54857,1,0,0:0:0:0:
255,192,54857,1,0,0:0:0:0:
459,192,55024,1,0,0:0:0:0:
153,192,55024,1,0,0:0:0:0:
357,192,55191,1,0,0:0:0:0:
51,192,55191,1,0,0:0:0:0:
357,192,55357,1,0,0:0:0:0:
255,192,55357,1,0,0:0:0:0:
153,192,55357,1,0,0:0:0:0:
153,192,55524,1,0,0:0:0:0:
459,192,55607,1,0,0:0:0:0:
51,192,55607,1,0,0:0:0:0:
357,192,55691,1,0,0:0:0:0:
357,192,55857,1,0,0:0:0:0:
459,192,55857,1,0,0:0:0:0:
51,192,55857,1,0,0:0:0:0:
153,192,55857,1,0,0:0:0:0:
459,192,56024,1,0,0:0:0:0:
255,192,56024,1,0,0:0:0:0:
153,192,56024,1,0,0:0:0:0:
357,192,56191,1,0,0:0:0:0:
255,192,56191,1,0,0:0:0:0:
51,192,56191,1,0,0:0:0:0:
153,192,56358,1,0,0:0:0:0:
51,192,56358,1,0,0:0:0:0:
357,192,56358,1,0,0:0:0:0:
153,192,56469,1,0,0:0:0:0:
459,192,56469,1,0,0:0:0:0:
255,192,56580,1,0,0:0:0:0:
357,192,56580,1,0,0:0:0:0:
51,192,56691,1,0,0:0:0:0:
357,192,56691,1,0,0:0:0:0:
459,192,56691,1,0,0:0:0:0:
153,192,56802,1,0,0:0:0:0:
459,192,56802,1,0,0:0:0:0:
255,192,56913,1,0,0:0:0:0:
357,192,56913,1,0,0:0:0:0:
51,192,57024,1,0,0:0:0:0:
255,192,57024,1,0,0:0:0:0:
459,192,57080,1,0,0:0:0:0:
51,192,57135,1,0,0:0:0:0:
255,192,57135,1,0,0:0:0:0:
357,192,57191,1,0,0:0:0:0:
51,192,57246,1,0,0:0:0:0:
153,192,57246,1,0,0:0:0:0:
255,192,57302,1,0,0:0:0:0:
357,192,57357,1,0,0:0:0:0:
459,192,57357,1,0,0:0:0:0:
153,192,57413,1,0,0:0:0:0:
357,192,57469,1,0,0:0:0:0:
459,192,57469,1,0,0:0:0:0:
51,192,57524,1,0,0:0:0:0:
255,192,57580,1,0,0:0:0:0:
459,192,57580,1,0,0:0:0:0:
153,192,57635,1,0,0:0:0:0:
459,192,58635,1,0,0:0:0:0:
357,192,58663,1,0,0:0:0:0:
255,192,58691,1,0,0:0:0:0:
51,192,58802,1,0,0:0:0:0:
255,192,58802,1,0,0:0:0:0:
153,192,58913,1,0,0:0:0:0:
357,192,58913,1,0,0:0:0:0:
51,192,59024,128,0,59357:0:0:0:0:
255,192,59024,1,0,0:0:0:0:
459,192,59024,1,0,0:0:0:0:
255,192,59246,1,0,0:0:0:0:
459,192,59246,1,0,0:0:0:0:
153,192,59357,1,0,0:0:0:0:
357,192,59357,1,0,0:0:0:0:
255,192,59469,1,0,0:0:0:0:
51,192,59580,1,0,0:0:0:0:
153,192,59580,1,0,0:0:0:0:
357,192,59580,1,0,0:0:0:0:
51,192,59691,128,0,60024:0:0:0:0:
255,192,59691,1,0,0:0:0:0:
459,192,59691,1,0,0:0:0:0:
153,192,59913,1,0,0:0:0:0:
255,192,59913,1,0,0:0:0:0:
459,192,59913,1,0,0:0:0:0:
357,192,60024,1,0,0:0:0:0:
153,192,60135,1,0,0:0:0:0:
255,192,60135,1,0,0:0:0:0:
357,192,60135,1,0,0:0:0:0:
51,192,60357,128,0,60691:0:0:0:0:
255,192,60357,1,0,0:0:0:0:
459,192,60413,1,0,0:0:0:0:
255,192,60469,1,0,0:0:0:0:
153,192,60580,1,0,0:0:0:0:
357,192,60580,1,0,0:0:0:0:
255,192,60691,1,0,0:0:0:0:
459,192,60691,1,0,0:0:0:0:
153,192,60802,1,0,0:0:0:0:
357,192,60802,1,0,0:0:0:0:
459,192,60802,1,0,0:0:0:0:
51,192,60913,1,0,0:0:0:0:
357,192,60913,1,0,0:0:0:0:
51,192,61024,128,0,61357:0:0:0:0:
255,192,61024,1,0,0:0:0:0:
459,192,61024,1,0,0:0:0:0:
357,192,61246,1,0,0:0:0:0:
153,192,61302,1,0,0:0:0:0:
255,192,61357,1,0,0:0:0:0:
357,192,61357,1,0,0:0:0:0:
153,192,61469,1,0,0:0:0:0:
459,192,61469,1,0,0:0:0:0:
153,192,61580,1,0,0:0:0:0:
459,192,61580,1,0,0:0:0:0:
51,192,61691,128,0,62024:0:0:0:0:
255,192,61691,1,0,0:0:0:0:
459,192,61691,1,0,0:0:0:0:
153,192,61802,1,0,0:0:0:0:
357,192,61802,1,0,0:0:0:0:
153,192,61913,1,0,0:0:0:0:
459,192,61913,1,0,0:0:0:0:
255,192,61969,1,0,0:0:0:0:
357,192,62024,1,0,0:0:0:0:
153,192,62135,1,0,0:0:0:0:
357,192,62135,1,0,0:0:0:0:
459,192,62135,1,0,0:0:0:0:
51,192,62246,1,0,0:0:0:0:
51,192,62357,1,0,0:0:0:0:
153,192,62357,1,0,0:0:0:0:
357,192,62357,1,0,0:0:0:0:
153,192,62469,1,0,0:0:0:0:
153,192,62580,1,0,0:0:0:0:
357,192,62580,1,0,0:0:0:0:
255,192,62691,1,0,0:0:0:0:
459,192,62691,1,0,0:0:0:0:
51,192,62802,1,0,0:0:0:0:
255,192,62802,1,0,0:0:0:0:
357,192,62802,1,0,0:0:0:0:
153,192,62913,1,0,0:0:0:0:
459,192,62913,1,0,0:0:0:0:
51,192,63024,1,0,0:0:0:0:
357,192,63024,1,0,0:0:0:0:
459,192,63024,1,0,0:0:0:0:
255,192,63135,1,0,0:0:0:0:
153,192,63191,1,0,0:0:0:0:
255,192,63246,1,0,0:0:0:0:
51,192,63357,1,0,0:0:0:0:
255,192,63357,1,0,0:0:0:0:
357,192,63357,1,0,0:0:0:0:
153,192,63469,1,0,0:0:0:0:
459,192,63469,1,0,0:0:0:0:
358,192,63524,1,0,0:0:0:0:
51,192,63580,1,0,0:0:0:0:
460,192,63580,1,0,0:0:0:0:
51,192,63691,1,0,0:0:0:0:
255,192,63691,1,0,0:0:0:0:
358,192,63691,1,0,0:0:0:0:
256,192,63802,1,0,0:0:0:0:
153,192,63913,1,0,0:0:0:0:
51,192,64024,1,0,0:0:0:0:
153,192,64024,1,0,0:0:0:0:
357,192,64024,1,0,0:0:0:0:
255,192,64135,1,0,0:0:0:0:
459,192,64135,1,0,0:0:0:0:
255,192,64246,1,0,0:0:0:0:
459,192,64246,1,0,0:0:0:0:
51,192,64357,1,0,0:0:0:0:
255,192,64357,1,0,0:0:0:0:
459,192,64357,128,0,64691:0:0:0:0:
51,192,64580,1,0,0:0:0:0:
255,192,64580,1,0,0:0:0:0:
153,192,64691,1,0,0:0:0:0:
357,192,64691,1,0,0:0:0:0:
51,192,64802,1,0,0:0:0:0:
255,192,64802,1,0,0:0:0:0:
51,192,64913,1,0,0:0:0:0:
357,192,64913,1,0,0:0:0:0:
459,192,64913,1,0,0:0:0:0:
153,192,65024,1,0,0:0:0:0:
255,192,65024,1,0,0:0:0:0:
459,192,65024,128,0,65357:0:0:0:0:
51,192,65246,1,0,0:0:0:0:
255,192,65246,1,0,0:0:0:0:
357,192,65246,1,0,0:0:0:0:
153,192,65357,1,0,0:0:0:0:
153,192,65469,1,0,0:0:0:0:
255,192,65469,1,0,0:0:0:0:
357,192,65469,1,0,0:0:0:0:
255,192,65691,1,0,0:0:0:0:
459,192,65691,128,0,66024:0:0:0:0:
51,192,65746,1,0,0:0:0:0:
255,192,65802,1,0,0:0:0:0:
153,192,65913,1,0,0:0:0:0:
357,192,65913,1,0,0:0:0:0:
51,192,66024,1,0,0:0:0:0:
255,192,66024,1,0,0:0:0:0:
51,192,66135,1,0,0:0:0:0:
153,192,66135,1,0,0:0:0:0:
357,192,66135,1,0,0:0:0:0:
153,192,66246,1,0,0:0:0:0:
459,192,66246,1,0,0:0:0:0:
51,192,66357,1,0,0:0:0:0:
255,192,66357,1,0,0:0:0:0:
459,192,66357,128,0,66691:0:0:0:0:
153,192,66580,1,0,0:0:0:0:
357,192,66635,1,0,0:0:0:0:
153,192,66691,1,0,0:0:0:0:
255,192,66691,1,0,0:0:0:0:
51,192,66802,1,0,0:0:0:0:
357,192,66802,1,0,0:0:0:0:
51,192,66913,1,0,0:0:0:0:
357,192,66913,1,0,0:0:0:0:
51,192,67024,1,0,0:0:0:0:
459,192,67024,128,0,67357:0:0:0:0:
255,192,67080,1,0,0:0:0:0:
153,192,67135,1,0,0:0:0:0:
51,192,67246,1,0,0:0:0:0:
357,192,67246,1,0,0:0:0:0:
153,192,67357,1,0,0:0:0:0:
255,192,67357,1,0,0:0:0:0:
51,192,67469,1,0,0:0:0:0:
153,192,67469,1,0,0:0:0:0:
357,192,67469,1,0,0:0:0:0:
255,192,67580,1,0,0:0:0:0:
459,192,67580,1,0,0:0:0:0:
153,192,67691,1,0,0:0:0:0:
357,192,67691,1,0,0:0:0:0:
459,192,67691,1,0,0:0:0:0:
357,192,67802,1,0,0:0:0:0:
51,192,67913,1,0,0:0:0:0:
255,192,67913,1,0,0:0:0:0:
357,192,67913,1,0,0:0:0:0:
153,192,68024,1,0,0:0:0:0:
459,192,68024,1,0,0:0:0:0:
51,192,68135,1,0,0:0:0:0:
153,192,68135,1,0,0:0:0:0:
256,192,68135,1,0,0:0:0:0:
358,192,68246,1,0,0:0:0:0:
51,192,68357,1,0,0:0:0:0:
357,192,68357,1,0,0:0:0:0:
256,192,68357,1,0,0:0:0:0:
153,192,68469,1,0,0:0:0:0:
357,192,68524,1,0,0:0:0:0:
153,192,68580,1,0,0:0:0:0:
459,192,68580,1,0,0:0:0:0:
255,192,68635,1,0,0:0:0:0:
51,192,68691,1,0,0:0:0:0:
357,192,68691,1,0,0:0:0:0:
459,192,68691,1,0,0:0:0:0:
255,192,68802,1,0,0:0:0:0:
153,192,68857,1,0,0:0:0:0:
255,192,68913,1,0,0:0:0:0:
51,192,69024,1,0,0:0:0:0:
153,192,69024,128,0,69246:0:0:0:0:
357,192,69024,128,0,69246:0:0:0:0:
153,192,69357,1,0,0:0:0:0:
357,192,69357,1,0,0:0:0:0:
51,192,69469,1,0,0:0:0:0:
255,192,69469,1,0,0:0:0:0:
459,192,69469,1,0,0:0:0:0:
51,192,69580,1,0,0:0:0:0:
255,192,69580,1,0,0:0:0:0:
459,192,69580,1,0,0:0:0:0:
153,192,69691,1,0,0:0:0:0:
255,192,69691,1,0,0:0:0:0:
51,192,69746,1,0,0:0:0:0:
357,192,69746,1,0,0:0:0:0:
153,192,69802,1,0,0:0:0:0:
459,192,69802,1,0,0:0:0:0:
255,192,69913,1,0,0:0:0:0:
357,192,70024,1,0,0:0:0:0:
153,192,70135,1,0,0:0:0:0:
255,192,70135,1,0,0:0:0:0:
459,192,70135,1,0,0:0:0:0:
51,192,70246,1,0,0:0:0:0:
153,192,70246,1,0,0:0:0:0:
357,192,70246,1,0,0:0:0:0:
255,192,70357,1,0,0:0:0:0:
357,192,70357,1,0,0:0:0:0:
459,192,70357,1,0,0:0:0:0:
153,192,70469,1,0,0:0:0:0:
51,192,70580,1,0,0:0:0:0:
255,192,70580,1,0,0:0:0:0:
357,192,70580,1,0,0:0:0:0:
51,192,70691,1,0,0:0:0:0:
153,192,70746,1,0,0:0:0:0:
255,192,70802,1,0,0:0:0:0:
357,192,70802,1,0,0:0:0:0:
459,192,70802,1,0,0:0:0:0:
153,192,70913,1,0,0:0:0:0:
153,192,71024,1,0,0:0:0:0:
357,192,71024,1,0,0:0:0:0:
255,192,71080,1,0,0:0:0:0:
459,192,71080,1,0,0:0:0:0:
51,192,71135,1,0,0:0:0:0:
357,192,71135,1,0,0:0:0:0:
153,192,71246,1,0,0:0:0:0:
255,192,71357,1,0,0:0:0:0:
153,192,71469,1,0,0:0:0:0:
357,192,71469,1,0,0:0:0:0:
459,192,71469,1,0,0:0:0:0:
51,192,71580,1,0,0:0:0:0:
255,192,71580,1,0,0:0:0:0:
357,192,71580,1,0,0:0:0:0:
51,192,71691,1,0,0:0:0:0:
153,192,71691,1,0,0:0:0:0:
459,192,71691,1,0,0:0:0:0:
357,192,71802,1,0,0:0:0:0:
51,192,71913,1,0,0:0:0:0:
255,192,71913,1,0,0:0:0:0:
357,192,71969,1,0,0:0:0:0:
153,192,72024,1,0,0:0:0:0:
255,192,72024,1,0,0:0:0:0:
459,192,72024,1,0,0:0:0:0:
51,192,72135,1,0,0:0:0:0:
357,192,72135,1,0,0:0:0:0:
51,192,72246,1,0,0:0:0:0:
357,192,72246,1,0,0:0:0:0:
51,192,72357,1,0,0:0:0:0:
153,192,72357,1,0,0:0:0:0:
255,192,72357,1,0,0:0:0:0:
153,192,72469,1,0,0:0:0:0:
459,192,72469,1,0,0:0:0:0:
51,192,72580,1,0,0:0:0:0:
357,192,72580,1,0,0:0:0:0:
459,192,72580,1,0,0:0:0:0:
255,192,72635,1,0,0:0:0:0:
153,192,72691,1,0,0:0:0:0:
153,192,72802,1,0,0:0:0:0:
255,192,72802,1,0,0:0:0:0:
459,192,72802,1,0,0:0:0:0:
357,192,72913,1,0,0:0:0:0:
51,192,73024,1,0,0:0:0:0:
357,192,73024,1,0,0:0:0:0:
459,192,73024,1,0,0:0:0:0:
255,192,73080,1,0,0:0:0:0:
153,192,73135,1,0,0:0:0:0:
153,192,73246,1,0,0:0:0:0:
357,192,73246,1,0,0:0:0:0:
153,192,73357,1,0,0:0:0:0:
459,192,73357,1,0,0:0:0:0:
51,192,73469,1,0,0:0:0:0:
255,192,73469,1,0,0:0:0:0:
357,192,73469,1,0,0:0:0:0:
153,192,73580,1,0,0:0:0:0:
255,192,73580,1,0,0:0:0:0:
459,192,73580,1,0,0:0:0:0:
51,192,73691,1,0,0:0:0:0:
357,192,73691,1,0,0:0:0:0:
459,192,73691,1,0,0:0:0:0:
153,192,73802,1,0,0:0:0:0:
255,192,73802,1,0,0:0:0:0:
357,192,73857,1,0,0:0:0:0:
153,192,73913,1,0,0:0:0:0:
255,192,73913,1,0,0:0:0:0:
51,192,74024,1,0,0:0:0:0:
255,192,74024,1,0,0:0:0:0:
459,192,74024,1,0,0:0:0:0:
357,192,74135,1,0,0:0:0:0:
459,192,74135,1,0,0:0:0:0:
153,192,74191,1,0,0:0:0:0:
51,192,74246,1,0,0:0:0:0:
357,192,74246,1,0,0:0:0:0:
51,192,74357,1,0,0:0:0:0:
153,192,74357,1,0,0:0:0:0:
255,192,74357,1,0,0:0:0:0:
255,192,74469,1,0,0:0:0:0:
153,192,74580,1,0,0:0:0:0:
357,192,74580,1,0,0:0:0:0:
459,192,74635,1,0,0:0:0:0:
51,192,74691,1,0,0:0:0:0:
153,192,74691,1,0,0:0:0:0:
357,192,74691,1,0,0:0:0:0:
255,192,74802,1,0,0:0:0:0:
459,192,74802,1,0,0:0:0:0:
255,192,74913,1,0,0:0:0:0:
459,192,74913,1,0,0:0:0:0:
255,192,75024,1,0,0:0:0:0:
357,192,75024,1,0,0:0:0:0:
153,192,75080,1,0,0:0:0:0:
459,192,75080,1,0,0:0:0:0:
51,192,75135,1,0,0:0:0:0:
357,192,75135,1,0,0:0:0:0:
255,192,75246,1,0,0:0:0:0:
153,192,75357,1,0,0:0:0:0:
51,192,75469,1,0,0:0:0:0:
255,192,75469,1,0,0:0:0:0:
357,192,75469,1,0,0:0:0:0:
153,192,75580,1,0,0:0:0:0:
357,192,75580,1,0,0:0:0:0:
459,192,75580,1,0,0:0:0:0:
51,192,75691,1,0,0:0:0:0:
153,192,75691,1,0,0:0:0:0:
255,192,75691,1,0,0:0:0:0:
459,192,75746,1,0,0:0:0:0:
357,192,75802,1,0,0:0:0:0:
153,192,75913,1,0,0:0:0:0:
255,192,75913,1,0,0:0:0:0:
459,192,75913,1,0,0:0:0:0:
459,192,76024,1,0,0:0:0:0:
357,192,76080,1,0,0:0:0:0:
51,192,76135,1,0,0:0:0:0:
153,192,76135,1,0,0:0:0:0:
255,192,76135,1,0,0:0:0:0:
357,192,76246,1,0,0:0:0:0:
153,192,76357,1,0,0:0:0:0:
357,192,76357,1,0,0:0:0:0:
51,192,76413,1,0,0:0:0:0:
255,192,76413,1,0,0:0:0:0:
153,192,76469,1,0,0:0:0:0:
459,192,76469,1,0,0:0:0:0:
357,192,76580,1,0,0:0:0:0:
255,192,76691,1,0,0:0:0:0:
51,192,76802,1,0,0:0:0:0:
153,192,76802,1,0,0:0:0:0:
357,192,76802,1,0,0:0:0:0:
153,192,76913,1,0,0:0:0:0:
255,192,76913,1,0,0:0:0:0:
459,192,76913,1,0,0:0:0:0:
51,192,77024,1,0,0:0:0:0:
357,192,77024,1,0,0:0:0:0:
459,192,77024,1,0,0:0:0:0:
153,192,77135,1,0,0:0:0:0:
255,192,77246,1,0,0:0:0:0:
459,192,77246,1,0,0:0:0:0:
153,192,77302,1,0,0:0:0:0:
51,192,77357,1,0,0:0:0:0:
255,192,77357,1,0,0:0:0:0:
357,192,77357,1,0,0:0:0:0:
153,192,77469,1,0,0:0:0:0:
459,192,77469,1,0,0:0:0:0:
153,192,77580,1,0,0:0:0:0:
459,192,77580,1,0,0:0:0:0:
255,192,77691,1,0,0:0:0:0:
459,192,77691,1,0,0:0:0:0:
51,192,77746,1,0,0:0:0:0:
357,192,77746,1,0,0:0:0:0:
153,192,77802,1,0,0:0:0:0:
255,192,77802,1,0,0:0:0:0:
357,192,77913,1,0,0:0:0:0:
255,192,78024,1,0,0:0:0:0:
51,192,78135,1,0,0:0:0:0:
153,192,78135,1,0,0:0:0:0:
459,192,78135,1,0,0:0:0:0:
51,192,78246,1,0,0:0:0:0:
357,192,78246,1,0,0:0:0:0:
459,192,78246,1,0,0:0:0:0:
153,192,78357,1,0,0:0:0:0:
255,192,78357,1,0,0:0:0:0:
357,192,78357,1,0,0:0:0:0:
153,192,78469,1,0,0:0:0:0:
51,192,78524,1,0,0:0:0:0:
255,192,78580,1,0,0:0:0:0:
357,192,78580,1,0,0:0:0:0:
459,192,78580,1,0,0:0:0:0:
459,192,78691,1,0,0:0:0:0:
357,192,78746,1,0,0:0:0:0:
51,192,78802,1,0,0:0:0:0:
153,192,78802,1,0,0:0:0:0:
255,192,78802,1,0,0:0:0:0:
255,192,78913,1,0,0:0:0:0:
51,192,79024,1,0,0:0:0:0:
357,192,79024,1,0,0:0:0:0:
459,192,79024,1,0,0:0:0:0:
255,192,79135,1,0,0:0:0:0:
153,192,79246,1,0,0:0:0:0:
255,192,79357,1,0,0:0:0:0:
51,192,79469,1,0,0:0:0:0:
357,192,79469,1,0,0:0:0:0:
459,192,79469,1,0,0:0:0:0:
51,192,79580,1,0,0:0:0:0:
153,192,79580,1,0,0:0:0:0:
459,192,79580,1,0,0:0:0:0:
153,192,79691,1,0,0:0:0:0:
255,192,79691,1,0,0:0:0:0:
357,192,79691,1,0,0:0:0:0:
459,192,79746,1,0,0:0:0:0:
357,192,79802,1,0,0:0:0:0:
51,192,79913,1,0,0:0:0:0:
153,192,79913,1,0,0:0:0:0:
255,192,79913,1,0,0:0:0:0:
51,192,80024,1,0,0:0:0:0:
255,192,80135,1,0,0:0:0:0:
357,192,80135,1,0,0:0:0:0:
459,192,80135,1,0,0:0:0:0:
255,192,80246,1,0,0:0:0:0:
51,192,80357,1,0,0:0:0:0:
153,192,80357,1,0,0:0:0:0:
357,192,80357,1,0,0:0:0:0:
51,192,80469,1,0,0:0:0:0:
153,192,80469,1,0,0:0:0:0:
51,192,80580,1,0,0:0:0:0:
153,192,80580,1,0,0:0:0:0:
255,192,80691,1,0,0:0:0:0:
459,192,80691,1,0,0:0:0:0:
255,192,80802,1,0,0:0:0:0:
459,192,80802,1,0,0:0:0:0:
153,192,80913,1,0,0:0:0:0:
459,192,80913,1,0,0:0:0:0:
51,192,81024,1,0,0:0:0:0:
153,192,81024,1,0,0:0:0:0:
255,192,81024,1,0,0:0:0:0:
357,192,81024,1,0,0:0:0:0:
459,192,81080,1,0,0:0:0:0:
357,192,81135,1,0,0:0:0:0:
51,192,81246,1,0,0:0:0:0:
153,192,81246,1,0,0:0:0:0:
255,192,81246,1,0,0:0:0:0:
459,192,81246,1,0,0:0:0:0:
51,192,81357,1,0,0:0:0:0:
153,192,81469,1,0,0:0:0:0:
255,192,81469,1,0,0:0:0:0:
357,192,81469,1,0,0:0:0:0:
459,192,81469,1,0,0:0:0:0:
153,192,81580,1,0,0:0:0:0:
51,192,81691,128,0,81913:0:0:0:0:
255,192,81691,1,0,0:0:0:0:
357,192,81691,1,0,0:0:0:0:
459,192,81691,128,0,81913:0:0:0:0:
51,192,82024,1,0,0:0:0:0:
153,192,82024,1,0,0:0:0:0:
357,192,82024,1,0,0:0:0:0:
459,192,82024,1,0,0:0:0:0:
51,192,82135,1,0,0:0:0:0:
153,192,82135,1,0,0:0:0:0:
357,192,82135,1,0,0:0:0:0:
459,192,82135,1,0,0:0:0:0:
51,192,82246,1,0,0:0:0:0:
153,192,82246,1,0,0:0:0:0:
357,192,82246,1,0,0:0:0:0:
459,192,82246,1,0,0:0:0:0:
51,192,82357,1,0,0:0:0:0:
153,192,82357,1,0,0:0:0:0:
357,192,82357,1,0,0:0:0:0:
459,192,82357,1,0,0:0:0:0:
255,192,82691,1,0,0:0:0:0:
153,192,82774,1,0,0:0:0:0:
255,192,82857,1,0,0:0:0:0:
51,192,82941,1,0,0:0:0:0:
357,192,82941,1,0,0:0:0:0:
153,192,83025,1,0,0:0:0:0:
255,192,83025,1,0,0:0:0:0:
459,192,83025,1,0,0:0:0:0:
357,192,83080,1,0,0:0:0:0:
153,192,83136,128,0,83691:0:0:0:0:
255,192,83358,1,0,0:0:0:0:
459,192,83358,1,0,0:0:0:0:
51,192,83524,1,0,0:0:0:0:
357,192,83524,1,0,0:0:0:0:
459,192,83691,1,0,0:0:0:0:
51,192,83691,1,0,0:0:0:0:
357,192,83733,1,0,0:0:0:0:
357,192,83816,1,0,0:0:0:0:
255,192,83858,1,0,0:0:0:0:
51,192,83941,1,0,0:0:0:0:
460,192,83941,1,0,0:0:0:0:
153,192,83983,1,0,0:0:0:0:
358,192,84024,1,0,0:0:0:0:
153,192,84066,1,0,0:0:0:0:
255,192,84108,1,0,0:0:0:0:
51,192,84191,1,0,0:0:0:0:
459,192,84191,1,0,0:0:0:0:
255,192,84233,1,0,0:0:0:0:
357,192,84274,1,0,0:0:0:0:
153,192,84316,1,0,0:0:0:0:
255,192,84358,1,0,0:0:0:0:
153,192,84441,1,0,0:0:0:0:
459,192,84441,1,0,0:0:0:0:
51,192,84524,1,0,0:0:0:0:
357,192,84524,1,0,0:0:0:0:
255,192,84608,1,0,0:0:0:0:
153,192,84691,1,0,0:0:0:0:
357,192,84691,1,0,0:0:0:0:
51,192,84774,1,0,0:0:0:0:
459,192,84774,1,0,0:0:0:0:
153,192,84858,1,0,0:0:0:0:
357,192,84858,1,0,0:0:0:0:
51,192,84913,1,0,0:0:0:0:
255,192,84969,1,0,0:0:0:0:
153,192,85024,1,0,0:0:0:0:
459,192,85024,1,0,0:0:0:0:
255,192,85080,1,0,0:0:0:0:
357,192,85136,1,0,0:0:0:0:
51,192,85191,1,0,0:0:0:0:
153,192,85191,1,0,0:0:0:0:
357,192,85274,1,0,0:0:0:0:
459,192,85274,1,0,0:0:0:0:
153,192,85358,1,0,0:0:0:0:
255,192,85358,1,0,0:0:0:0:
51,192,85524,1,0,0:0:0:0:
255,192,85524,1,0,0:0:0:0:
459,192,85608,1,0,0:0:0:0:
357,192,85691,1,0,0:0:0:0:
255,192,85774,1,0,0:0:0:0:
51,192,85858,1,0,0:0:0:0:
357,192,85858,1,0,0:0:0:0:
153,192,85941,1,0,0:0:0:0:
255,192,86024,1,0,0:0:0:0:
459,192,86024,1,0,0:0:0:0:
357,192,86066,1,0,0:0:0:0:
153,192,86108,1,0,0:0:0:0:
51,192,86191,1,0,0:0:0:0:
255,192,86191,1,0,0:0:0:0:
358,192,86247,1,0,0:0:0:0:
255,192,86302,1,0,0:0:0:0:
153,192,86358,1,0,0:0:0:0:
51,192,86524,1,0,0:0:0:0:
357,192,86524,1,0,0:0:0:0:
459,192,86580,1,0,0:0:0:0:
357,192,86636,1,0,0:0:0:0:
51,192,86691,1,0,0:0:0:0:
255,192,86691,1,0,0:0:0:0:
51,192,86858,1,0,0:0:0:0:
153,192,86858,1,0,0:0:0:0:
459,192,86858,1,0,0:0:0:0:
357,192,87024,1,0,0:0:0:0:
153,192,87191,1,0,0:0:0:0:
459,192,87191,1,0,0:0:0:0:
51,192,87274,1,0,0:0:0:0:
357,192,87274,1,0,0:0:0:0:
153,192,87358,1,0,0:0:0:0:
459,192,87358,1,0,0:0:0:0:
51,192,87441,1,0,0:0:0:0:
153,192,87524,1,0,0:0:0:0:
255,192,87524,1,0,0:0:0:0:
51,192,87608,1,0,0:0:0:0:
255,192,87691,1,0,0:0:0:0:
357,192,87691,1,0,0:0:0:0:
153,192,87774,1,0,0:0:0:0:
357,192,87858,1,0,0:0:0:0:
459,192,87858,1,0,0:0:0:0:
255,192,87941,1,0,0:0:0:0:
153,192,88024,1,0,0:0:0:0:
459,192,88024,1,0,0:0:0:0:
255,192,88108,1,0,0:0:0:0:
459,192,88191,1,0,0:0:0:0:
153,192,88274,1,0,0:0:0:0:
51,192,88358,1,0,0:0:0:0:
357,192,88358,1,0,0:0:0:0:
153,192,88399,1,0,0:0:0:0:
255,192,88441,1,0,0:0:0:0:
51,192,88524,1,0,0:0:0:0:
357,192,88524,1,0,0:0:0:0:
153,192,88608,1,0,0:0:0:0:
459,192,88608,1,0,0:0:0:0:
357,192,88649,1,0,0:0:0:0:
255,192,88691,1,0,0:0:0:0:
51,192,88774,1,0,0:0:0:0:
357,192,88774,1,0,0:0:0:0:
153,192,88858,1,0,0:0:0:0:
459,192,88858,1,0,0:0:0:0:
357,192,88899,1,0,0:0:0:0:
255,192,88941,1,0,0:0:0:0:
153,192,89024,1,0,0:0:0:0:
459,192,89024,1,0,0:0:0:0:
51,192,89108,1,0,0:0:0:0:
357,192,89108,1,0,0:0:0:0:
153,192,89149,1,0,0:0:0:0:
255,192,89191,1,0,0:0:0:0:
153,192,89274,1,0,0:0:0:0:
459,192,89274,1,0,0:0:0:0:
51,192,89358,1,0,0:0:0:0:
357,192,89358,1,0,0:0:0:0:
153,192,89441,1,0,0:0:0:0:
255,192,89524,1,0,0:0:0:0:
357,192,89524,128,0,90024:0:0:0:0:
51,192,89774,1,0,0:0:0:0:
255,192,89774,1,0,0:0:0:0:
153,192,89858,1,0,0:0:0:0:
459,192,89858,1,0,0:0:0:0:
255,192,89941,1,0,0:0:0:0:
460,192,90024,1,0,0:0:0:0:
153,192,90024,1,0,0:0:0:0:
255,192,90108,1,0,0:0:0:0:
51,192,90108,1,0,0:0:0:0:
153,192,90191,1,0,0:0:0:0:
357,192,90191,1,0,0:0:0:0:
51,192,90274,1,0,0:0:0:0:
460,192,90274,1,0,0:0:0:0:
153,192,90358,1,0,0:0:0:0:
357,192,90358,1,0,0:0:0:0:
459,192,90413,1,0,0:0:0:0:
255,192,90469,1,0,0:0:0:0:
51,192,90524,1,0,0:0:0:0:
357,192,90524,1,0,0:0:0:0:
255,192,90608,1,0,0:0:0:0:
153,192,90691,1,0,0:0:0:0:
459,192,90691,1,0,0:0:0:0:
51,192,90774,1,0,0:0:0:0:
357,192,90774,1,0,0:0:0:0:
153,192,90858,1,0,0:0:0:0:
255,192,90858,1,0,0:0:0:0:
357,192,90941,1,0,0:0:0:0:
459,192,90941,1,0,0:0:0:0:
153,192,91024,1,0,0:0:0:0:
255,192,91066,1,0,0:0:0:0:
357,192,91108,1,0,0:0:0:0:
51,192,91191,1,0,0:0:0:0:
255,192,91191,1,0,0:0:0:0:
153,192,91358,1,0,0:0:0:0:
357,192,91358,1,0,0:0:0:0:
51,192,91524,1,0,0:0:0:0:
357,192,91524,1,0,0:0:0:0:
153,192,91566,1,0,0:0:0:0:
255,192,91608,1,0,0:0:0:0:
153,192,91691,1,0,0:0:0:0:
459,192,91691,1,0,0:0:0:0:
51,192,91858,1,0,0:0:0:0:
459,192,91858,1,0,0:0:0:0:
357,192,91899,1,0,0:0:0:0:
255,192,91941,1,0,0:0:0:0:
51,192,92024,1,0,0:0:0:0:
357,192,92024,1,0,0:0:0:0:
153,192,92191,1,0,0:0:0:0:
357,192,92191,1,0,0:0:0:0:
459,192,92191,1,0,0:0:0:0:
51,192,92247,1,0,0:0:0:0:
255,192,92302,1,0,0:0:0:0:
459,192,92358,1,0,0:0:0:0:
255,192,92441,1,0,0:0:0:0:
51,192,92524,1,0,0:0:0:0:
459,192,92524,1,0,0:0:0:0:
153,192,92608,1,0,0:0:0:0:
357,192,92608,1,0,0:0:0:0:
51,192,92691,1,0,0:0:0:0:
459,192,92691,1,0,0:0:0:0:
153,192,92774,1,0,0:0:0:0:
255,192,92858,1,0,0:0:0:0:
460,192,92858,1,0,0:0:0:0:
51,192,92913,1,0,0:0:0:0:
153,192,92969,1,0,0:0:0:0:
357,192,93024,1,0,0:0:0:0:
153,192,93108,1,0,0:0:0:0:
357,192,93191,1,0,0:0:0:0:
51,192,93233,1,0,0:0:0:0:
255,192,93274,1,0,0:0:0:0:
357,192,93316,1,0,0:0:0:0:
51,192,93358,1,0,0:0:0:0:
153,192,93358,1,0,0:0:0:0:
459,192,93399,1,0,0:0:0:0:
357,192,93441,1,0,0:0:0:0:
255,192,93483,1,0,0:0:0:0:
153,192,93524,1,0,0:0:0:0:
357,192,93566,1,0,0:0:0:0:
255,192,93608,1,0,0:0:0:0:
153,192,93649,1,0,0:0:0:0:
51,192,93691,1,0,0:0:0:0:
459,192,93691,1,0,0:0:0:0:
153,192,93774,1,0,0:0:0:0:
357,192,93858,1,0,0:0:0:0:
51,192,93899,1,0,0:0:0:0:
255,192,93941,1,0,0:0:0:0:
357,192,93983,1,0,0:0:0:0:
153,192,94024,1,0,0:0:0:0:
459,192,94024,1,0,0:0:0:0:
255,192,94108,1,0,0:0:0:0:
357,192,94191,1,0,0:0:0:0:
459,192,94191,1,0,0:0:0:0:
153,192,94274,1,0,0:0:0:0:
255,192,94358,1,0,0:0:0:0:
459,192,94358,1,0,0:0:0:0:
51,192,94441,1,0,0:0:0:0:
153,192,94524,1,0,0:0:0:0:
357,192,94524,1,0,0:0:0:0:
51,192,94608,1,0,0:0:0:0:
153,192,94691,1,0,0:0:0:0:
255,192,94691,1,0,0:0:0:0:
153,192,94858,1,0,0:0:0:0:
357,192,94899,1,0,0:0:0:0:
459,192,94899,1,0,0:0:0:0:
357,192,95024,1,0,0:0:0:0:
51,192,95108,1,0,0:0:0:0:
153,192,95136,1,0,0:0:0:0:
459,192,95191,1,0,0:0:0:0:
255,192,95274,1,0,0:0:0:0:
153,192,95358,1,0,0:0:0:0:
357,192,95399,1,0,0:0:0:0:
459,192,95399,1,0,0:0:0:0:
255,192,95524,1,0,0:0:0:0:
357,192,95524,1,0,0:0:0:0:
153,192,95580,1,0,0:0:0:0:
255,192,95636,1,0,0:0:0:0:
357,192,95691,1,0,0:0:0:0:
459,192,95774,1,0,0:0:0:0:
153,192,95858,1,0,0:0:0:0:
255,192,95858,1,0,0:0:0:0:
51,192,95899,1,0,0:0:0:0:
153,192,95941,1,0,0:0:0:0:
255,192,96024,1,0,0:0:0:0:
357,192,96108,1,0,0:0:0:0:
51,192,96191,1,0,0:0:0:0:
153,192,96191,1,0,0:0:0:0:
459,192,96274,1,0,0:0:0:0:
357,192,96316,1,0,0:0:0:0:
51,192,96358,1,0,0:0:0:0:
255,192,96413,1,0,0:0:0:0:
459,192,96469,1,0,0:0:0:0:
51,192,96524,1,0,0:0:0:0:
255,192,96580,1,0,0:0:0:0:
459,192,96636,1,0,0:0:0:0:
51,192,96691,1,0,0:0:0:0:
255,192,96747,1,0,0:0:0:0:
459,192,96802,1,0,0:0:0:0:
51,192,96858,1,0,0:0:0:0:
255,192,96913,1,0,0:0:0:0:
459,192,96969,1,0,0:0:0:0:
51,192,97024,1,0,0:0:0:0:
255,192,97066,1,0,0:0:0:0:
459,192,97108,1,0,0:0:0:0:
51,192,97149,1,0,0:0:0:0:
255,192,97191,1,0,0:0:0:0:
459,192,97233,1,0,0:0:0:0:
51,192,97274,1,0,0:0:0:0:
255,192,97316,1,0,0:0:0:0:
459,192,97358,1,0,0:0:0:0:
51,192,97399,1,0,0:0:0:0:
255,192,97441,1,0,0:0:0:0:
459,192,97483,1,0,0:0:0:0:
51,192,97524,1,0,0:0:0:0:
153,192,97524,1,0,0:0:0:0:
255,192,97608,1,0,0:0:0:0:
459,192,97691,1,0,0:0:0:0:
51,192,97774,1,0,0:0:0:0:
357,192,97774,1,0,0:0:0:0:
153,192,97816,1,0,0:0:0:0:
255,192,97858,1,0,0:0:0:0:
357,192,97899,1,0,0:0:0:0:
459,192,97941,1,0,0:0:0:0:
255,192,97983,1,0,0:0:0:0:
153,192,98024,1,0,0:0:0:0:
357,192,98066,1,0,0:0:0:0:
51,192,98108,1,0,0:0:0:0:
459,192,98149,1,0,0:0:0:0:
153,192,98191,1,0,0:0:0:0:
255,192,98191,1,0,0:0:0:0:
51,192,98274,1,0,0:0:0:0:
255,192,98358,1,0,0:0:0:0:
357,192,98441,1,0,0:0:0:0:
255,192,98524,1,0,0:0:0:0:
459,192,98580,1,0,0:0:0:0:
153,192,98608,1,0,0:0:0:0:
357,192,98636,1,0,0:0:0:0:
255,192,98691,1,0,0:0:0:0:
153,192,98747,1,0,0:0:0:0:
357,192,98774,1,0,0:0:0:0:
51,192,98802,1,0,0:0:0:0:
255,192,98858,1,0,0:0:0:0:
459,192,98913,1,0,0:0:0:0:
153,192,98941,1,0,0:0:0:0:
357,192,98969,1,0,0:0:0:0:
51,192,99024,1,0,0:0:0:0:
255,192,99024,1,0,0:0:0:0:
459,192,99024,1,0,0:0:0:0:
153,192,99191,1,0,0:0:0:0:
357,192,99191,1,0,0:0:0:0:
51,192,99358,1,0,0:0:0:0:
459,192,99413,1,0,0:0:0:0:
51,192,99469,1,0,0:0:0:0:
459,192,99524,1,0,0:0:0:0:
51,192,99608,1,0,0:0:0:0:
255,192,99691,1,0,0:0:0:0:
357,192,99691,1,0,0:0:0:0:
459,192,99691,1,0,0:0:0:0:
459,192,99858,1,0,0:0:0:0:
153,192,99941,1,0,0:0:0:0:
255,192,99941,1,0,0:0:0:0:
357,192,99941,1,0,0:0:0:0:
357,192,100108,1,0,0:0:0:0:
51,192,100191,1,0,0:0:0:0:
153,192,100191,1,0,0:0:0:0:
255,192,100191,1,0,0:0:0:0:
459,192,100191,128,0,100524:0:0:0:0:
51,192,100524,1,0,0:0:0:0:
255,192,100524,1,0,0:0:0:0:
357,192,100608,1,0,0:0:0:0:
153,192,100691,1,0,0:0:0:0:
459,192,100691,1,0,0:0:0:0:
255,192,100774,1,0,0:0:0:0:
51,192,100858,128,0,101191:0:0:0:0:
153,192,100858,1,0,0:0:0:0:
357,192,100858,1,0,0:0:0:0:
459,192,100941,1,0,0:0:0:0:
255,192,101024,1,0,0:0:0:0:
357,192,101024,1,0,0:0:0:0:
153,192,101108,1,0,0:0:0:0:
357,192,101191,1,0,0:0:0:0:
459,192,101191,1,0,0:0:0:0:
255,192,101274,1,0,0:0:0:0:
51,192,101358,1,0,0:0:0:0:
153,192,101358,1,0,0:0:0:0:
459,192,101358,1,0,0:0:0:0:
255,192,101441,1,0,0:0:0:0:
153,192,101524,1,0,0:0:0:0:
357,192,101524,1,0,0:0:0:0:
51,192,101608,1,0,0:0:0:0:
153,192,101691,1,0,0:0:0:0:
255,192,101691,1,0,0:0:0:0:
357,192,101691,1,0,0:0:0:0:
459,192,101691,1,0,0:0:0:0:
51,192,101913,1,0,0:0:0:0:
153,192,101913,1,0,0:0:0:0:
255,192,101913,1,0,0:0:0:0:
357,192,101913,1,0,0:0:0:0:
153,192,102135,1,0,0:0:0:0:
255,192,102135,1,0,0:0:0:0:
357,192,102135,1,0,0:0:0:0:
459,192,102135,1,0,0:0:0:0:
459,192,102246,1,0,0:0:0:0:
51,192,102357,1,0,0:0:0:0:
153,192,102357,1,0,0:0:0:0:
255,192,102357,1,0,0:0:0:0:
51,192,102468,1,0,0:0:0:0:
255,192,102579,1,0,0:0:0:0:
357,192,102579,1,0,0:0:0:0:
459,192,102579,1,0,0:0:0:0:
357,192,102690,1,0,0:0:0:0:
51,192,102802,1,0,0:0:0:0:
153,192,102802,1,0,0:0:0:0:
255,192,102802,1,0,0:0:0:0:
153,192,102913,1,0,0:0:0:0:
357,192,103024,1,0,0:0:0:0:
459,192,103024,1,0,0:0:0:0:
51,192,103135,1,0,0:0:0:0:
459,192,103135,1,0,0:0:0:0:
51,192,103246,1,0,0:0:0:0:
153,192,103246,1,0,0:0:0:0:
51,192,103357,1,0,0:0:0:0:
459,192,103357,1,0,0:0:0:0:
357,192,103468,1,0,0:0:0:0:
459,192,103468,1,0,0:0:0:0:
51,192,103579,1,0,0:0:0:0:
459,192,103579,1,0,0:0:0:0:
51,192,103690,1,0,0:0:0:0:
153,192,103690,1,0,0:0:0:0:
357,192,103690,1,0,0:0:0:0:
153,192,103802,1,0,0:0:0:0:
255,192,103802,1,0,0:0:0:0:
153,192,103913,1,0,0:0:0:0:
357,192,103913,1,0,0:0:0:0:
459,192,103913,1,0,0:0:0:0:
255,192,104024,1,0,0:0:0:0:
357,192,104024,1,0,0:0:0:0:
51,192,104135,1,0,0:0:0:0:
153,192,104135,1,0,0:0:0:0:
357,192,104135,1,0,0:0:0:0:
153,192,104246,1,0,0:0:0:0:
255,192,104246,1,0,0:0:0:0:
459,192,104246,1,0,0:0:0:0:
51,192,104358,128,0,105691:0:0:0:0:
153,192,104358,128,0,105691:0:0:0:0:
357,192,104358,1,0,0:0:0:0:
459,192,104358,1,0,0:0:0:0:
153,192,106316,1,0,0:0:0:0:
357,192,106357,1,0,0:0:0:0:
459,192,106357,1,0,0:0:0:0:
51,192,106441,1,0,0:0:0:0:
153,192,106441,1,0,0:0:0:0:
357,192,106524,1,0,0:0:0:0:
459,192,106524,1,0,0:0:0:0:
51,192,106607,1,0,0:0:0:0:
153,192,106649,1,0,0:0:0:0:
357,192,106691,1,0,0:0:0:0:
459,192,106691,1,0,0:0:0:0:
51,192,106774,1,0,0:0:0:0:
153,192,106774,1,0,0:0:0:0:
357,192,106857,1,0,0:0:0:0:
459,192,106857,1,0,0:0:0:0:
51,192,106941,1,0,0:0:0:0:
255,192,106941,1,0,0:0:0:0:
153,192,107024,1,0,0:0:0:0:
357,192,107024,128,0,107357:0:0:0:0:
459,192,107024,1,0,0:0:0:0:
51,192,107191,1,0,0:0:0:0:
153,192,107191,1,0,0:0:0:0:
255,192,107357,1,0,0:0:0:0:
459,192,107357,1,0,0:0:0:0:
51,192,107441,1,0,0:0:0:0:
153,192,107441,1,0,0:0:0:0:
357,192,107524,1,0,0:0:0:0:
153,192,107691,1,0,0:0:0:0:
255,192,107691,1,0,0:0:0:0:
459,192,107774,1,0,0:0:0:0:
357,192,107857,1,0,0:0:0:0:
153,192,107899,1,0,0:0:0:0:
255,192,108024,1,0,0:0:0:0:
357,192,108024,1,0,0:0:0:0:
51,192,108191,1,0,0:0:0:0:
153,192,108191,1,0,0:0:0:0:
255,192,108191,1,0,0:0:0:0:
459,192,108413,1,0,0:0:0:0:
357,192,108441,1,0,0:0:0:0:
255,192,108469,1,0,0:0:0:0:
51,192,108524,1,0,0:0:0:0:
153,192,108524,1,0,0:0:0:0:
255,192,108607,1,0,0:0:0:0:
153,192,108691,1,0,0:0:0:0:
459,192,108691,1,0,0:0:0:0:
51,192,108774,1,0,0:0:0:0:
357,192,108774,1,0,0:0:0:0:
255,192,108857,1,0,0:0:0:0:
459,192,108941,1,0,0:0:0:0:
153,192,109024,1,0,0:0:0:0:
255,192,109024,1,0,0:0:0:0:
357,192,109024,1,0,0:0:0:0:
51,192,109191,1,0,0:0:0:0:
153,192,109246,1,0,0:0:0:0:
255,192,109302,1,0,0:0:0:0:
51,192,109357,1,0,0:0:0:0:
459,192,109357,1,0,0:0:0:0:
51,192,109524,1,0,0:0:0:0:
357,192,109524,1,0,0:0:0:0:
153,192,109566,1,0,0:0:0:0:
255,192,109607,1,0,0:0:0:0:
357,192,109649,1,0,0:0:0:0:
51,192,109691,1,0,0:0:0:0:
459,192,109691,1,0,0:0:0:0:
153,192,109857,1,0,0:0:0:0:
357,192,109857,1,0,0:0:0:0:
459,192,109941,1,0,0:0:0:0:
255,192,110024,1,0,0:0:0:0:
357,192,110024,1,0,0:0:0:0:
51,192,110107,1,0,0:0:0:0:
153,192,110107,1,0,0:0:0:0:
357,192,110191,1,0,0:0:0:0:
459,192,110232,1,0,0:0:0:0:
255,192,110274,1,0,0:0:0:0:
51,192,110357,1,0,0:0:0:0:
153,192,110357,1,0,0:0:0:0:
357,192,110357,1,0,0:0:0:0:
255,192,110441,1,0,0:0:0:0:
153,192,110524,1,0,0:0:0:0:
51,192,110607,1,0,0:0:0:0:
357,192,110607,1,0,0:0:0:0:
255,192,110691,1,0,0:0:0:0:
459,192,110691,1,0,0:0:0:0:
51,192,110857,1,0,0:0:0:0:
153,192,110857,1,0,0:0:0:0:
255,192,110857,1,0,0:0:0:0:
357,192,110913,1,0,0:0:0:0:
255,192,110969,1,0,0:0:0:0:
357,192,111107,1,0,0:0:0:0:
459,192,111107,1,0,0:0:0:0:
51,192,111191,1,0,0:0:0:0:
255,192,111191,1,0,0:0:0:0:
153,192,111274,1,0,0:0:0:0:
357,192,111357,1,0,0:0:0:0:
459,192,111357,1,0,0:0:0:0:
51,192,111441,1,0,0:0:0:0:
459,192,111441,1,0,0:0:0:0:
153,192,111524,1,0,0:0:0:0:
255,192,111607,1,0,0:0:0:0:
357,192,111607,1,0,0:0:0:0:
51,192,111691,1,0,0:0:0:0:
357,192,111691,1,0,0:0:0:0:
153,192,111774,1,0,0:0:0:0:
255,192,111857,1,0,0:0:0:0:
459,192,111857,1,0,0:0:0:0:
51,192,111941,1,0,0:0:0:0:
357,192,111941,1,0,0:0:0:0:
153,192,112024,1,0,0:0:0:0:
459,192,112024,1,0,0:0:0:0:
153,192,112107,1,0,0:0:0:0:
459,192,112191,1,0,0:0:0:0:
357,192,112246,1,0,0:0:0:0:
153,192,112302,1,0,0:0:0:0:
51,192,112357,1,0,0:0:0:0:
357,192,112357,1,0,0:0:0:0:
459,192,112357,128,0,112691:0:0:0:0:
51,192,112607,1,0,0:0:0:0:
153,192,112635,1,0,0:0:0:0:
255,192,112663,1,0,0:0:0:0:
357,192,112691,1,0,0:0:0:0:
51,192,112774,1,0,0:0:0:0:
153,192,112774,1,0,0:0:0:0:
357,192,112857,1,0,0:0:0:0:
51,192,112941,1,0,0:0:0:0:
357,192,113024,1,0,0:0:0:0:
459,192,113024,1,0,0:0:0:0:
153,192,113052,1,0,0:0:0:0:
153,192,113191,1,0,0:0:0:0:
255,192,113191,1,0,0:0:0:0:
357,192,113232,1,0,0:0:0:0:
459,192,113274,1,0,0:0:0:0:
357,192,113316,1,0,0:0:0:0:
153,192,113357,1,0,0:0:0:0:
255,192,113524,1,0,0:0:0:0:
357,192,113524,1,0,0:0:0:0:
459,192,113524,1,0,0:0:0:0:
153,192,113607,1,0,0:0:0:0:
51,192,113649,1,0,0:0:0:0:
153,192,113691,1,0,0:0:0:0:
255,192,113732,1,0,0:0:0:0:
357,192,113774,1,0,0:0:0:0:
51,192,113857,1,0,0:0:0:0:
459,192,113857,1,0,0:0:0:0:
357,192,114024,1,0,0:0:0:0:
459,192,114024,1,0,0:0:0:0:
51,192,114107,1,0,0:0:0:0:
153,192,114107,1,0,0:0:0:0:
255,192,114149,1,0,0:0:0:0:
357,192,114191,1,0,0:0:0:0:
153,192,114274,1,0,0:0:0:0:
51,192,114357,1,0,0:0:0:0:
357,192,114357,1,0,0:0:0:0:
255,192,114441,1,0,0:0:0:0:
459,192,114441,1,0,0:0:0:0:
51,192,114524,1,0,0:0:0:0:
357,192,114524,1,0,0:0:0:0:
153,192,114607,1,0,0:0:0:0:
51,192,114691,1,0,0:0:0:0:
255,192,114691,1,0,0:0:0:0:
357,192,114774,1,0,0:0:0:0:
255,192,114857,1,0,0:0:0:0:
459,192,114857,1,0,0:0:0:0:
153,192,114913,1,0,0:0:0:0:
357,192,114941,1,0,0:0:0:0:
51,192,114969,1,0,0:0:0:0:
255,192,115024,1,0,0:0:0:0:
459,192,115024,1,0,0:0:0:0:
153,192,115191,1,0,0:0:0:0:
459,192,115191,1,0,0:0:0:0:
357,192,115246,1,0,0:0:0:0:
51,192,115302,1,0,0:0:0:0:
255,192,115302,1,0,0:0:0:0:
153,192,115357,1,0,0:0:0:0:
357,192,115357,1,0,0:0:0:0:
51,192,115524,1,0,0:0:0:0:
357,192,115524,1,0,0:0:0:0:
255,192,115580,1,0,0:0:0:0:
153,192,115635,1,0,0:0:0:0:
459,192,115635,1,0,0:0:0:0:
51,192,115691,1,0,0:0:0:0:
255,192,115691,1,0,0:0:0:0:
357,192,115691,1,0,0:0:0:0:
51,192,115857,1,0,0:0:0:0:
153,192,115857,1,0,0:0:0:0:
255,192,115857,1,0,0:0:0:0:
357,192,115913,1,0,0:0:0:0:
459,192,116024,1,0,0:0:0:0:
51,192,116191,1,0,0:0:0:0:
153,192,116191,1,0,0:0:0:0:
357,192,116191,1,0,0:0:0:0:
459,192,116191,1,0,0:0:0:0:
357,192,116357,1,0,0:0:0:0:
460,192,116441,1,0,0:0:0:0:
51,192,116524,1,0,0:0:0:0:
357,192,116524,1,0,0:0:0:0:
153,192,116580,1,0,0:0:0:0:
255,192,116635,1,0,0:0:0:0:
459,192,116635,1,0,0:0:0:0:
153,192,116691,1,0,0:0:0:0:
357,192,116691,1,0,0:0:0:0:
51,192,116774,1,0,0:0:0:0:
153,192,116857,1,0,0:0:0:0:
459,192,116857,1,0,0:0:0:0:
255,192,116913,1,0,0:0:0:0:
51,192,116969,1,0,0:0:0:0:
357,192,116969,1,0,0:0:0:0:
153,192,117024,1,0,0:0:0:0:
255,192,117024,1,0,0:0:0:0:
459,192,117024,1,0,0:0:0:0:
255,192,117191,1,0,0:0:0:0:
357,192,117191,1,0,0:0:0:0:
459,192,117191,1,0,0:0:0:0:
153,192,117246,1,0,0:0:0:0:
51,192,117357,1,0,0:0:0:0:
51,192,117524,1,0,0:0:0:0:
153,192,117524,1,0,0:0:0:0:
357,192,117524,1,0,0:0:0:0:
459,192,117524,1,0,0:0:0:0:
