osu file format v14

[General]
AudioFilename: audio.mp3
AudioLeadIn: 0
PreviewTime: -1
Countdown: 1
SampleSet: None
StackLeniency: 0.7
Mode: 0
LetterboxInBreaks: 0
WidescreenStoryboard: 0

[Editor]
DistanceSpacing: 0.7
BeatDivisor: 4
GridSize: 4
TimelineZoom: 1

[Metadata]
Title:Marvelousdate
TitleUnicode:奇妙的约会
Artist:HongZhong
ArtistUnicode:洪钟
Creator:blueloniess
Version:bluelon
Source:
Tags:
BeatmapID:1611206
BeatmapSetID:766421

[Difficulty]
HPDrainRate:0
CircleSize:4
OverallDifficulty:5
ApproachRate:5
SliderMultiplier:1.4
SliderTickRate:1

[Events]
//Background and Video events
//Break Periods
//Storyboard Layer 0 (Background)
//Storyboard Layer 1 (Fail)
//Storyboard Layer 2 (Pass)
//Storyboard Layer 3 (Foreground)
//Storyboard Sound Samples

[TimingPoints]
1250,472.44094488189,4,2,0,100,1,0
12352,461.538461538462,4,2,0,100,1,0
33813,476.190476190476,4,2,0,100,1,0

[HitObjects]
98,98,1250,5,0,0:0:0:0:
227,84,1486,1,0,0:0:0:0:
88,195,1722,5,0,0:0:0:0:
260,166,1958,1,0,0:0:0:0:
69,289,2194,5,0,0:0:0:0:
281,246,2431,2,0,P|345:248|419:311,1,140
480,363,3021,5,0,0:0:0:0:
480,363,3139,2,0,L|486:267,1,70
401,220,3612,2,0,L|405:289,1,70
473,130,4084,5,0,0:0:0:0:
473,130,4557,1,0,0:0:0:0:
221,71,5029,5,0,0:0:0:0:
299,175,5265,1,0,0:0:0:0:
404,130,5501,2,0,P|453:125|495:140,1,70
405,289,5974,5,0,0:0:0:0:
325,80,6210,1,0,0:0:0:0:
182,174,6446,2,0,P|99:191|58:170,1,105
82,185,6919,6,0,P|56:217|58:263,1,70
203,299,7391,1,0,0:0:0:0:
182,174,7627,1,0,0:0:0:0:
119,301,7864,2,0,P|149:364|241:373,1,140
203,299,8572,1,0,0:0:0:0:
15,317,8809,5,0,0:0:0:0:
119,301,9045,1,0,0:0:0:0:
286,190,9281,5,0,0:0:0:0:
182,174,9517,1,0,0:0:0:0:
45,43,9753,5,0,0:0:0:0:
149,27,9989,1,0,0:0:0:0:
286,190,10226,2,0,P|335:195|387:166,1,105
383,169,10698,6,0,L|372:255,1,70
212,368,11171,2,0,L|202:298,1,70
303,51,11643,2,0,L|284:197,1,140
202,298,12352,1,0,0:0:0:0:
374,238,12582,5,0,0:0:0:0:
284,189,12813,1,0,0:0:0:0:
202,298,13044,2,0,P|148:305|112:304,1,70
89,72,13505,1,0,0:0:0:0:
284,189,13736,1,0,0:0:0:0:
183,221,13967,2,0,L|170:95,1,105
172,116,14428,6,0,P|213:97|265:99,1,70
348,123,14890,1,0,0:0:0:0:
293,258,15121,2,0,L|281:170,1,70
251,13,15582,1,0,0:0:0:0:
446,83,15813,1,0,0:0:0:0:
172,116,16044,5,0,0:0:0:0:
70,57,16275,1,0,0:0:0:0:
98,226,16505,1,0,0:0:0:0:
232,59,16736,1,0,0:0:0:0:
8,138,16967,1,0,0:0:0:0:
283,188,17198,1,0,0:0:0:0:
147,15,17428,1,0,0:0:0:0:
21,287,17659,2,0,P|74:272|162:275,1,140
384,301,18352,1,0,0:0:0:0:
255,369,18582,1,0,0:0:0:0:
270,44,18813,1,0,0:0:0:0:
394,169,19044,1,0,0:0:0:0:
227,273,19275,2,0,P|154:273|127:261,1,70
90,204,19736,5,0,0:0:0:0:
90,204,19967,5,0,0:0:0:0:
279,203,20198,1,0,0:0:0:0:
66,135,20428,5,0,0:0:0:0:
332,175,20659,1,0,0:0:0:0:
116,73,20890,5,0,0:0:0:0:
375,220,21121,1,0,0:0:0:0:
224,43,21352,5,0,0:0:0:0:
388,236,21582,1,0,0:0:0:0:
348,41,21813,5,0,0:0:0:0:
422,238,22044,1,0,0:0:0:0:
274,286,22275,5,0,0:0:0:0:
274,286,22505,1,0,0:0:0:0:
274,286,22736,1,0,0:0:0:0:
73,165,23659,5,0,0:0:0:0:
49,335,23890,1,0,0:0:0:0:
148,160,24121,5,0,0:0:0:0:
142,355,24352,1,0,0:0:0:0:
236,192,24582,5,0,0:0:0:0:
266,359,24813,1,0,0:0:0:0:
356,177,25044,5,0,0:0:0:0:
390,349,25275,1,0,0:0:0:0:
482,157,25505,5,0,0:0:0:0:
171,233,25736,1,0,0:0:0:0:
351,60,25967,5,0,0:0:0:0:
351,60,26198,1,0,0:0:0:0:
351,60,26428,2,0,P|402:53|437:61,1,70
61,166,26890,1,0,0:0:0:0:
112,58,27121,1,0,0:0:0:0:
201,219,27352,5,0,0:0:0:0:
76,301,27582,1,0,0:0:0:0:
337,192,27813,5,0,0:0:0:0:
63,231,28044,1,0,0:0:0:0:
362,278,28275,5,0,0:0:0:0:
87,147,28505,1,0,0:0:0:0:
327,358,28736,5,0,0:0:0:0:
204,83,28967,1,0,0:0:0:0:
248,374,29198,5,0,0:0:0:0:
349,81,29428,1,0,0:0:0:0:
430,226,29659,5,0,0:0:0:0:
430,226,29890,1,0,0:0:0:0:
430,226,30121,1,0,0:0:0:0:
214,269,30813,6,0,P|153:248|81:309,1,140
159,331,31505,1,0,0:0:0:0:
129,52,31736,1,0,0:0:0:0:
102,122,31967,2,0,P|158:121|182:101,1,70
233,29,32428,1,0,0:0:0:0:
28,57,32659,1,0,0:0:0:0:
214,269,32890,5,0,0:0:0:0:
214,269,33121,1,0,0:0:0:0:
214,269,33352,1,0,0:0:0:0:
299,120,33582,2,0,P|305:184|297:205,1,70
214,269,34051,2,0,P|210:234|218:200,1,70
252,27,34527,5,0,0:0:0:0:
386,109,34765,5,0,0:0:0:0:
303,188,35003,2,0,L|294:109,1,70
191,224,35479,5,0,0:0:0:0:
295,257,35717,2,0,L|304:178,1,70
398,280,36193,5,0,0:0:0:0:
302,326,36432,2,0,L|293:247,1,70
267,120,36908,1,0,0:0:0:0:
378,180,37146,5,0,0:0:0:0:
166,206,37384,1,0,0:0:0:0:
244,29,37622,5,0,0:0:0:0:
378,180,38098,5,0,0:0:0:0:
