osu file format v14

[General]
AudioFilename: audio.mp3
AudioLeadIn: -1
PreviewTime: 62838
Countdown: 0
SampleSet: None
StackLeniency: 0.4
Mode: 0
LetterboxInBreaks: 0
WidescreenStoryboard: 0

[Editor]
Bookmarks: 21776,21878,21980,22082,33420,53032,74483,74585,74687,74789,100836,137608,159059,159161,159263,159365
DistanceSpacing: 0.7
BeatDivisor: 4
GridSize: 16
TimelineZoom: 1.5

[Metadata]
Title:Miraizu (Speed up Version)
TitleUnicode:未来図 (Speed up Version)
Artist:Honeyworks feat.Aida Miou(CV:Toyosaki Aki)
ArtistUnicode:HoneyWorks feat.合田 美桜(CV:豊崎 愛生)
Creator:Daxxel
Version:Extra
Source:
Tags:
BeatmapID:1762765
BeatmapSetID:842429

[Difficulty]
HPDrainRate:6
CircleSize:4
OverallDifficulty:9.2
ApproachRate:9.4
SliderMultiplier:1.6
SliderTickRate:1

[Events]
//Background and Video events
0,0,"illust_69467547_20180702_112210.jpg",0,0
//Break Periods
2,81424,97845
//Storyboard Layer 0 (Background)
//Storyboard Layer 1 (Fail)
//Storyboard Layer 2 (Pass)
//Storyboard Layer 3 (Foreground)
//Storyboard Sound Samples

[TimingPoints]
325,306.435137895812,4,2,1,12,1,0
4615,-200,4,2,1,12,0,0
5152,-200,4,2,1,5,0,0
5228,-166.666666666667,4,2,1,20,0,0
9518,-333.333333333334,4,2,1,20,0,0
10055,-333.333333333334,4,2,1,5,0,0
10131,-153.846153846154,4,2,1,30,0,0
10974,-153.846153846154,4,2,1,5,0,0
11051,-153.846153846154,4,2,1,30,0,0
12583,-111.111111111111,4,2,1,42,0,0
13655,-90.9090909090908,4,2,1,42,0,0
14038,-90.9090909090908,4,2,1,5,0,0
14115,-100,4,2,1,50,0,0
15034,-100,4,2,1,55,0,1
15647,-100,4,2,1,40,0,1
15953,-100,4,2,1,50,0,1
16260,-100,4,2,1,55,0,1
16873,-100,4,2,1,60,0,1
17486,-100,4,2,1,62,0,1
18099,-100,4,2,1,65,0,1
18711,-100,4,2,1,68,0,1
19018,-100,4,2,1,70,0,1
19171,-100,4,2,1,70,0,1
19324,-100,4,2,1,65,0,1
19631,-100,4,2,1,60,0,1
19937,-100,4,2,1,70,0,0
21776,-100,4,2,1,70,0,0
22389,-90.9090909090909,4,2,1,60,0,0
23385,-90.9090909090909,4,2,1,5,0,0
23461,-90.9090909090909,4,2,1,60,0,0
24840,-90.9090909090909,4,2,1,60,0,0
25913,-95.2380952380952,4,2,1,65,0,0
27292,-95.2380952380952,4,2,1,65,0,0
28517,-100,4,2,1,55,0,0
30969,-100,4,2,1,50,0,0
31428,-100,4,2,1,20,0,0
31505,-100,4,2,1,50,0,0
31735,-100,4,2,1,40,0,0
33420,-100,4,2,1,50,0,0
37098,-100,4,2,1,45,0,0
38323,-111.111111111111,4,2,1,40,0,0
43226,-111.111111111111,4,2,1,40,0,0
45678,-100,4,2,1,50,0,0
48129,-125,4,2,1,50,0,0
49355,-125,4,2,1,40,0,0
49968,-125,4,2,1,40,0,0
50581,-125,4,2,1,30,0,0
51806,-125,4,2,1,30,0,0
52956,-125,4,2,1,5,0,0
53032,-76.9230769230769,4,2,1,80,0,1
56096,-90.9090909090909,4,2,1,80,0,1
56173,-90.9090909090909,4,2,1,30,0,1
56250,-71.4285714285714,4,2,1,60,0,1
56480,-71.4285714285714,4,2,1,5,0,1
56556,-83.3333333333333,4,2,1,80,0,1
57016,-100,4,2,1,60,0,1
57935,-76.9230769230769,4,2,1,70,0,1
62838,-71.4285714285714,4,2,1,80,0,1
66285,-71.4285714285714,4,2,1,5,0,1
66362,-71.4285714285714,4,2,1,80,0,1
67128,-83.3333333333333,4,2,1,80,0,1
67435,-133.333333333333,4,2,1,70,0,1
67741,-83.3333333333333,4,2,1,80,0,1
68967,-71.4285714285714,4,2,1,80,0,1
69580,-62.5,4,2,1,80,0,1
70193,-55.5555555555556,4,2,1,80,0,1
71878,-66.6666666666667,4,2,1,80,0,1
72644,-100,4,2,1,80,0,0
74483,-100,4,2,1,60,0,0
74789,-100,4,2,1,60,0,0
75095,-83.3333333333333,4,2,1,80,0,0
78619,-76.9230769230769,4,2,1,80,0,0
81224,-100,4,2,1,50,0,0
89804,-200,4,2,1,50,0,0
91030,-200,4,2,1,50,0,0
94707,-200,4,2,1,50,0,0
95320,-200,4,2,1,50,0,0
95933,-200,4,2,1,50,0,0
98385,-166.666666666667,4,2,1,10,0,0
100453,-166.666666666667,4,2,1,5,0,0
100530,-125,4,2,1,50,0,0
100836,-90.9090909090909,4,2,1,65,0,0
104283,-90.9090909090909,4,2,1,5,0,0
104360,-86.2068965517241,4,2,1,65,0,0
104743,-86.2068965517241,4,2,1,5,0,0
104820,-86.2068965517241,4,2,1,65,0,0
110642,-83.3333333333333,4,2,1,65,0,0
112710,-83.3333333333333,4,2,1,5,0,0
112787,-83.3333333333333,4,2,1,65,0,0
114549,-83.3333333333333,4,2,1,5,0,0
114626,-83.3333333333333,4,2,1,65,0,0
115545,-80,4,2,1,65,0,0
120448,-100,4,2,1,65,0,0
127802,-100,4,2,1,50,0,0
128032,-100,4,2,1,5,0,0
128109,-100,4,2,1,50,0,0
130254,-100,4,2,1,50,0,0
131480,-100,4,2,1,50,0,0
132705,-100,4,2,1,70,0,0
133931,-100,4,2,1,70,0,0
134008,-100,4,2,1,5,0,0
135157,-399.999999999997,4,2,1,15,0,0
136383,-222.222222222222,4,2,1,30,0,0
137608,-90.9090909090909,4,2,1,80,0,1
146188,-100,4,2,1,80,0,1
146648,-100,4,2,1,80,0,1
147108,-100,4,2,1,80,0,1
150862,-100,4,2,1,5,0,1
150938,-71.4285714285714,4,2,1,80,0,1
151398,-83.3333333333333,4,2,1,80,0,1
151704,-83.3333333333333,4,2,1,80,0,1
152317,-83.3333333333333,4,2,1,80,0,1
154769,-83.3333333333333,4,2,1,80,0,1
155994,-83.3333333333333,4,2,1,80,0,1
157220,-100,4,2,1,80,0,0
159059,-100,4,2,1,80,0,0
159365,-100,4,2,1,80,0,0
159672,-100,4,2,1,70,0,0
160744,-100,4,2,1,70,0,0
162123,-100,4,2,1,70,0,0
162736,-100,4,2,1,70,0,0
162940,-100,4,2,1,70,0,0
163145,-100,4,2,1,70,0,0
163349,-100,4,2,1,70,0,0

[Colours]
Combo1 : 215,24,231
Combo2 : 39,121,243
Combo3 : 157,19,217
Combo4 : 24,194,231

[HitObjects]
70,76,4615,6,0,P|119:108|196:89,1,140,0|0,0:0|0:0,0:0:0:0:
225,52,5228,6,0,L|216:147,1,95.9999970703126,0|0,0:0|0:0,0:0:0:0:
293,159,5841,2,0,L|301:254,1,95.9999970703126,0|0,0:0|0:0,0:0:0:0:
377,348,6454,2,0,P|337:374|289:376,1,95.9999970703126,0|0,0:0|0:0,0:0:0:0:
209,317,7067,5,0,0:0:0:0:
149,301,7373,1,0,0:0:0:0:
91,321,7680,2,0,B|123:215|49:239|93:122,1,191.999994140625,0|0,0:0|0:0,0:0:0:0:
160,75,8599,1,0,0:0:0:0:
180,78,8905,2,0,L|188:173,1,95.9999970703126,0|0,0:0|0:0,0:0:0:0:
187,252,9518,6,0,P|228:241|266:255,1,83.9999974365235,0|0,0:0|0:0,0:0:0:0:
302,291,10131,6,0,L|317:189,1,103.999995239258,2|0,0:0|0:0,0:0:0:0:
379,183,10744,2,0,P|363:133|367:94,1,77.9999964294435,0|0,0:0|0:0,0:0:0:0:
397,48,11051,1,0,0:0:0:0:
408,18,11204,6,0,P|362:41|310:47,1,103.999995239258,0|0,0:0|0:0,0:0:0:0:
226,6,11663,2,0,P|214:55|232:103,1,103.999995239258,0|0,0:0|0:0,0:0:0:0:
351,176,12276,1,0,0:0:0:0:
241,295,12583,6,0,P|248:259|242:224,1,71.9999978027344,2|2,0:0|0:0,0:0:0:0:
154,258,12890,2,0,P|146:293|152:328,1,71.9999978027344,2|0,0:0|0:0,0:0:0:0:
236,384,13196,5,6,0:0:0:0:
255,158,13349,1,0,0:0:0:0:
485,286,13655,6,0,B|349:270|402:336|265:311,1,220.000006713867,12|0,0:0|0:0,0:0:0:0:
241,295,14115,5,2,0:0:0:0:
219,262,14191,1,2,0:0:0:0:
214,222,14268,1,2,0:0:0:0:
226,185,14344,1,2,0:0:0:0:
254,157,14421,1,10,0:0:0:0:
275,136,14498,1,10,0:0:0:0:
282,107,14574,1,10,0:0:0:0:
273,79,14651,1,10,0:0:0:0:
245,62,14728,2,0,L|195:67,1,40,8|8,0:0|0:0,0:0:0:0:
70,150,14881,2,0,L|120:145,1,40,8|8,0:0|0:0,0:0:0:0:
310,231,15034,5,6,0:0:0:0:
145,349,15187,1,2,0:0:0:0:
147,334,15264,1,2,0:0:0:0:
149,319,15341,1,8,0:0:0:0:
169,192,15494,1,8,0:0:0:0:
304,353,15647,5,2,0:0:0:0:
427,226,15800,1,2,0:0:0:0:
425,197,15877,1,2,0:0:0:0:
413,171,15953,1,8,0:0:0:0:
244,108,16106,1,2,0:0:0:0:
333,217,16260,5,2,0:0:0:0:
369,37,16413,1,2,0:0:0:0:
468,107,16566,1,8,0:0:0:0:
244,108,16720,1,8,0:0:0:0:
214,106,16796,1,8,0:0:0:0:
184,100,16872,6,2,L|177:139,1,40,10|2,0:0|0:0,0:0:0:0:
94,171,17026,2,2,L|100:210,1,40,2|2,0:0|0:0,0:0:0:0:
166,287,17179,1,8,0:0:0:0:
181,319,17255,1,8,0:0:0:0:
207,343,17332,1,8,0:0:0:0:
240,357,17408,1,8,0:0:0:0:
276,359,17485,5,8,0:0:0:0:
418,244,17639,1,2,0:0:0:0:
278,211,17792,5,8,0:0:0:0:
374,357,17945,1,2,0:0:0:0:
488,172,18099,5,8,0:0:0:0:
295,118,18252,1,2,0:0:0:0:
300,132,18328,1,2,0:0:0:0:
305,145,18405,1,8,0:0:0:0:
427,62,18558,1,2,0:0:0:0:
421,75,18634,1,2,0:0:0:0:
417,88,18711,5,8,0:0:0:0:
360,227,18865,1,8,0:0:0:0:
140,183,19018,5,8,0:0:0:0:
236,66,19171,1,8,0:0:0:0:
259,43,19248,1,8,0:0:0:0:
281,22,19324,2,0,B|312:19|312:19|342:39,2,53.3333333333333,2|2|2,0:0|0:0|0:0,0:0:0:0:
233,145,19631,2,0,B|201:147|201:147|171:127,2,53.3333333333333,2|2|2,0:0|0:0|0:0,0:0:0:0:
140,32,19937,1,2,0:0:0:0:
143,1,21776,5,8,0:0:0:0:
110,38,21878,1,2,0:0:0:0:
159,49,21980,1,2,0:0:0:0:
140,32,22082,1,2,0:0:0:0:
75,323,22389,6,0,P|112:345|155:345,1,88.000002685547,6|8,0:0|0:0,0:0:0:0:
186,330,22618,1,8,0:0:0:0:
220,319,22695,1,8,0:0:0:0:
374,290,22848,1,2,0:0:0:0:
316,361,23001,1,0,0:0:0:0:
263,187,23155,2,0,P|263:130|322:79,1,132.00000402832,2|0,0:0|0:0,0:0:0:0:
354,29,23461,6,0,P|273:61|186:49,1,176.000005371094,6|2,0:0|0:0,0:0:0:0:
92,23,23921,1,8,0:0:0:0:
135,189,24074,1,2,0:0:0:0:
200,117,24227,1,2,0:0:0:0:
37,172,24380,1,2,0:0:0:0:
176,280,24534,1,8,0:0:0:0:
235,199,24687,1,2,0:0:0:0:
51,92,24840,6,0,P|92:104|135:95,1,88.000002685547,2|2,0:0|0:0,0:0:0:0:
250,7,25147,2,0,P|240:49|247:92,1,88.000002685547,2|8,0:0|0:0,0:0:0:0:
362,180,25453,5,2,0:0:0:0:
402,98,25606,1,8,0:0:0:0:
223,210,25759,1,2,0:0:0:0:
417,256,25913,6,0,P|481:300|455:373,1,167.999994873047,12|2,0:0|0:0,0:0:0:0:
366,359,26372,2,0,P|328:373|286:367,1,83.9999974365235,8|2,0:0|0:0,0:0:0:0:
201,274,26679,5,2,0:0:0:0:
320,278,26832,1,2,0:0:0:0:
231,191,26985,1,8,0:0:0:0:
171,357,27138,1,2,0:0:0:0:
366,359,27292,6,0,P|398:331|413:293,1,83.9999974365235,2|2,0:0|0:0,0:0:0:0:
184,125,27598,2,0,P|199:163|230:190,1,83.9999974365235,8|2,0:0|0:0,0:0:0:0:
278,107,27904,1,2,0:0:0:0:
75,76,28058,5,2,0:0:0:0:
77,105,28134,1,0,0:0:0:0:
79,132,28211,1,8,0:0:0:0:
151,332,28364,1,8,0:0:0:0:
167,305,28441,1,8,0:0:0:0:
194,290,28517,6,0,P|231:303|271:300,1,80,8|2,0:0|0:0,0:0:0:0:
253,131,28824,2,0,P|240:168|246:208,1,80,8|0,0:0|0:0,0:0:0:0:
338,179,29130,5,2,0:0:0:0:
294,39,29283,1,0,0:0:0:0:
168,156,29437,1,0,0:0:0:0:
253,131,29590,1,0,0:0:0:0:
66,78,29743,6,0,P|44:126|85:253,1,160,2|0,0:0|0:0,0:0:0:0:
121,287,30203,2,0,P|157:270|196:268,1,80,2|0,0:0|0:0,0:0:0:0:
284,312,30509,1,2,0:0:0:0:
184,363,30662,1,8,0:0:0:0:
179,367,30969,6,0,P|190:329|188:290,1,80,2|2,0:0|0:0,0:0:0:0:
62,134,31275,2,0,P|40:167|32:206,1,80,8|0,0:0|0:0,0:0:0:0:
72,270,31506,1,8,0:0:0:0:
83,283,31582,2,0,P|120:295|160:294,1,80,2|0,0:0|0:0,0:0:0:0:
207,230,31887,2,0,P|208:269|226:304,1,80,2|0,0:0|0:0,0:0:0:0:
303,243,32195,5,2,0:0:0:0:
266,153,32348,1,2,0:0:0:0:
116,213,32501,1,2,0:0:0:0:
207,230,32654,2,0,P|205:190|187:155,1,80,2|0,0:0|0:0,0:0:0:0:
21,154,32961,5,2,0:0:0:0:
85,292,33114,1,8,0:0:0:0:
221,111,33267,1,2,0:0:0:0:
28,39,33420,6,0,P|52:71|90:82,1,80,12|2,0:0|0:0,0:0:0:0:
316,42,33727,2,0,P|292:10|254:0,1,80,8|2,0:0|0:0,0:0:0:0:
137,172,34033,5,8,0:0:0:0:
351,225,34186,1,2,0:0:0:0:
179,259,34340,5,8,0:0:0:0:
348,141,34493,1,2,0:0:0:0:
372,133,34569,1,2,0:0:0:0:
402,136,34646,5,8,0:0:0:0:
482,316,34799,1,2,0:0:0:0:
509,131,34952,5,8,0:0:0:0:
381,311,35106,1,2,0:0:0:0:
319,73,35259,5,8,0:0:0:0:
506,207,35412,1,2,0:0:0:0:
273,284,35565,5,8,0:0:0:0:
402,121,35719,1,2,0:0:0:0:
412,90,35795,1,2,0:0:0:0:
409,59,35872,5,8,0:0:0:0:
192,43,36025,1,2,0:0:0:0:
274,161,36178,5,8,0:0:0:0:
294,71,36331,1,2,0:0:0:0:
134,170,36485,5,2,0:0:0:0:
232,270,36638,1,8,0:0:0:0:
202,69,36791,6,0,L|162:64,1,40,2|2,0:0|0:0,0:0:0:0:
72,76,36944,1,2,0:0:0:0:
53,111,37021,1,2,0:0:0:0:
56,147,37098,1,8,0:0:0:0:
133,323,37251,5,8,0:0:0:0:
136,308,37327,1,8,0:0:0:0:
139,293,37404,1,8,0:0:0:0:
202,69,37557,1,2,0:0:0:0:
205,84,37633,1,2,0:0:0:0:
211,101,37710,6,0,B|235:113|235:113|261:114,2,53.3333333333333,0|0|0,0:0|0:0|0:0,0:0:0:0:
331,71,38017,2,0,B|343:94|343:94|345:121,2,53.3333333333333,8|8|8,0:0|0:0|0:0,0:0:0:0:
297,210,38323,5,6,0:0:0:0:
183,224,38630,2,0,P|170:257|174:292,1,71.9999978027344,0|2,0:0|0:0,0:0:0:0:
249,286,38936,2,0,P|262:319|258:354,1,71.9999978027344,2|0,0:0|0:0,0:0:0:0:
173,377,39243,2,0,L|101:366,1,71.9999978027344,8|0,0:0|0:0,0:0:0:0:
48,311,39549,6,0,P|80:295|102:267,1,71.9999978027344,2|2,0:0|0:0,0:0:0:0:
12,148,39855,2,0,P|10:184|23:218,1,71.9999978027344,0|2,0:0|0:0,0:0:0:0:
170,198,40162,2,0,P|140:178|104:172,1,71.9999978027344,2|0,0:0|0:0,0:0:0:0:
178,300,40468,2,0,L|248:285,1,71.9999978027344,8|0,0:0|0:0,0:0:0:0:
347,256,40775,6,0,P|340:290|348:325,1,71.9999978027344,2|0,0:0|0:0,0:0:0:0:
434,190,41081,2,0,P|441:224|433:259,1,71.9999978027344,0|2,0:0|0:0,0:0:0:0:
317,98,41388,2,0,P|309:132|317:167,1,71.9999978027344,2|0,0:0|0:0,0:0:0:0:
453,38,41694,2,0,P|460:72|452:107,1,71.9999978027344,8|0,0:0|0:0,0:0:0:0:
355,29,42000,6,0,B|316:20|316:20|289:2,1,71.9999978027344,2|2,0:0|0:0,0:0:0:0:
153,52,42307,2,0,B|191:60|191:60|218:78,1,71.9999978027344,0|2,0:0|0:0,0:0:0:0:
283,157,42613,1,2,0:0:0:0:
232,220,42767,1,0,0:0:0:0:
54,126,42920,1,8,0:0:0:0:
43,127,43226,6,0,P|55:162|55:201,1,71.9999978027344,6|0,0:0|0:0,0:0:0:0:
56,337,43533,2,0,P|80:307|113:288,1,71.9999978027344,0|2,0:0|0:0,0:0:0:0:
232,220,43839,2,0,P|194:213|161:194,1,71.9999978027344,2|2,0:0|0:0,0:0:0:0:
126,120,44069,1,2,0:0:0:0:
136,114,44146,2,0,P|167:97|186:67,1,71.9999978027344,8|0,0:0|0:0,0:0:0:0:
214,16,44452,6,0,P|224:50|247:77,1,71.9999978027344,2|2,0:0|0:0,0:0:0:0:
380,7,44758,2,0,P|345:-1|310:5,1,71.9999978027344,0|2,0:0|0:0,0:0:0:0:
304,155,45065,2,0,P|328:129|340:95,1,71.9999978027344,2|0,0:0|0:0,0:0:0:0:
214,16,45371,1,8,0:0:0:0:
136,114,45524,1,0,0:0:0:0:
340,95,45678,1,12,0:0:0:0:
273,183,45984,6,0,B|267:208|267:208|272:234,2,53.3333333333333,8|8|8,0:0|0:0|0:0,0:0:0:0:
355,210,46291,1,8,0:0:0:0:
168,175,46597,2,0,B|192:167|192:167|212:149,2,53.3333333333333,8|8|8,0:0|0:0|0:0,0:0:0:0:
151,90,46904,1,8,0:0:0:0:
213,269,47209,6,0,B|194:251|194:251|168:242,2,53.3333333333333,8|8|8,0:0|0:0|0:0,0:0:0:0:
90,300,47516,2,0,B|108:317|108:317|134:326,2,53.3333333333333,8|8|8,0:0|0:0|0:0,0:0:0:0:
96,215,47822,2,0,L|105:135,1,80,8|8,0:0|0:0,0:0:0:0:
121,34,48129,5,6,0:0:0:0:
127,52,48282,1,2,0:0:0:0:
376,94,49356,5,2,0:0:0:0:
370,112,49509,1,2,0:0:0:0:
205,160,49968,5,2,0:0:0:0:
211,178,50121,1,2,0:0:0:0:
287,233,50581,5,2,0:0:0:0:
274,270,50734,1,2,0:0:0:0:
191,119,50887,5,10,0:0:0:0:
213,190,51040,1,10,0:0:0:0:
353,50,51194,5,10,0:0:0:0:
336,156,51347,1,10,0:0:0:0:
113,25,51500,5,8,0:0:0:0:
143,166,51653,1,8,0:0:0:0:
256,192,51806,12,0,52956,0:0:0:0:
158,94,53032,6,0,P|188:134|186:185,1,103.999995239258,6|0,0:0|0:0,0:0:0:0:
42,286,53339,2,0,P|91:271|141:281,1,103.999995239258,8|0,0:0|0:0,0:0:0:0:
192,365,53645,5,2,0:0:0:0:
346,289,53798,1,2,0:0:0:0:
202,171,53951,1,8,0:0:0:0:
300,369,54105,1,2,0:0:0:0:
399,184,54258,2,0,P|412:134|403:83,1,103.999995239258,0|0,0:0|0:0,0:0:0:0:
172,33,54564,6,0,P|211:65|262:71,1,103.999995239258,8|2,0:0|0:0,0:0:0:0:
87,0,54871,2,0,P|38:17|8:59,1,103.999995239258,2|2,0:0|0:0,0:0:0:0:
97,217,55177,1,8,0:0:0:0:
251,153,55330,1,2,0:0:0:0:
254,354,55484,5,2,0:0:0:0:
164,266,55637,1,2,0:0:0:0:
408,218,55790,1,8,0:0:0:0:
342,323,55943,1,2,0:0:0:0:
269,176,56096,6,0,B|255:156|255:156|258:134,1,44.0000013427735,2|0,0:0|0:0,0:0:0:0:
299,61,56250,2,0,P|226:97|146:76,1,167.999994873047,12|0,0:0|0:0,0:0:0:0:
60,22,56556,6,0,B|105:131|31:127|64:208,1,192,6|0,0:0|0:0,0:0:0:0:
136,309,57016,1,8,0:0:0:0:
190,153,57169,1,0,0:0:0:0:
80,231,57322,1,8,0:0:0:0:
331,283,57475,5,0,0:0:0:0:
352,252,57552,1,2,0:0:0:0:
358,220,57629,1,8,0:0:0:0:
233,82,57782,1,2,0:0:0:0:
256,101,57858,1,2,0:0:0:0:
291,108,57935,1,12,0:0:0:0:
423,59,58088,5,0,0:0:0:0:
210,0,58242,1,0,0:0:0:0:
331,212,58395,1,2,0:0:0:0:
291,108,58548,5,2,0:0:0:0:
190,265,58701,1,2,0:0:0:0:
424,181,58854,1,8,0:0:0:0:
190,265,59008,1,2,0:0:0:0:
331,212,59161,6,0,P|382:218|424:248,1,103.999995239258,2|0,0:0|0:0,0:0:0:0:
340,335,59467,1,8,0:0:0:0:
190,265,59620,5,0,0:0:0:0:
300,93,59774,1,2,0:0:0:0:
256,217,59927,1,2,0:0:0:0:
77,150,60080,5,8,0:0:0:0:
221,115,60233,1,0,0:0:0:0:
189,265,60387,6,0,P|182:315|208:359,1,103.999995239258,2|0,0:0|0:0,0:0:0:0:
370,328,60693,2,0,P|330:296|279:297,1,103.999995239258,8|0,0:0|0:0,0:0:0:0:
139,347,60999,5,2,0:0:0:0:
21,176,61153,1,2,0:0:0:0:
44,199,61229,1,0,0:0:0:0:
76,209,61306,1,8,0:0:0:0:
244,132,61459,1,2,0:0:0:0:
114,61,61612,5,2,0:0:0:0:
228,273,61766,1,0,0:0:0:0:
319,157,61919,1,8,0:0:0:0:
139,199,62072,5,10,0:0:0:0:
185,364,62225,1,8,0:0:0:0:
219,379,62302,1,0,0:0:0:0:
258,375,62378,2,0,P|283:366|309:351,1,51.999997619629,8|8,0:0|0:0,0:0:0:0:
330,236,62532,1,2,0:0:0:0:
314,196,62608,1,8,0:0:0:0:
319,157,62685,1,8,0:0:0:0:
340,131,62761,1,8,0:0:0:0:
394,125,62838,6,0,B|263:154|293:73|155:97,1,223.999993164063,6|8,0:0|0:0,0:0:0:0:
120,226,63298,1,0,0:0:0:0:
277,315,63451,2,0,P|282:260|260:209,1,111.999996582031,2|2,0:0|0:0,0:0:0:0:
34,297,63757,2,0,P|80:328|135:335,1,111.999996582031,8|2,0:0|0:0,0:0:0:0:
178,113,64064,5,0,0:0:0:0:
120,226,64217,1,2,0:0:0:0:
314,248,64370,1,8,0:0:0:0:
255,169,64523,1,0,0:0:0:0:
197,335,64677,5,2,0:0:0:0:
398,267,64830,1,2,0:0:0:0:
412,238,64907,1,0,0:0:0:0:
407,202,64983,1,8,0:0:0:0:
486,332,65136,1,0,0:0:0:0:
311,373,65290,5,2,0:0:0:0:
336,154,65443,1,2,0:0:0:0:
213,253,65596,1,8,0:0:0:0:
477,239,65749,1,0,0:0:0:0:
413,80,65902,5,2,0:0:0:0:
336,154,66056,2,0,B|305:192|322:231|322:231|359:214|363:161,1,167.999994873047,2|0,0:0|0:0,0:0:0:0:
290,89,66362,6,0,P|240:186|263:293,1,223.999993164063,6|0,0:0|0:0,0:0:0:0:
335,346,66822,1,8,0:0:0:0:
106,340,66975,1,0,0:0:0:0:
176,213,67128,5,8,0:0:0:0:
213,184,67204,1,8,0:0:0:0:
258,170,67281,1,8,0:0:0:0:
306,176,67357,1,8,0:0:0:0:
347,200,67435,1,10,0:0:0:0:
380,217,67511,1,10,0:0:0:0:
417,220,67587,1,10,0:0:0:0:
453,209,67664,1,10,0:0:0:0:
482,186,67740,1,6,0:0:0:0:
285,29,67894,5,2,0:0:0:0:
277,61,67971,1,2,0:0:0:0:
284,92,68047,1,8,0:0:0:0:
372,170,68201,2,0,P|378:193|380:216,1,47.9999985351563,2|0,0:0|0:0,0:0:0:0:
356,310,68354,5,2,0:0:0:0:
183,259,68507,1,2,0:0:0:0:
301,174,68660,1,8,0:0:0:0:
212,371,68814,1,2,0:0:0:0:
69,267,68967,6,0,P|60:213|71:158,1,111.999996582031,2|2,0:0|0:0,0:0:0:0:
206,29,69273,1,8,0:0:0:0:
191,201,69426,1,2,0:0:0:0:
92,78,69580,5,2,0:0:0:0:
352,168,69733,1,2,0:0:0:0:
124,154,69886,1,8,0:0:0:0:
373,46,70039,1,2,0:0:0:0:
347,301,70193,5,8,0:0:0:0:
124,154,70346,1,2,0:0:0:0:
299,43,70499,5,8,0:0:0:0:
183,283,70652,1,2,0:0:0:0:
85,64,70805,5,8,0:0:0:0:
401,204,70959,1,2,0:0:0:0:
69,321,71112,5,8,0:0:0:0:
236,31,71265,1,2,0:0:0:0:
354,339,71418,5,8,0:0:0:0:
139,188,71571,2,0,B|112:163|112:163|111:127,2,71.9999978027344,2|8|8,0:0|0:0|0:0,0:0:0:0:
390,131,71878,1,2,0:0:0:0:
393,146,71955,1,8,0:0:0:0:
396,160,72031,6,0,B|401:200|401:200|389:238,2,80.0000030517579,10|2|2,0:0|0:0|0:0,0:0:0:0:
229,109,72338,2,0,B|224:69|224:69|235:30,2,80.0000030517579,2|2|2,0:0|0:0|0:0,0:0:0:0:
391,22,72644,1,6,0:0:0:0:
375,0,74483,5,8,0:0:0:0:
377,61,74585,1,2,0:0:0:0:
429,29,74687,1,2,0:0:0:0:
391,27,74789,1,2,0:0:0:0:
404,67,75095,5,6,0:0:0:0:
338,256,75249,1,2,0:0:0:0:
512,259,75402,2,0,P|491:216|453:187,1,95.9999970703126,8|2,0:0|0:0,0:0:0:0:
233,239,75708,5,0,0:0:0:0:
186,383,75862,2,0,P|154:347|141:301,1,95.9999970703126,2|0,0:0|0:0,0:0:0:0:
163,1,76168,2,0,B|192:106|103:81|154:211,1,191.999994140625,2|2,0:0|0:0,0:0:0:0:
292,267,76628,5,8,0:0:0:0:
310,107,76781,1,2,0:0:0:0:
151,194,76934,5,2,0:0:0:0:
373,296,77087,1,2,0:0:0:0:
423,154,77241,5,8,0:0:0:0:
199,99,77394,1,2,0:0:0:0:
259,323,77547,6,0,P|298:349|345:350,1,95.9999970703126,2|2,0:0|0:0,0:0:0:0:
509,181,77853,2,0,P|469:154|422:153,1,95.9999970703126,8|2,0:0|0:0,0:0:0:0:
424,335,78160,6,0,B|449:375|449:375|496:384,2,95.9999970703126,2|2|8,0:0|0:0|0:0,0:0:0:0:
508,181,78619,2,0,P|411:211|316:174,1,207.999990478516,6|2,0:0|0:0,0:0:0:0:
271,37,79079,1,8,0:0:0:0:
385,77,79232,1,2,0:0:0:0:
248,260,79386,5,2,0:0:0:0:
296,135,79539,1,2,0:0:0:0:
403,314,79692,1,8,0:0:0:0:
198,167,79845,1,0,0:0:0:0:
391,184,79998,5,2,0:0:0:0:
297,347,80152,1,2,0:0:0:0:
225,226,80305,1,8,0:0:0:0:
297,347,80458,1,2,0:0:0:0:
303,205,80611,6,0,B|292:128|292:128|252:60,2,155.999992858887,2|2|2,0:0|0:0|0:0,0:0:0:0:
156,379,81224,1,2,0:0:0:0:
158,46,98385,6,0,P|161:93|127:125,1,95.9999970703126,0|0,0:0|0:0,0:0:0:0:
94,230,98997,2,0,P|132:204|177:218,1,95.9999970703126,0|0,0:0|0:0,0:0:0:0:
286,194,99610,2,0,P|244:174|233:128,1,95.9999970703126,0|0,0:0|0:0,0:0:0:0:
382,48,100223,2,0,L|386:119,1,71.9999978027344,0|0,0:0|0:0,0:0:0:0:
404,150,100530,6,0,L|400:181,1,32,0|0,0:0|0:0,0:0:0:0:
337,305,100683,2,0,L|333:273,1,32,0|0,0:0|0:0,0:0:0:0:
293,133,100836,6,0,P|260:160|217:164,1,88.000002685547,6|0,0:0|0:0,0:0:0:0:
99,77,101142,1,8,0:0:0:0:
180,49,101296,1,0,0:0:0:0:
128,167,101449,2,0,P|111:207|111:250,1,88.000002685547,2|2,0:0|0:0,0:0:0:0:
171,336,101755,1,8,0:0:0:0:
276,290,101909,2,0,B|332:251|333:175|333:175|316:157|312:135,1,176.000005371094,2|2,0:0|0:0,0:0:0:0:
407,42,102368,6,0,P|434:95|414:137,1,88.000002685547,8|0,0:0|0:0,0:0:0:0:
255,195,102675,2,0,P|287:145|333:141,1,88.000002685547,2|2,0:0|0:0,0:0:0:0:
464,251,102981,2,0,P|404:247|378:209,1,88.000002685547,8|2,0:0|0:0,0:0:0:0:
406,42,103288,6,0,P|386:79|345:93,1,88.000002685547,2|2,0:0|0:0,0:0:0:0:
240,57,103594,1,8,0:0:0:0:
190,215,103747,1,2,0:0:0:0:
320,184,103900,1,2,0:0:0:0:
100,148,104054,2,0,B|59:157|59:157|69:209|44:249,1,132.00000402832,12|0,0:0|0:0,0:0:0:0:
31,297,104360,2,0,B|70:310|103:297|103:297|143:277|183:297|183:297|216:310|255:297,1,232.000007080078,6|0,0:0|0:0,0:0:0:0:
302,280,104820,5,8,0:0:0:0:
271,130,104973,1,2,0:0:0:0:
139,214,105126,1,2,0:0:0:0:
239,328,105280,1,2,0:0:0:0:
261,356,105357,1,2,0:0:0:0:
296,365,105433,1,10,0:0:0:0:
331,359,105509,1,10,0:0:0:0:
361,339,105586,1,10,0:0:0:0:
395,329,105662,1,10,0:0:0:0:
432,345,105739,6,0,B|410:237|465:272|445:158,1,185.600005664063,6|8,0:0|0:0,0:0:0:0:
373,54,106199,1,0,0:0:0:0:
271,156,106352,2,0,P|267:201|290:240,1,92.8000028320313,2|2,0:0|0:0,0:0:0:0:
395,329,106658,1,8,0:0:0:0:
445,163,106812,1,2,0:0:0:0:
250,308,106965,6,0,P|295:311|334:287,1,92.8000028320313,2|2,0:0|0:0,0:0:0:0:
210,160,107271,1,8,0:0:0:0:
160,299,107424,1,2,0:0:0:0:
307,155,107578,1,2,0:0:0:0:
124,114,107731,5,2,0:0:0:0:
250,308,107884,1,8,0:0:0:0:
210,160,108037,1,2,0:0:0:0:
114,278,108190,6,0,P|74:299|32:283,1,92.8000028320313,2|0,0:0|0:0,0:0:0:0:
44,183,108497,2,0,P|72:147|78:101,1,92.8000028320313,8|0,0:0|0:0,0:0:0:0:
34,21,108803,1,2,0:0:0:0:
254,86,108957,1,2,0:0:0:0:
151,135,109110,1,8,0:0:0:0:
292,1,109263,2,0,P|378:5|394:90,1,185.600005664063,2|2,0:0|0:0,0:0:0:0:
285,190,109723,6,0,L|296:240,1,46.4000014160157,8|0,0:0|0:0,0:0:0:0:
336,351,109876,1,2,0:0:0:0:
367,357,109952,1,2,0:0:0:0:
398,354,110029,2,0,P|418:344|430:324,1,46.4000014160157,2|0,0:0|0:0,0:0:0:0:
396,245,110182,1,2,0:0:0:0:
379,214,110259,1,2,0:0:0:0:
383,179,110336,2,0,L|400:130,1,46.4000014160157,10|10,0:0|0:0,0:0:0:0:
477,115,110489,2,0,L|460:66,1,46.4000014160157,10|10,0:0|0:0,0:0:0:0:
403,1,110642,6,0,B|379:20|343:24|343:24|273:7|218:32,1,191.999994140625,6|8,0:0|0:0,0:0:0:0:
154,162,111102,2,0,B|217:207|277:169|277:169|318:185|346:175,1,191.999994140625,2|2,0:0|0:0,0:0:0:0:
477,115,111561,2,0,B|470:153|454:180|454:180|485:249|464:317,1,191.999994140625,8|2,0:0|0:0,0:0:0:0:
382,380,112021,2,0,L|363:320,1,47.9999985351563,2|0,0:0|0:0,0:0:0:0:
285,247,112174,2,0,L|266:307,1,47.9999985351563,8|0,0:0|0:0,0:0:0:0:
242,366,112327,2,0,B|208:360|178:378|178:378|145:364|126:326|126:326|83:369|23:355,1,239.999992675781,2|0,0:0|0:0,0:0:0:0:
7,347,112787,6,0,L|20:300,1,47.9999985351563,8|0,0:0|0:0,0:0:0:0:
112,263,112940,2,0,L|98:216,1,47.9999985351563,0|0,0:0|0:0,0:0:0:0:
53,30,113093,1,2,0:0:0:0:
28,192,113247,1,0,0:0:0:0:
141,53,113400,1,8,0:0:0:0:
177,197,113553,1,2,0:0:0:0:
188,231,113629,1,2,0:0:0:0:
199,265,113706,1,2,0:0:0:0:
211,299,113782,1,0,0:0:0:0:
217,338,113860,6,0,P|263:346|305:326,1,95.9999970703126,6|0,0:0|0:0,0:0:0:0:
384,293,114166,2,0,B|368:246|384:207|384:207|360:184|360:184|384:161|384:161|368:122|384:76,1,239.999992675781,6|0,0:0|0:0,0:0:0:0:
402,44,114626,1,8,0:0:0:0:
470,177,114779,1,0,0:0:0:0:
316,253,114932,6,0,L|269:265,1,47.9999985351563,8|0,0:0|0:0,0:0:0:0:
201,224,115085,2,0,L|154:236,1,47.9999985351563,8|8,0:0|0:0,0:0:0:0:
62,248,115238,1,8,0:0:0:0:
38,209,115314,1,8,0:0:0:0:
32,165,115391,1,8,0:0:0:0:
44,122,115467,1,8,0:0:0:0:
72,87,115545,6,0,P|152:112|191:95,1,100,6|2,0:0|0:0,0:0:0:0:
234,25,115851,2,0,L|282:37,1,50,8|2,0:0|0:0,0:0:0:0:
306,109,116005,2,0,L|354:96,1,50,2|2,0:0|0:0,0:0:0:0:
469,42,116158,1,2,0:0:0:0:
424,254,116311,1,2,0:0:0:0:
481,157,116464,1,8,0:0:0:0:
309,185,116617,2,0,B|259:191|259:191|218:220,1,100,2|0,0:0|0:0,0:0:0:0:
140,297,116924,6,0,P|116:291|98:274,1,50,2|2,0:0|0:0,0:0:0:0:
49,212,117077,1,8,0:0:0:0:
71,173,117154,1,2,0:0:0:0:
83,130,117230,1,2,0:0:0:0:
70,87,117307,1,2,0:0:0:0:
36,58,117384,5,2,0:0:0:0:
83,74,117460,1,2,0:0:0:0:
132,73,117537,1,2,0:0:0:0:
179,56,117613,1,2,0:0:0:0:
226,39,117690,5,2,0:0:0:0:
262,45,117766,1,2,0:0:0:0:
291,68,117843,1,2,0:0:0:0:
306,102,117919,1,2,0:0:0:0:
303,139,117996,6,0,B|239:225|333:241|269:328,1,200,2|8,0:0|0:0,0:0:0:0:
145,270,118456,1,2,0:0:0:0:
208,99,118609,2,0,P|224:146|207:192,1,100,2|2,0:0|0:0,0:0:0:0:
106,137,118916,2,0,P|90:90|107:44,1,100,8|2,0:0|0:0,0:0:0:0:
288,19,119222,6,0,L|337:28,1,50,2|0,0:0|0:0,0:0:0:0:
434,27,119375,1,8,0:0:0:0:
464,48,119451,1,8,0:0:0:0:
481,81,119528,1,8,0:0:0:0:
483,118,119604,1,0,0:0:0:0:
469,153,119681,1,8,0:0:0:0:
453,187,119758,1,8,0:0:0:0:
454,224,119835,6,0,B|461:262|461:262|482:287,2,66.6666666666667,8|2|2,0:0|0:0|0:0,0:0:0:0:
346,204,120141,2,0,B|339:166|339:166|318:141,2,66.6666666666667,2|2|2,0:0|0:0|0:0,0:0:0:0:
276,301,120448,1,6,0:0:0:0:
276,301,120908,5,2,0:0:0:0:
145,263,121061,1,2,0:0:0:0:
388,199,121367,1,8,0:0:0:0:
145,263,121674,1,2,0:0:0:0:
145,263,122133,5,2,0:0:0:0:
102,109,122286,1,2,0:0:0:0:
388,199,122593,1,8,0:0:0:0:
102,109,122899,1,2,0:0:0:0:
102,109,123359,5,2,0:0:0:0:
151,260,123512,1,2,0:0:0:0:
388,199,123818,1,8,0:0:0:0:
151,260,124125,1,2,0:0:0:0:
151,260,124585,5,2,0:0:0:0:
243,47,124738,1,2,0:0:0:0:
271,177,124891,2,0,L|319:184,1,40,2|2,0:0|0:0,0:0:0:0:
388,199,125044,1,8,0:0:0:0:
243,47,125351,5,6,0:0:0:0:
214,77,125964,1,2,0:0:0:0:
271,177,126117,2,0,L|319:184,1,40,2|2,0:0|0:0,0:0:0:0:
388,199,126270,1,8,0:0:0:0:
184,104,126577,5,2,0:0:0:0:
145,115,127036,1,2,0:0:0:0:
103,108,127189,1,2,0:0:0:0:
388,199,127496,1,8,0:0:0:0:
73,98,127802,6,0,B|76:147|76:147|47:212,1,120,6|0,0:0|0:0,0:0:0:0:
23,239,128109,2,0,L|29:301,2,53.3333333333333,2|2|2,0:0|0:0|0:0,0:0:0:0:
108,320,128415,1,10,0:0:0:0:
193,232,128722,6,0,L|206:169,2,53.3333333333333,2|2|2,0:0|0:0|0:0,0:0:0:0:
142,124,129028,1,10,0:0:0:0:
388,199,129334,6,0,P|426:218|445:246,2,53.3333333333333,2|2|2,0:0|0:0|0:0,0:0:0:0:
351,121,129641,2,0,P|314:144|281:146,2,53.3333333333333,10|2|2,0:0|0:0|0:0,0:0:0:0:
435,127,129947,2,0,P|432:83|447:53,2,53.3333333333333,10|10|2,0:0|0:0|0:0,0:0:0:0:
337,245,130254,5,2,0:0:0:0:
329,250,130407,1,0,0:0:0:0:
295,177,131480,1,2,0:0:0:0:
287,172,131633,1,0,0:0:0:0:
204,224,132092,1,0,0:0:0:0:
196,229,132245,1,0,0:0:0:0:
113,160,132704,5,8,0:0:0:0:
213,301,132858,1,8,0:0:0:0:
219,163,133012,5,10,0:0:0:0:
119,304,133165,1,10,0:0:0:0:
113,122,133318,5,10,0:0:0:0:
213,342,133471,1,10,0:0:0:0:
219,122,133625,5,8,0:0:0:0:
119,342,133778,1,8,0:0:0:0:
181,66,133931,1,6,0:0:0:0:
140,204,135157,6,0,B|175:220|175:220|216:221,1,80
281,171,136383,2,0,P|357:198|418:173,1,143.999995605469
460,47,137608,6,0,P|425:72|382:74,1,88.000002685547,6|0,0:0|0:0,0:0:0:0:
189,2,137915,2,0,P|228:20|251:56,1,88.000002685547,8|0,0:0|0:0,0:0:0:0:
120,186,138221,1,2,0:0:0:0:
319,222,138374,1,2,0:0:0:0:
241,145,138528,1,8,0:0:0:0:
224,292,138681,2,0,P|258:318|301:323,1,88.000002685547,2|2,0:0|0:0,0:0:0:0:
414,260,138987,5,2,0:0:0:0:
326,128,139140,2,0,B|282:130|282:130|240:144,1,88.000002685547,8|2,0:0|0:0,0:0:0:0:
145,274,139447,2,0,B|164:234|164:234|173:191,1,88.000002685547,2|2,0:0|0:0,0:0:0:0:
109,44,139753,2,0,B|132:80|132:80|166:109,1,88.000002685547,8|2,0:0|0:0,0:0:0:0:
374,49,140060,5,2,0:0:0:0:
258,22,140213,1,2,0:0:0:0:
338,218,140366,1,8,0:0:0:0:
383,134,140519,1,2,0:0:0:0:
198,158,140673,1,2,0:0:0:0:
178,167,140749,1,0,0:0:0:0:
158,176,140825,1,2,0:0:0:0:
140,213,141132,6,0,B|92:135|188:135|141:47,1,176.000005371094,6|2,0:0|0:0,0:0:0:0:
37,51,141592,1,8,0:0:0:0:
52,180,141745,1,2,0:0:0:0:
240,100,141898,1,2,0:0:0:0:
124,79,142052,1,2,0:0:0:0:
125,108,142128,1,2,0:0:0:0:
138,134,142205,1,8,0:0:0:0:
221,232,142358,1,8,0:0:0:0:
236,264,142435,1,8,0:0:0:0:
232,299,142511,6,0,P|192:313|152:296,1,88.000002685547,12|2,0:0|0:0,0:0:0:0:
240,190,142818,2,0,P|257:151|251:108,1,88.000002685547,8|2,0:0|0:0,0:0:0:0:
155,1,143124,1,2,0:0:0:0:
131,119,143277,1,2,0:0:0:0:
349,64,143431,1,8,0:0:0:0:
256,32,143584,1,2,0:0:0:0:
268,161,143737,6,0,B|283:255|353:202|367:308,1,176.000005371094,2|8,0:0|0:0,0:0:0:0:
283,375,144197,1,2,0:0:0:0:
206,292,144350,2,0,B|195:255|195:255|203:204,1,88.000002685547,2|2,0:0|0:0,0:0:0:0:
240,83,144656,2,0,B|213:110|213:110|165:129,1,88.000002685547,8|2,0:0|0:0,0:0:0:0:
22,46,144963,5,2,0:0:0:0:
167,32,145116,1,2,0:0:0:0:
56,206,145269,1,8,0:0:0:0:
71,113,145422,1,2,0:0:0:0:
172,185,145576,2,0,P|175:228|155:266,1,88.000002685547,2|2,0:0|0:0,0:0:0:0:
44,370,145882,2,0,P|79:345|122:343,1,88.000002685547,8|2,0:0|0:0,0:0:0:0:
226,379,146188,5,2,0:0:0:0:
341,380,146342,1,2,0:0:0:0:
364,362,146418,1,2,0:0:0:0:
376,335,146495,1,8,0:0:0:0:
363,214,146648,1,2,0:0:0:0:
249,162,146801,1,10,0:0:0:0:
227,137,146878,1,0,0:0:0:0:
220,105,146955,2,0,P|226:86|238:70,1,40,2|2,0:0|0:0,0:0:0:0:
331,45,147108,5,8,0:0:0:0:
359,65,147184,1,2,0:0:0:0:
393,73,147261,1,8,0:0:0:0:
427,70,147337,1,2,0:0:0:0:
470,49,147414,6,0,B|523:113|423:130|482:218,1,160,6|8,0:0|0:0,0:0:0:0:
510,311,147874,1,0,0:0:0:0:
400,247,148027,2,0,P|362:238|322:241,1,80,2|2,0:0|0:0,0:0:0:0:
184,347,148333,1,8,0:0:0:0:
221,234,148487,1,2,0:0:0:0:
88,133,148640,6,0,P|85:172|105:206,1,80,2|2,0:0|0:0,0:0:0:0:
155,65,148946,2,0,P|122:42|83:42,1,80,8|2,0:0|0:0,0:0:0:0:
180,156,149253,2,0,P|215:139|235:105,1,80,2|2,0:0|0:0,0:0:0:0:
314,21,149559,2,0,B|308:64|308:64|311:100,1,80,8|0,0:0|0:0,0:0:0:0:
381,253,149866,5,2,0:0:0:0:
451,182,150019,1,0,0:0:0:0:
247,142,150172,1,8,0:0:0:0:
229,303,150325,1,2,0:0:0:0:
264,321,150402,1,2,0:0:0:0:
303,327,150479,1,2,0:0:0:0:
420,272,150632,2,0,P|361:218|362:156,1,120,6|0,0:0|0:0,0:0:0:0:
394,138,150938,6,0,B|273:189|295:79|167:136,1,223.999993164063,6|0,0:0|0:0,0:0:0:0:
73,237,151398,1,8,0:0:0:0:
220,287,151551,1,8,0:0:0:0:
242,80,151704,6,0,L|215:135,1,47.9999985351563,10|10,0:0|0:0,0:0:0:0:
286,221,151857,2,0,L|307:177,1,47.9999985351563,10|10,0:0|0:0,0:0:0:0:
376,67,152011,1,2,0:0:0:0:
412,86,152087,1,2,0:0:0:0:
435,121,152164,1,2,0:0:0:0:
440,162,152240,1,2,0:0:0:0:
424,201,152317,6,0,P|394:238|388:285,1,95.9999970703126,6|2,0:0|0:0,0:0:0:0:
406,316,152547,1,2,0:0:0:0:
428,329,152624,1,8,0:0:0:0:
510,205,152777,1,2,0:0:0:0:
326,153,152930,5,2,0:0:0:0:
172,238,153083,1,2,0:0:0:0:
178,267,153160,1,0,0:0:0:0:
200,290,153236,1,8,0:0:0:0:
219,120,153390,1,2,0:0:0:0:
71,273,153543,2,0,P|85:337|107:362,1,95.9999970703126,2|2,0:0|0:0,0:0:0:0:
181,363,153773,1,2,0:0:0:0:
201,351,153849,2,0,P|247:339|293:350,1,95.9999970703126,8|2,0:0|0:0,0:0:0:0:
406,373,154156,6,0,P|441:333|443:281,1,95.9999970703126,2|2,0:0|0:0,0:0:0:0:
273,213,154462,2,0,P|290:263|334:291,1,95.9999970703126,8|2,0:0|0:0,0:0:0:0:
429,64,154769,5,8,0:0:0:0:
139,175,154922,1,2,0:0:0:0:
414,315,155075,5,8,0:0:0:0:
313,91,155228,1,2,0:0:0:0:
242,337,155381,5,8,0:0:0:0:
422,177,155535,1,2,0:0:0:0:
165,68,155688,5,8,0:0:0:0:
342,312,155841,1,2,0:0:0:0:
290,17,155994,5,8,0:0:0:0:
195,251,156148,2,0,B|185:280|185:280|185:297,2,47.9999985351563,2|2|8,0:0|0:0|0:0,0:0:0:0:
372,158,156454,1,2,0:0:0:0:
375,132,156531,1,2,0:0:0:0:
365,104,156607,6,0,B|351:76|351:76|328:52,2,63.9999980468751,2|2|2,0:0|0:0|0:0,0:0:0:0:
282,223,156914,2,0,B|295:250|295:250|318:274,2,63.9999980468751,2|2|2,0:0|0:0|0:0,0:0:0:0:
439,258,157220,1,6,0:0:0:0:
443,302,159059,5,8,0:0:0:0:
465,234,159161,1,2,0:0:0:0:
395,249,159263,1,2,0:0:0:0:
438,258,159365,1,2,0:0:0:0:
438,258,159672,5,6,0:0:0:0:
328,163,159825,1,2,0:0:0:0:
290,175,159901,1,2,0:0:0:0:
250,170,159978,1,8,0:0:0:0:
138,85,160131,2,0,P|101:96|80:129,1,80,2|0,0:0|0:0,0:0:0:0:
94,247,160438,2,0,P|72:213|35:203,1,80,2|0,0:0|0:0,0:0:0:0:
22,344,160744,6,0,B|113:363|113:363|182:352,1,160,2|2,0:0|0:0,0:0:0:0:
288,282,161204,2,0,P|259:257|258:218,1,80,8|2,0:0|0:0,0:0:0:0:
265,88,161510,2,0,P|257:126|224:146,1,80,2|2,0:0|0:0,0:0:0:0:
108,206,161817,2,0,P|144:193|179:211,1,80,8|0,0:0|0:0,0:0:0:0:
82,282,162123,5,2,0:0:0:0:
284,311,162276,1,2,0:0:0:0:
222,133,162429,1,8,0:0:0:0:
157,318,162583,1,2,0:0:0:0:
172,347,162659,1,2,0:0:0:0:
199,360,162736,6,0,B|253:352|253:352|283:310,2,106.666666666667,2|2|2,0:0|0:0|0:0,0:0:0:0:
256,192,163349,1,2,0:0:0:0:
