osu file format v14

[General]
AudioFilename: audio.mp3
AudioLeadIn: 0
PreviewTime: 41227
Countdown: 0
SampleSet: Normal
StackLeniency: 0.7
Mode: 0
LetterboxInBreaks: 0
WidescreenStoryboard: 0

[Editor]
DistanceSpacing: 1.3
BeatDivisor: 3
GridSize: 8
TimelineZoom: 1.7

[Metadata]
Title:Meiberu Ensou Shite Utata
TitleUnicode:Meiberu Ensou Shite Utata
Artist:Honeyworks
ArtistUnicode:Honeyworks
Creator:Penguiness
Version:Insane
Source:
Tags:
BeatmapID:1723650
BeatmapSetID:822423

[Difficulty]
HPDrainRate:4.5
CircleSize:4.5
OverallDifficulty:8
ApproachRate:9
SliderMultiplier:0.999999999999999
SliderTickRate:1

[Events]
//Background and Video events
0,0,"maxresdefault.jpg",0,0
//Break Periods
2,106240,119440
//Storyboard Layer 0 (Background)
//Storyboard Layer 1 (Fail)
//Storyboard Layer 2 (Pass)
//Storyboard Layer 3 (Foreground)
//Storyboard Sound Samples

[TimingPoints]
1540,250,4,1,0,100,1,0
1540,-90.9090909090909,4,1,0,20,0,0
2040,250,4,1,0,100,1,0
2040,-83.3333333333333,4,1,0,30,0,0
8040,-76.9230769230769,4,1,0,35,0,0
9290,-125,4,1,0,35,0,0
9540,-41.6666666666667,4,1,0,35,0,0
10040,-55.5555555555556,4,1,0,50,0,0
10540,-71.4285714285714,4,1,0,50,0,0
12040,-55.5555555555556,4,1,0,50,0,0
12540,-71.4285714285714,4,1,0,50,0,0
14040,-55.5555555555556,4,1,0,50,0,0
14540,-71.4285714285714,4,1,0,50,0,0
16040,-55.5555555555556,4,1,0,50,0,0
16540,-66.6666666666667,4,1,0,50,0,0
18040,-55.5555555555556,4,1,0,50,0,0
18540,-71.4285714285714,4,1,0,50,0,0
20040,-55.5555555555556,4,1,0,50,0,0
20540,-71.4285714285714,4,1,0,50,0,0
22040,-55.5555555555556,4,1,0,50,0,0
22540,-71.4285714285714,4,1,0,50,0,0
24040,-55.5555555555556,4,1,0,50,0,0
24540,-71.4285714285714,4,1,0,50,0,0
26040,-76.9230769230769,4,1,0,40,0,0
32040,-90.9090909090909,4,1,0,40,0,0
32540,-111.111111111111,4,1,0,40,0,0
33040,-66.6666666666667,4,1,0,40,0,0
34040,-71.4285714285714,4,1,0,45,0,0
40040,-66.6666666666667,4,1,0,60,0,0
40540,-62.5,4,1,0,60,0,0
41040,-58.8235294117647,4,1,0,60,0,0
41540,-55.5555555555556,4,1,0,60,0,0
42040,-58.8235294117647,4,1,0,60,0,1
44040,-50,4,1,0,60,0,1
44290,-58.8235294117647,4,1,0,60,0,1
49040,-76.9230769230769,4,1,0,60,0,1
49290,-71.4285714285714,4,1,0,60,0,1
49540,-66.6666666666667,4,1,0,60,0,1
49790,-62.5,4,1,0,60,0,1
50040,-58.8235294117647,4,1,0,60,0,1
52040,-50,4,1,0,60,0,1
52290,-58.8235294117647,4,1,0,60,0,1
58040,-71.4285714285714,4,1,0,40,0,0
66040,-55.5555555555556,4,1,0,40,0,0
66290,-71.4285714285714,4,1,0,40,0,0
74040,-76.9230769230769,4,1,0,40,0,0
75040,-71.4285714285714,4,1,0,40,0,0
75290,-66.6666666666667,4,1,0,40,0,0
75540,-62.5,4,1,0,40,0,0
75790,-58.8235294117647,4,1,0,40,0,0
76040,-55.5555555555556,4,1,0,40,0,0
76290,-76.9230769230769,4,1,0,40,0,0
88040,-66.6666666666667,4,1,0,60,0,0
88540,-58.8235294117647,4,1,0,60,0,0
90040,-58.8235294117647,4,1,0,60,0,1
92040,-50,4,1,0,60,0,1
92290,-58.8235294117647,4,1,0,60,0,1
97040,-76.9230769230769,4,1,0,60,0,1
97290,-71.4285714285714,4,1,0,60,0,1
97540,-66.6666666666667,4,1,0,60,0,1
97790,-62.5,4,1,0,60,0,1
98040,-58.8235294117647,4,1,0,60,0,1
100040,-50,4,1,0,60,0,1
100290,-58.8235294117647,4,1,0,60,0,1
106040,-90.9090909090909,4,1,0,20,0,0
120040,-83.3333333333333,4,1,0,50,0,0
121290,-125,4,1,0,50,0,0
121540,-41.6666666666667,4,1,0,50,0,0
122040,-76.9230769230769,4,1,0,50,0,0
129540,-55.5555555555556,4,1,0,50,0,0
129790,-66.6666666666667,4,1,0,50,0,0
130040,-83.3333333333333,4,1,0,50,0,0
131040,-76.9230769230769,4,1,0,50,0,0
132040,-90.9090909090909,4,1,0,50,0,0
134040,-66.6666666666667,4,1,0,50,0,0
136040,-76.9230769230769,4,1,0,50,0,0
138040,-71.4285714285714,4,1,0,50,0,0
139040,-66.6666666666667,4,1,0,50,0,0
140040,-76.9230769230769,4,1,0,50,0,0
141540,-66.6666666666667,4,1,0,50,0,0
142040,-58.8235294117647,4,1,0,60,0,1
144040,-50,4,1,0,60,0,1
144290,-58.8235294117647,4,1,0,60,0,1
149040,-76.9230769230769,4,1,0,60,0,1
149290,-71.4285714285714,4,1,0,60,0,1
149540,-66.6666666666667,4,1,0,60,0,1
149790,-62.5,4,1,0,60,0,1
150040,-58.8235294117647,4,1,0,60,0,1
152040,-50,4,1,0,60,0,1
152290,-58.8235294117647,4,1,0,60,0,1
158040,-55.5555555555556,4,1,0,50,0,0
158540,-71.4285714285714,4,1,0,50,0,0
160040,-55.5555555555556,4,1,0,50,0,0
160540,-71.4285714285714,4,1,0,50,0,0
162040,-55.5555555555556,4,1,0,50,0,0
162540,-71.4285714285714,4,1,0,50,0,0
164040,-83.3333333333333,4,1,0,50,0,0
164540,-76.9230769230769,4,1,0,50,0,0
165040,-71.4285714285714,4,1,0,50,0,0
165540,-66.6666666666667,4,1,0,50,0,0
166040,-83.3333333333333,4,1,0,50,0,0
166540,-41.6666666666667,4,1,0,50,0,0
166790,-71.4285714285714,4,1,0,50,0,0
168040,-55.5555555555556,4,1,0,50,0,0
168540,-71.4285714285714,4,1,0,50,0,0
170040,-55.5555555555556,4,1,0,50,0,0
170540,-71.4285714285714,4,1,0,50,0,0
172040,-55.5555555555556,4,1,0,50,0,0
172540,-71.4285714285714,4,1,0,50,0,0
173540,-41.6666666666667,4,1,0,50,0,0
174040,-83.3333333333333,4,1,0,30,0,0

[Colours]
Combo1 : 255,255,255
Combo2 : 138,69,0
Combo3 : 0,92,185
Combo4 : 255,255,98
Combo5 : 255,150,45

[HitObjects]
73,315,1790,6,0,L|140:325,1,55.0000016784669
194,363,2040,6,0,P|203:309|199:281,2,59.9999981689454
119,240,2415,2,0,L|127:109,1,119.999996337891
10,61,2790,2,0,L|69:53,1,59.9999981689454
185,35,3040,2,0,P|198:73|194:119,1,59.9999981689453
32,192,3290,2,0,P|34:162|46:135,1,59.9999981689454
206,175,3540,2,0,P|220:240|293:193,1,179.999994506836
304,119,4040,6,0,L|301:47,2,59.9999981689454
390,245,4415,2,0,L|394:103,1,119.999996337891
469,255,4790,2,0,P|458:288|436:313,1,59.9999981689454
299,227,5040,2,0,L|302:346,1,119.999996337891
228,323,5415,1,0,0:0:0:0:
228,323,5540,2,0,L|148:318,1,59.9999981689454
43,271,5790,2,0,L|123:266,1,59.9999981689454
199,132,6040,6,0,P|212:167|214:204,2,59.9999981689454
20,84,6415,2,0,L|152:73,1,119.999996337891
287,20,6790,2,0,L|213:14,1,59.9999981689454
285,161,7040,2,0,P|270:122|270:96,1,59.9999981689454
492,155,7290,2,0,P|488:184|476:211,1,59.9999981689454
345,114,7540,2,0,P|387:107|412:178,1,119.999996337891
387,40,7915,1,0,0:0:0:0:
387,40,8040,5,0,0:0:0:0:
387,40,8165,2,0,L|322:34,2,64.9999970245363
345,114,8540,1,0,0:0:0:0:
345,114,8665,2,0,L|285:141,2,64.9999970245363
345,199,9040,2,0,L|307:252,1,64.9999970245363
387,272,9290,6,0,L|382:329,1,40
210,236,9540,6,0,B|205:191|212:165|212:165|144:153|144:153|144:210|115:248|115:248|147:284|143:320|143:320|139:344|150:378|150:378,1,359.999989013672
305,328,10040,6,0,L|215:334,1,89.9999972534181
466,355,10290,2,0,L|376:361,1,89.9999972534181
324,188,10540,1,0,0:0:0:0:
324,188,10665,2,0,P|343:242|333:279,1,69.9999978637696
219,124,10915,2,0,L|377:109,1,139.999995727539
158,71,11290,2,0,P|139:118|143:163,1,69.9999978637696
41,238,11540,2,0,P|36:203|21:172,1,69.9999978637696
224,210,11790,2,0,L|138:217,1,69.9999978637696
318,198,12040,6,0,L|325:106,1,89.9999972534181
267,358,12290,2,0,L|274:266,1,89.9999972534181
435,291,12540,5,0,0:0:0:0:
435,291,12665,2,0,P|395:274|359:274,1,69.9999978637696
446,106,12915,2,0,P|480:152|418:203,1,139.999995727539
377,0,13290,2,0,L|370:85,1,69.9999978637696
287,193,13540,2,0,L|281:123,1,69.9999978637696
356,229,13790,2,0,P|311:267|279:273,1,69.9999978637696
134,274,14040,6,0,L|140:369,1,89.9999972534181
158,103,14290,2,0,L|164:198,1,89.9999972534181
7,180,14540,5,0,0:0:0:0:
7,180,14665,2,0,L|87:186,1,69.9999978637696
238,96,14915,2,0,P|212:46|107:46,1,139.999995727539
243,176,15290,2,0,L|320:171,1,69.9999978637696
484,228,15540,2,0,P|436:241|399:234,1,69.9999978637696
444,92,15790,2,0,L|439:174,1,69.9999978637696
342,90,16040,6,0,L|336:-6,1,89.9999972534181
318,261,16290,2,0,L|312:165,1,89.9999972534181
166,259,16540,5,0,0:0:0:0:
166,259,16665,2,0,P|205:244|252:260,1,75.0000028610231
447,313,16915,1,0,0:0:0:0:
447,313,17040,2,0,P|408:328|361:312,1,75.0000028610231
270,101,17290,2,0,L|263:188,2,75.0000028610231
206,45,17665,1,0,0:0:0:0:
206,45,17790,2,0,P|245:22|296:19,1,75.000002861023
128,214,18040,6,0,L|121:112,1,89.9999972534181
180,372,18290,2,0,L|173:270,1,89.9999972534181
20,189,18540,5,0,0:0:0:0:
20,189,18665,2,0,P|50:226|50:269,1,69.9999978637695
207,212,18915,2,0,L|353:221,1,139.999995727539
292,371,19290,2,0,P|286:333|295:283,1,69.9999978637695
438,328,19540,2,0,L|357:337,1,69.9999978637695
426,187,19790,2,0,P|429:221|423:256,1,69.9999978637695
253,137,20040,6,0,L|257:34,1,89.999997253418
203,301,20290,2,0,L|207:198,1,89.999997253418
40,271,20540,5,0,0:0:0:0:
40,271,20665,2,0,P|85:254|137:262,1,69.9999978637695
270,335,20915,2,0,P|233:369|139:343,1,139.999995727539
288,260,21290,2,0,P|321:278|349:317,1,69.9999978637695
504,347,21540,2,0,L|420:355,1,69.9999978637695
438,179,21790,2,0,L|423:271,1,69.9999978637695
229,171,22040,6,0,L|339:164,1,89.999997253418
67,215,22290,2,0,L|177:208,1,89.999997253418
188,37,22540,5,0,0:0:0:0:
188,37,22665,2,0,L|181:139,1,69.9999978637695
288,240,22915,2,0,P|284:276|201:261,1,139.999995727539
375,289,23290,2,0,L|457:284,1,69.9999978637695
348,104,23540,2,0,L|351:186,1,69.9999978637695
504,200,23790,2,0,P|466:193|428:202,1,69.9999978637695
241,163,24040,6,0,L|179:160,2,59.9999981689453
146,235,24290,2,0,L|84:238,2,59.9999981689453
230,246,24540,5,0,0:0:0:0:
230,246,24665,2,0,P|267:244|307:217,1,69.9999978637695
241,163,24915,1,0,0:0:0:0:
241,163,25040,2,0,P|272:142|293:99,1,69.9999978637695
209,85,25290,2,0,P|225:51|222:3,1,69.9999978637695
143,34,25540,2,0,L|62:40,1,69.9999978637695
289,115,25790,2,0,L|370:121,1,69.9999978637695
429,166,26040,6,0,P|480:211|431:325,1,194.999991073609
365,289,26540,2,0,L|229:299,1,129.999994049072
159,260,26915,1,0,0:0:0:0:
159,260,27040,2,0,L|150:189,2,64.9999970245362
77,174,27415,2,0,P|107:134|146:116,1,64.9999970245362
259,129,27665,2,0,L|173:138,1,64.9999970245362
314,183,27915,6,0,P|335:137|285:56,1,129.999994049072
387,43,28290,2,0,L|460:45,1,64.9999970245362
491,119,28540,1,0,0:0:0:0:
491,119,28665,2,0,L|426:117,2,64.9999970245362
391,197,29040,2,0,L|455:195,2,64.9999970245362
440,335,29415,2,0,P|414:293|330:298,1,129.999994049072
258,264,29790,2,0,L|261:342,1,64.9999970245362
180,234,30040,6,0,L|185:93,1,129.999994049072
236,37,30415,1,0,0:0:0:0:
236,37,30540,2,0,P|286:32|334:103,1,129.999994049072
274,149,30915,1,0,0:0:0:0:
274,149,31040,2,0,P|311:170|352:172,2,64.9999970245362
405,213,31415,2,0,L|411:349,1,129.999994049072
327,327,31790,2,0,L|250:337,1,64.9999970245362
118,290,32040,6,0,P|136:258|268:270,1,165.0000050354
332,249,32540,2,0,P|321:210|279:174,1,89.999997253418
226,112,32915,1,0,0:0:0:0:
226,112,33040,2,0,L|240:20,1,75.000002861023
76,88,33290,2,0,L|87:162,1,75.000002861023
135,37,33540,2,0,P|103:16|45:19,1,75.000002861023
216,188,33790,2,0,P|252:183|283:163,1,75.000002861023
97,251,34040,6,0,P|142:293|42:305,1,209.999993591309
17,236,34540,2,0,P|45:191|146:187,1,139.999995727539
216,188,34915,1,0,0:0:0:0:
216,188,35040,2,0,L|225:270,1,69.9999978637695
361,315,35290,1,0,0:0:0:0:
361,315,35415,2,0,L|366:234,2,69.9999978637695
365,165,35790,2,0,P|419:187|439:214,1,69.9999978637695
290,177,36040,5,0,0:0:0:0:
290,177,36165,2,0,L|295:96,2,69.9999978637695
141,231,36540,2,0,L|136:161,1,69.9999978637695
288,260,36790,2,0,P|247:248|207:256,1,69.9999978637695
39,287,37040,6,0,P|73:320|175:291,1,139.999995727539
17,212,37415,1,0,0:0:0:0:
17,212,37540,2,0,L|23:136,1,69.9999978637695
215,151,37790,2,0,P|193:107|159:83,1,69.9999978637695
141,231,38040,6,0,L|151:309,1,69.9999978637695
288,260,38290,2,0,L|296:190,1,69.9999978637695
229,310,38540,2,0,P|273:336|310:335,1,69.9999978637695
348,133,38790,2,0,P|300:115|263:122,1,69.9999978637695
368,263,39040,1,0,0:0:0:0:
368,263,39165,2,0,L|442:251,1,69.9999978637695
435,29,39415,2,0,L|424:168,1,139.999995727539
512,356,39790,2,0,L|506:278,1,69.9999978637695
272,328,40040,5,0,0:0:0:0:
210,251,40165,2,0,L|216:97,1,150.000005722046
304,203,40540,1,0,0:0:0:0:
378,66,40665,2,0,P|351:111|318:36,1,160
505,193,41040,6,0,L|418:185,1,85.0000016212463
272,328,41290,2,0,L|359:320,1,85.0000016212463
202,288,41540,2,0,P|193:342|213:384,1,89.999997253418
428,354,41790,2,0,P|432:299|408:259,1,89.999997253418
237,29,42040,6,0,L|225:203,1,170.000003242493
125,245,42415,1,0,0:0:0:0:
37,185,42540,2,0,P|35:127|115:162,1,170.000003242493
225,198,42915,1,0,0:0:0:0:
319,140,43040,2,0,L|433:131,1,85.0000016212463
341,293,43290,2,0,L|227:284,1,85.0000016212463
412,242,43540,2,0,P|427:291|419:331,1,85.0000016212463
167,362,43790,2,0,P|162:320|176:280,1,85.0000016212463
98,52,44040,6,0,B|81:109|81:109|90:164,1,99.9999999999999
0,299,44290,2,0,L|84:295,1,85.0000016212463
309,201,44540,2,0,L|224:197,1,85.0000016212463
260,369,44790,2,0,P|266:323|259:271,1,85.0000016212463
448,331,45040,2,0,P|449:274|365:303,1,170.000003242493
390,170,45415,1,0,0:0:0:0:
500,111,45540,2,0,L|490:205,1,85.0000016212463
316,112,45790,2,0,L|307:27,1,85.0000016212463
139,188,46040,6,0,L|325:202,1,170.000003242493
234,284,46415,1,0,0:0:0:0:
98,119,46540,2,0,P|67:160|64:221,1,85.0000016212463
144,363,46790,2,0,L|152:259,1,85.0000016212463
315,359,47040,2,0,P|315:299|397:324,1,170.000003242493
391,209,47415,1,0,0:0:0:0:
245,107,47540,2,0,L|235:199,1,85.0000016212463
437,140,47790,2,0,L|427:55,1,85.0000016212463
206,39,48040,6,0,P|269:33|313:59,1,85.0000016212463
114,120,48290,2,0,P|71:122|32:107,1,85.0000016212463
103,340,48540,2,0,L|113:250,1,85.0000016212463
307,210,48790,2,0,L|316:294,1,85.0000016212463
165,180,49040,6,0,L|238:167,1,64.9999970245362
367,130,49290,2,0,L|289:115,1,69.9999978637695
114,120,49540,6,0,P|89:163|90:208,1,75.000002861023
442,158,49790,2,0,P|442:110|401:61,1,79.9999999999999
307,210,50040,6,0,P|319:265|383:212,1,170.000003242493
455,301,50415,1,0,0:0:0:0:
176,365,50540,2,0,L|165:191,1,170.000003242493
112,117,50915,1,0,0:0:0:0:
176,44,51040,2,0,P|217:34|257:47,1,85.0000016212463
307,210,51290,2,0,L|317:120,1,85.0000016212463
498,184,51540,2,0,L|392:195,1,85.0000016212463
356,47,51790,2,0,L|462:58,1,85.0000016212463
364,283,52040,6,0,B|316:298|316:298|255:290,1,99.9999999999999
71,181,52290,2,0,L|76:282,1,85.0000016212463
231,143,52540,2,0,L|235:58,1,85.0000016212463
30,113,52790,2,0,P|81:103|129:123,1,85.0000016212463
306,168,53040,2,0,P|268:211|157:171,1,170.000003242493
328,87,53415,1,0,0:0:0:0:
395,174,53540,2,0,L|491:160,1,85.0000016212463
368,327,53790,2,0,L|272:313,1,85.0000016212463
434,374,54040,6,0,P|449:315|354:249,1,170.000003242493
283,314,54415,1,0,0:0:0:0:
230,145,54540,2,0,L|218:245,1,85.0000016212463
88,349,54790,2,0,L|77:264,1,85.0000016212463
154,85,55040,2,0,P|142:144|28:167,1,170.000003242493
149,242,55415,1,0,0:0:0:0:
74,100,55540,2,0,L|86:16,1,85.0000016212463
230,145,55790,2,0,L|242:229,1,85.0000016212463
399,156,56040,6,0,L|342:151,2,42.5000008106231
339,62,56290,2,0,L|287:86,2,42.5000008106231
480,217,56540,2,0,L|489:124,1,85.0000016212463
328,239,56790,2,0,L|336:323,1,85.0000016212463
85,342,57040,6,0,L|267:356,1,170.000003242493
399,156,57540,2,0,L|217:170,1,170.000003242493
445,89,58040,6,0,P|474:125|456:218,1,139.999995727539
379,254,58415,1,0,0:0:0:0:
379,254,58540,2,0,L|391:326,1,69.9999978637695
246,270,58790,2,0,L|257:200,1,69.9999978637695
341,165,59040,2,0,P|344:84|288:104,1,139.999995727539
218,97,59415,1,0,0:0:0:0:
218,97,59540,2,0,P|176:109|136:103,1,69.9999978637695
18,184,59790,2,0,P|61:187|97:206,1,69.9999978637695,0|0,3:0|0:0,0:0:0:0:
169,301,60040,5,0,0:0:0:0:
169,301,60165,2,0,L|91:290,2,69.9999978637695
246,348,60540,2,0,L|324:337,2,69.9999978637695
240,176,60915,2,0,P|222:214|311:254,1,139.999995727539
396,193,61290,2,0,L|318:190,1,69.9999978637695
194,111,61540,2,0,P|242:99|287:110,1,69.9999978637695
406,30,61790,2,0,P|356:24|318:0,1,69.9999978637695
446,135,62040,6,0,P|472:183|433:260,1,139.999995727539
355,293,62415,1,0,0:0:0:0:
355,293,62540,2,0,L|264:284,1,69.9999978637695
176,200,62790,2,0,L|267:191,1,69.9999978637695
112,249,63040,2,0,P|98:204|106:160,1,69.9999978637695
308,146,63290,2,0,P|322:191|314:235,1,69.9999978637695
437,312,63540,2,0,P|437:277|449:244,1,69.9999978637695
403,77,63790,2,0,L|409:168,1,69.9999978637695
273,43,64040,6,0,L|249:-16,2,46.666665242513
196,54,64290,2,0,L|146:15,2,46.666665242513
135,102,64540,2,0,L|72:93,2,46.666665242513
106,175,64790,2,0,L|47:198,2,46.666665242513
145,278,65040,5,0,0:0:0:0:
181,283,65123,1,0,0:0:0:0:
217,287,65206,1,0,0:0:0:0:
254,292,65290,1,0,0:0:0:0:
290,297,65373,1,0,0:0:0:0:
326,301,65456,2,0,L|330:247,1,46.666665242513
412,177,65623,2,0,L|415:223,1,46.666665242513
272,148,65790,2,0,L|348:137,2,46.666665242513
251,72,66040,6,0,P|211:99|233:216,1,179.999994506836
23,230,66790,2,0,L|110:225,1,69.9999978637695
146,355,67040,2,0,P|154:307|147:268,1,69.9999978637695
287,230,67290,2,0,P|285:264|292:298,1,69.9999978637695
206,218,67540,2,0,P|239:166|368:206,1,209.999993591309
392,282,68040,6,0,P|441:236|444:158,1,139.999995727539
494,88,68415,2,0,L|350:75,1,139.999995727539
239,157,68790,2,0,L|315:150,1,69.9999978637695
178,106,69040,2,0,P|161:146|215:235,1,139.999995727539
207,318,69415,1,0,0:0:0:0:
207,318,69540,2,0,L|286:309,1,69.9999978637695
128,273,69790,2,0,L|49:264,1,69.9999978637695
51,114,70040,6,0,P|66:164|66:208,2,69.9999978637695
106,42,70415,2,0,L|259:54,1,139.999995727539
321,103,70790,2,0,P|335:51|326:11,2,69.9999978637695
181,197,71165,2,0,P|179:147|257:163,1,139.999995727539
257,239,71540,2,0,L|251:319,1,69.9999978637695
392,239,71790,2,0,L|386:169,1,69.9999978637695
339,294,72040,6,0,P|382:315|465:265,1,139.999995727539
488,189,72415,1,0,0:0:0:0:
488,189,72540,2,0,L|480:113,1,69.9999978637695
326,61,72790,2,0,P|376:78|423:66,1,69.9999978637695
266,153,73040,2,0,P|231:154|199:168,1,69.9999978637695
246,304,73290,2,0,L|249:228,1,69.9999978637695
86,181,73540,2,0,L|88:250,1,69.9999978637695
333,198,73790,2,0,P|345:156|338:103,1,69.9999978637695
109,80,74040,6,0,P|100:35|175:85,1,194.999991073609
154,142,74540,2,0,P|216:144|275:77,1,129.999994049072
270,17,74915,2,0,L|347:10,1,64.9999970245362
451,115,75165,6,0,L|448:39,1,69.9999978637695
391,175,75415,6,0,L|350:108,1,75.000002861023
369,256,75665,6,0,L|297:217,1,79.9999999999999
390,337,75915,6,0,L|199:337,1,170.000003242493
187,183,76290,6,0,P|200:227|199:267,1,64.9999970245362
45,220,76540,2,0,L|118:229,1,64.9999970245362
131,128,76790,2,0,L|58:137,1,64.9999970245362
193,45,77040,1,0,0:0:0:0:
193,45,77165,2,0,L|210:115,1,64.9999970245362
325,170,77415,2,0,P|293:162|257:170,2,64.9999970245362
296,306,77790,2,0,L|290:229,1,64.9999970245362
360,100,78040,6,0,P|396:135|390:215,1,129.999994049072
435,284,78415,1,0,0:0:0:0:
435,284,78540,2,0,L|355:276,1,64.9999970245362
231,312,78790,2,0,L|311:304,1,64.9999970245362
151,360,79040,2,0,L|159:211,1,129.999994049072
102,166,79415,1,0,0:0:0:0:
102,166,79540,2,0,L|170:152,1,64.9999970245362
314,209,79790,2,0,P|270:211|239:201,1,64.9999970245362
283,65,80040,5,0,0:0:0:0:
283,65,80165,2,0,L|287:139,2,64.9999970245362
379,145,80540,2,0,P|383:105|459:117,1,129.999994049072
446,200,80915,1,0,0:0:0:0:
446,200,81040,2,0,L|442:268,1,64.9999970245362
363,312,81290,2,0,L|359:247,1,64.9999970245362
221,201,81540,2,0,P|261:196|302:206,1,64.9999970245362
285,355,81790,2,0,P|253:360|220:356,1,64.9999970245362
172,279,82040,6,0,L|109:277,2,43.3333313496908
131,197,82290,2,0,L|77:164,2,43.3333313496908,0|0|0,0:0|0:0|0:0,2:0:0:0:
171,115,82540,2,0,P|192:57|236:87,1,129.999994049072
309,137,82915,1,0,0:0:0:0:
309,137,83040,2,0,L|387:131,1,64.9999970245362
437,198,83290,1,0,0:0:0:0:
437,198,83415,2,0,P|464:146|441:74,1,129.999994049072
356,213,83790,2,0,L|358:280,1,64.9999970245362
290,339,84040,5,0,0:0:0:0:
290,339,84165,2,0,P|237:325|214:326,2,64.9999970245362
166,274,84540,2,0,P|151:306|150:342,1,64.9999970245362
236,226,84790,2,0,L|229:160,1,64.9999970245362
88,198,85040,2,0,L|160:195,2,64.9999970245362
206,91,85415,2,0,P|261:93|305:160,1,129.999994049072
130,120,85790,2,0,L|125:49,1,64.9999970245362
88,198,86040,6,0,L|39:192,2,43.3333313496908
138,274,86290,1,0,0:0:0:0:
138,274,86415,2,0,L|217:267,1,64.9999970245362
324,334,86665,2,0,L|245:327,2,64.9999970245362
411,359,87040,2,0,P|413:319|397:278,1,64.9999970245362
512,238,87290,2,0,P|504:269|507:301,1,64.9999970245362
361,218,87540,2,0,L|433:224,1,64.9999970245362
306,153,87790,2,0,L|234:159,1,64.9999970245362
389,141,88040,6,0,P|385:98|456:108,1,129.999994049072
271,72,88540,2,0,P|282:25|205:48,1,170.000003242493
99,235,89040,5,0,0:0:0:0:
198,216,89290,1,0,0:0:0:0:
297,197,89540,1,0,0:0:0:0:
58,154,90040,6,0,P|48:93|133:117,1,170.000003242493
99,235,90415,1,0,0:0:0:0:
198,216,90540,2,0,L|373:234,1,170.000003242493
460,293,90915,1,0,0:0:0:0:
481,93,91040,2,0,P|497:149|487:197,1,85.0000016212463
326,151,91290,2,0,L|425:146,1,85.0000016212463
302,321,91540,2,0,L|203:316,1,85.0000016212463
48,282,91790,2,0,P|113:267|150:273,1,85.0000016212463
367,233,92040,6,0,B|319:241|319:241|264:224,1,99.9999999999999
210,66,92290,2,0,L|200:166,1,85.0000016212463
394,95,92540,2,0,L|385:10,1,85.0000016212463
150,15,92790,2,0,P|194:-8|254:0,1,85.0000016212463
117,115,93040,2,0,P|95:73|58:152,1,170.000003242493
6,244,93415,1,0,0:0:0:0:
105,226,93540,2,0,L|199:235,1,85.0000016212463
365,169,93790,2,0,L|271:178,1,85.0000016212463
265,349,94040,6,0,P|266:292|387:286,1,170.000003242493
467,292,94415,1,0,0:0:0:0:
449,101,94540,2,0,P|471:155|468:214,1,85.0000016212463
282,89,94790,2,0,P|287:47|305:8,1,85.0000016212463
365,169,95040,2,0,L|182:161,1,170.000003242493
99,216,95415,1,0,0:0:0:0:
172,298,95540,2,0,L|283:287,1,85.0000016212463
107,134,95790,2,0,L|-4:123,1,85.0000016212463
158,65,96040,6,0,P|189:114|192:154,1,85.0000016212463
343,248,96290,2,0,P|345:205|364:168,1,85.0000016212463
180,215,96540,2,0,L|275:220,1,85.0000016212463
412,87,96790,2,0,L|317:92,1,85.0000016212463
119,166,97040,6,0,P|102:215|109:253,1,64.9999970245362
343,248,97290,2,0,P|347:210|333:169,1,69.9999978637695
186,351,97540,6,0,L|281:355,1,75.000002861023
263,79,97790,2,0,L|149:84,1,79.9999999999999
343,248,98040,6,0,P|376:216|295:189,1,170.000003242493
248,283,98415,1,0,0:0:0:0:
349,327,98540,2,0,P|413:302|460:204,1,170.000003242493
423,111,98915,1,0,0:0:0:0:
263,79,99040,2,0,L|358:64,1,85.0000016212463
200,143,99290,2,0,L|105:128,1,85.0000016212463
248,283,99540,2,0,P|261:215|254:178,1,85.0000016212463
35,99,99790,2,0,P|34:141|46:181,1,85.0000016212463
115,358,100040,6,0,B|130:309|130:309|119:245,1,99.9999999999999
325,358,100290,2,0,L|228:368,1,85.0000016212463
259,200,100540,2,0,L|356:210,1,85.0000016212463
303,29,100790,2,0,P|319:103|314:143,1,85.0000016212463
148,147,101040,2,0,P|148:94|226:141,1,170.000003242493
182,219,101415,1,0,0:0:0:0:
47,114,101540,2,0,L|41:207,1,85.0000016212463
112,367,101790,2,0,L|106:282,1,85.0000016212463
218,347,102040,6,0,L|398:334,1,170.000003242493
302,264,102415,1,0,0:0:0:0:
381,117,102540,2,0,P|392:188|386:227,1,85.0000016212463
279,47,102790,2,0,L|371:34,1,85.0000016212463
165,170,103040,2,0,P|144:111|229:123,1,170.000003242493
311,179,103415,1,0,0:0:0:0:
129,246,103540,2,0,L|118:340,1,85.0000016212463
320,263,103790,2,0,L|310:178,1,85.0000016212463
206,352,104040,6,0,L|385:346,1,170.000003242493
430,256,104415,1,0,0:0:0:0:
412,71,104540,2,0,L|400:169,1,85.0000016212463
236,54,104790,2,0,P|285:55|329:72,1,85.0000016212463
176,119,105040,6,0,L|3:112,2,170.000003242493
474,187,106040,5,0,0:0:0:0:
178,167,120040,6,0,L|155:133,2,29.9999990844727
226,106,120290,2,0,L|223:65,2,29.9999990844727
255,179,120540,1,0,0:0:0:0:
255,179,120665,2,0,L|326:171,1,59.9999981689453
420,247,120915,2,0,L|349:239,1,59.9999981689453
284,256,121165,5,0,0:0:0:0:
441,173,121290,2,0,P|468:188|487:206,1,40
347,341,121540,6,0,B|291:333|291:333|238:348|238:348|201:319|188:289|201:246|201:246|123:246|123:246|133:289|122:322,1,359.999989013672
43,281,122040,6,0,L|35:203,1,64.9999970245362
113,104,122290,2,0,L|106:168,1,64.9999970245362
35,123,122540,2,0,P|45:65|179:62,1,194.999991073609
203,118,123040,2,0,P|252:125|292:119,1,64.9999970245362
237,272,123290,2,0,L|229:198,1,64.9999970245362
245,47,123540,2,0,P|292:47|319:186,1,194.999991073609
436,234,124040,6,0,L|359:244,1,64.9999970245362
237,272,124290,2,0,L|314:282,1,64.9999970245362
156,270,124540,2,0,P|115:272|174:335,1,194.999991073609
194,202,125040,2,0,P|189:164|191:122,1,64.9999970245362
104,67,125290,2,0,P|104:99|99:131,1,64.9999970245362
191,54,125540,2,0,L|394:44,1,194.999991073609
491,123,126040,6,0,L|419:120,1,64.9999970245362
379,207,126290,2,0,L|451:204,1,64.9999970245362
339,135,126540,2,0,P|307:169|379:290,1,194.999991073609
288,334,127040,2,0,L|214:342,1,64.9999970245362
210,196,127290,2,0,P|213:249|208:282,1,64.9999970245362
57,200,127540,2,0,P|46:242|133:213,1,194.999991073609
110,133,128040,6,0,L|103:64,1,64.9999970245362
193,0,128290,2,0,L|186:64,1,64.9999970245362
343,124,128540,2,0,P|344:81|274:133,1,194.999991073609
215,194,129040,2,0,P|271:212|303:208,1,64.9999970245362
380,267,129290,2,0,P|347:271|318:285,1,64.9999970245362
389,191,129540,6,0,P|437:216|424:333,1,179.999994506836
271,366,129915,1,0,0:0:0:0:
211,316,130040,6,0,L|129:313,1,59.9999981689453
94,186,130290,2,0,P|99:233|93:265,1,59.9999981689453
59,314,130540,2,0,L|17:323,2,39.9999987792969
176,232,130790,2,0,L|221:239,2,39.9999987792969
18,165,131040,2,0,P|43:128|145:126,1,129.999994049072
198,70,131415,1,0,0:0:0:0:
198,70,131540,2,0,L|193:20,2,43.3333313496908
286,187,131790,2,0,L|280:231,2,43.3333313496908
273,116,132040,6,0,L|282:65,2,36.6666677856445
351,118,132290,2,0,L|384:78,2,36.6666677856445
417,158,132540,2,0,L|465:140,2,36.6666677856445
454,225,132790,2,0,L|505:233,2,36.6666677856445
389,272,133040,5,0,0:0:0:0:
359,274,133123,1,0,0:0:0:0:
329,276,133206,1,0,0:0:0:0:
299,279,133290,1,0,0:0:0:0:
269,281,133373,1,0,0:0:0:0:
239,283,133456,1,0,0:0:0:0:
209,287,133540,2,0,L|205:236,1,36.6666677856445
283,166,133706,2,0,L|280:202,1,36.6666677856445
161,173,133873,2,0,L|200:174,1,36.6666677856445
364,196,134040,5,0,0:0:0:0:
364,196,135540,5,0,0:0:0:0:
280,5,136040,6,0,L|276:140,1,129.999994049072
431,223,136540,2,0,P|430:161|380:124,1,129.999994049072
292,234,137040,2,0,L|306:365,1,129.999994049072
213,314,137540,2,0,P|183:342|153:269,1,129.999994049072
59,214,138040,6,0,L|207:196,1,139.999995727539
286,110,138540,2,0,L|138:92,1,139.999995727539
339,49,139040,6,0,P|360:80|311:183,1,150.000005722046
223,279,139540,2,0,P|256:242|291:321,2,150.000005722046
144,321,140165,5,0,0:0:0:0:
144,321,140290,2,0,L|128:256,1,64.9999970245362
95,113,140540,1,0,0:0:0:0:
95,113,140665,2,0,L|79:178,2,64.9999970245362
260,126,141040,2,0,P|198:143|176:140,1,64.9999970245362
285,220,141290,2,0,P|317:223|346:237,1,64.9999970245362
363,77,141540,6,0,P|351:142|431:84,1,225.000008583069
295,29,142040,6,0,L|107:44,1,170.000003242493
40,114,142415,1,0,0:0:0:0:
203,203,142540,2,0,P|202:138|130:170,1,170.000003242493
125,278,142915,1,0,0:0:0:0:
338,279,143040,2,0,L|245:271,1,85.0000016212463
382,139,143290,2,0,L|475:131,1,85.0000016212463
319,83,143540,2,0,P|299:139|312:185,1,85.0000016212463
125,278,143790,2,0,P|126:235|108:197,1,85.0000016212463
338,279,144040,6,0,B|290:294|290:294|227:280,1,99.9999999999999
206,76,144290,2,0,L|202:164,1,85.0000016212463
389,221,144540,2,0,L|385:136,1,85.0000016212463
271,24,144790,2,0,P|319:49|359:46,1,85.0000016212463
202,160,145040,2,0,P|159:162|214:226,1,170.000003242493
305,198,145415,1,0,0:0:0:0:
168,309,145540,2,0,L|72:300,1,85.0000016212463
4,121,145790,2,0,L|100:112,1,85.0000016212463
317,28,146040,6,0,L|304:205,1,170.000003242493
228,66,146415,1,0,0:0:0:0:
394,102,146540,2,0,P|450:102|495:84,1,85.0000016212463
397,286,146790,2,0,P|356:275|313:277,1,85.0000016212463
459,342,147040,2,0,P|481:292|409:204,1,170.000003242493
371,366,147415,1,0,0:0:0:0:
251,192,147540,2,0,L|339:186,1,85.0000016212463
232,337,147790,2,0,P|180:318|120:323,1,85.0000016212463
22,175,148040,6,0,P|78:175|123:157,1,85.0000016212463
34,355,148290,2,0,L|42:255,1,85.0000016212463
177,51,148540,2,0,L|183:135,1,85.0000016212463
363,81,148790,2,0,P|308:71|270:71,1,85.0000016212463
320,241,149040,6,0,L|327:157,1,64.9999970245362
426,134,149290,2,0,L|432:204,1,69.9999978637695
241,271,149540,6,0,L|235:201,1,69.9999978637695
512,71,149790,2,0,L|507:136,1,64.9999970245362
411,349,150040,6,0,P|403:279|299:246,1,170.000003242493
252,364,150415,1,0,0:0:0:0:
171,145,150540,2,0,L|157:317,1,170.000003242493
83,230,150915,1,0,0:0:0:0:
250,139,151040,2,0,P|228:93|187:66,1,85.0000016212463
15,112,151290,2,0,L|109:115,1,85.0000016212463
345,216,151540,2,0,L|251:219,1,85.0000016212463
92,313,151790,2,0,P|80:255|93:199,1,85.0000016212463
341,42,152040,6,0,B|360:93|360:93|348:143,1,99.9999999999999
164,362,152290,2,0,P|177:301|169:263,1,85.0000016212463
345,216,152540,2,0,P|342:258|354:298,1,85.0000016212463
111,164,152790,2,0,L|218:156,1,85.0000016212463
463,180,153040,2,0,P|466:123|394:163,1,170.000003242493
428,260,153415,1,0,0:0:0:0:
196,271,153540,2,0,L|293:276,1,85.0000016212463
343,80,153790,2,0,L|246:85,1,85.0000016212463
34,182,154040,6,0,P|44:121|110:168,1,170.000003242493
79,269,154415,1,0,0:0:0:0:
179,103,154540,2,0,P|191:159|185:200,1,85.0000016212463
356,240,154790,2,0,P|354:197|365:156,1,85.0000016212463
203,329,155040,2,0,P|207:271|280:330,1,170.000003242493
399,343,155415,1,0,0:0:0:0:
474,179,155540,2,0,L|480:283,1,85.0000016212463
256,175,155790,2,0,L|260:90,1,85.0000016212463
473,90,156040,6,0,P|399:97|365:87,1,85.0000016212463
215,264,156290,2,0,P|257:260|298:269,1,85.0000016212463
136,197,156540,2,0,L|125:292,1,85.0000016212463
399,343,156790,2,0,L|389:258,1,85.0000016212463
270,72,157040,5,0,0:0:0:0:
243,167,157290,1,0,0:0:0:0:
215,264,157540,1,0,0:0:0:0:
215,264,158040,6,0,L|323:259,1,89.999997253418
49,242,158290,2,0,L|157:237,1,89.999997253418
76,74,158540,5,0,0:0:0:0:
76,74,158665,2,0,P|85:128|81:175,1,69.9999978637695
176,54,158915,2,0,L|336:63,1,139.999995727539
487,113,159290,2,0,L|401:121,1,69.9999978637695
311,228,159540,2,0,P|317:179|299:134,1,69.9999978637695
451,229,159790,2,0,P|445:263|452:297,1,69.9999978637695
256,320,160040,6,0,L|364:326,1,89.999997253418
90,282,160290,2,0,L|198:288,1,89.999997253418
32,205,160540,5,0,0:0:0:0:
32,205,160665,2,0,P|41:161|28:124,1,69.9999978637695
160,208,160915,2,0,P|179:151|120:154,1,139.999995727539
230,12,161290,2,0,L|225:93,1,69.9999978637695
311,187,161540,2,0,L|306:117,1,69.9999978637695
264,250,161790,2,0,P|315:267|356:251,1,69.9999978637695
434,167,162040,6,0,L|437:71,1,89.999997253418
463,329,162290,2,0,L|466:233,1,89.999997253418
281,340,162540,5,0,0:0:0:0:
281,340,162665,2,0,L|370:354,1,69.9999978637695
121,326,162915,2,0,P|151:286|181:351,1,139.999995727539
104,225,163290,2,0,P|163:212|199:219,1,69.9999978637695
281,94,163540,2,0,P|246:92|213:81,1,69.9999978637695
78,1,163790,2,0,L|69:72,1,69.9999978637695
299,17,164040,6,0,P|348:51|360:81,2,79.9999975585937
428,43,164540,2,0,P|423:102|398:133,2,86.6666626993816
466,174,165040,2,0,P|412:199|375:191,2,93.333330485026
215,240,165540,2,0,L|206:186,1,50.0000019073487
305,142,165706,2,0,L|296:191,1,50.0000019073487
401,271,165873,2,0,L|338:266,1,50.0000019073487
227,324,166040,6,0,L|307:321,1,59.9999981689453
92,292,166290,2,0,L|172:289,1,59.9999981689453
5,112,166540,6,0,B|-5:205|-5:205|15:271|15:271|5:358,1,239.999992675781
89,156,166915,6,0,P|130:145|116:215,1,139.999995727539
212,92,167290,2,0,L|292:100,1,69.9999978637695
419,145,167540,2,0,L|339:153,1,69.9999978637695
406,293,167790,2,0,P|410:247|399:215,1,69.9999978637695
241,258,168040,6,0,L|358:263,1,89.999997253418
76,221,168290,2,0,L|193:226,1,89.999997253418
160,76,168540,5,0,0:0:0:0:
160,76,168665,2,0,L|151:152,1,69.9999978637695
274,181,168915,2,0,P|301:143|234:122,1,139.999995727539
318,35,169290,2,0,P|370:49|408:47,1,69.9999978637695
499,135,169540,2,0,P|464:138|431:149,1,69.9999978637695
483,288,169790,2,0,L|484:208,1,69.9999978637695
304,273,170040,6,0,L|419:269,1,89.999997253418
136,303,170290,2,0,L|251:299,1,89.999997253418
74,244,170540,5,0,0:0:0:0:
74,244,170665,2,0,P|81:193|75:165,1,69.9999978637695
298,190,170915,2,0,L|153:206,1,139.999995727539
124,26,171290,2,0,L|115:112,1,69.9999978637695
308,41,171540,2,0,P|253:52|218:45,1,69.9999978637695
298,190,171790,2,0,P|332:189|366:199,1,69.9999978637695
415,89,172040,6,0,L|414:0,1,89.999997253418
452,249,172290,2,0,L|451:159,1,89.999997253418
365,290,172540,5,0,0:0:0:0:
365,290,172665,2,0,P|322:282|276:292,1,69.9999978637695
218,185,172915,2,0,L|212:331,1,139.999995727539
135,194,173290,2,0,L|144:113,1,69.9999978637695
392,86,173540,6,0,B|439:106|474:151|432:232|359:212|359:212|312:179|249:202|249:202|186:167,1,359.999989013672
197,104,174040,6,0,L|202:39,2,59.9999981689453
43,133,174415,2,0,P|72:177|148:189,1,119.999996337891
213,244,174790,2,0,L|218:175,1,59.9999981689453
197,104,175040,2,0,P|244:91|276:94,1,59.9999981689453
371,13,175290,2,0,P|341:10|313:0,1,59.9999981689453
333,151,175540,2,0,P|338:115|405:170,1,179.999994506836
356,224,176040,6,0,L|363:296,2,59.9999981689453
303,358,176415,2,0,L|427:352,1,119.999996337891
278,276,176790,2,0,L|198:272,1,59.9999981689453
123,366,177040,2,0,L|203:362,1,59.9999981689453
86,227,177290,2,0,P|97:277|91:309,1,59.9999981689453
224,198,177540,2,0,P|213:127|152:177,1,179.999994506836
63,112,178040,6,0,L|-7:116,2,59.9999981689453
159,54,178415,2,0,L|150:187,1,119.999996337891
41,246,178790,2,0,P|81:253|118:243,1,59.9999981689453
213,333,179040,2,0,P|183:330|154:337,1,59.9999981689453
268,253,179290,2,0,L|197:239,1,59.9999981689453
320,313,179540,2,0,P|345:272|255:177,1,179.999994506836
233,43,180040,6,0,L|224:121,2,59.9999981689453
330,104,180415,2,0,L|452:96,1,119.999996337891
474,231,180790,2,0,L|481:169,1,59.9999981689453
343,257,181040,2,0,L|349:316,1,59.9999981689453
401,207,181290,2,0,P|377:188|332:184,1,59.9999981689453
201,240,181540,2,0,P|193:199|265:239,1,179.999994506836
153,317,182040,6,0,L|226:315,2,59.9999981689453
73,232,182415,2,0,L|65:370,1,119.999996337891
14,181,182790,2,0,P|60:155|84:153,1,59.9999981689453
181,86,183040,2,0,P|152:76|128:58,1,59.9999981689453
166,167,183290,2,0,L|161:238,1,59.9999981689453
254,198,183540,6,0,P|299:175|287:262,1,179.999994506836
228,301,184040,2,0,L|150:299,2,59.9999981689453
292,344,184415,2,0,L|432:339,1,119.999996337891
483,222,184790,2,0,P|476:270|484:303,1,59.9999981689453
382,191,185040,2,0,P|383:161|376:132,1,59.9999981689453
404,266,185290,2,0,L|342:268,1,59.9999981689453
273,234,185540,2,0,P|263:189|205:253,1,179.999994506836
146,363,186040,6,0,L|139:297,2,59.9999981689453
69,258,186415,2,0,L|81:131,1,119.999996337891
195,73,186790,2,0,P|162:84|119:85,1,59.9999981689453
255,174,187040,2,0,P|284:177|312:187,1,59.9999981689453
173,220,187290,2,0,L|180:149,1,59.9999981689453
287,27,187540,2,0,P|281:66|362:34,1,179.999994506836
442,124,188040,6,0,L|450:252,1,119.999996337891
277,279,188415,2,0,P|327:264|389:293,1,119.999996337891
207,316,188790,2,0,P|201:264|241:208,1,119.999996337891
299,69,189165,2,0,L|318:195,1,119.999996337891
214,121,189540,6,0,P|204:76|157:160,1,239.999992675781
