osu file format v14

[General]
AudioFilename: audio.mp3
AudioLeadIn: 0
PreviewTime: 32293
Countdown: 0
SampleSet: Soft
StackLeniency: 0.7
Mode: 0
LetterboxInBreaks: 0
WidescreenStoryboard: 0

[Editor]
Bookmarks: 32459
DistanceSpacing: 1
BeatDivisor: 4
GridSize: 4
TimelineZoom: 1

[Metadata]
Title:Kikoemasuka (Speed up ver.)
TitleUnicode:Kikoemasuka (Speed up ver.)
Artist:Honeyworks
ArtistUnicode:Honeyworks
Creator:Ameyy
Version:Aste
Source:
Tags:Our Love was always 5cm appart
BeatmapID:2040762
BeatmapSetID:974994

[Difficulty]
HPDrainRate:7
CircleSize:4
OverallDifficulty:8.2
ApproachRate:9.3
SliderMultiplier:1.7
SliderTickRate:1

[Events]
//Background and Video events
0,0,"Konachan.com - 270807 black_hair bokuden clouds grass landscape long_hair original phone rope scenic seifuku skirt sky summer torii tree.jpg",0,0
//Break Periods
2,48659,63905
//Storyboard Layer 0 (Background)
//Storyboard Layer 1 (Fail)
//Storyboard Layer 2 (Pass)
//Storyboard Layer 3 (Foreground)
//Storyboard Sound Samples

[TimingPoints]
460,333.333333333333,4,1,0,100,1,0
460,-142.857142857143,4,2,0,40,0,0
7543,-333.333333333334,4,2,0,5,0,0
8459,-125,4,2,0,40,0,0
14459,-166.666666666667,4,2,0,40,0,0
15459,-166.666666666667,4,2,0,20,0,0
16459,-125,4,2,0,30,0,0
17459,-200,4,2,0,10,0,0
18459,-125,4,2,0,30,0,0
19459,-200,4,2,0,10,0,0
20459,-125,4,2,0,30,0,0
25459,-200,4,2,0,10,0,0
26459,-125,4,2,0,30,0,0
30459,-142.857142857143,4,2,0,30,0,0
32459,-100,4,2,0,50,0,1
47459,-200,4,2,0,50,0,1
48459,-125,4,2,0,30,0,0
64459,-125,4,2,0,30,0,0
71793,-142.857142857143,4,2,0,30,0,0
72459,-125,4,2,0,30,0,0
80459,-90.9090909090909,4,2,0,30,0,1
95459,-200,4,2,0,10,0,1
96459,-142.857142857143,4,2,0,30,0,0
97459,-125,4,2,0,30,0,0
98126,-111.111111111111,4,2,0,30,0,0
98459,-100,4,2,0,30,0,0
98793,-111.111111111111,4,2,0,30,0,0
112459,-90.9090909090908,4,2,0,30,0,1
127459,-200,4,2,0,30,0,0
128459,-83.3333333333333,4,2,0,30,0,1
144459,-166.666666666667,4,2,0,10,0,0
151126,-166.666666666667,4,2,0,5,0,0

[Colours]
Combo1 : 139,183,254
Combo2 : 255,70,70
Combo3 : 121,184,95
Combo4 : 241,126,167

[HitObjects]
166,149,7543,6,0,L|296:152,1,127.499996109009
308,159,8459,6,0,P|314:215|301:247,1,68,2|0,0:0|0:0,0:0:0:0:
220,257,8793,1,0,0:0:0:0:
245,103,8959,2,0,P|299:78|331:82,1,68,0|2,0:0|0:0,0:0:0:0:
421,136,9293,1,0,0:0:0:0:
421,136,9459,2,0,B|452:175|452:175|448:287,1,136,0|2,0:0|0:0,0:0:0:0:
367,310,9959,1,0,0:0:0:0:
220,257,10126,6,0,P|172:252|131:260,1,68
51,222,10459,2,0,L|59:75,1,136,2|0,0:0|0:0,0:0:0:0:
141,40,10959,1,0,0:0:0:0:
197,162,11126,1,2,0:0:0:0:
149,38,11293,1,0,0:0:0:0:
280,52,11459,6,0,L|366:56,1,68
469,127,11793,2,0,L|387:125,2,68,2|0|0,0:0|0:0|0:0,0:0:0:0:
447,34,12293,1,0,0:0:0:0:
281,182,12459,6,0,B|265:221|265:221|262:276,1,68,2|0,0:0|0:0,0:0:0:0:
404,307,12793,2,0,P|382:249|358:222,1,68
184,254,13126,2,0,P|204:302|245:322,1,68,2|0,0:0|0:0,0:0:0:0:
286,172,13459,2,0,P|228:139|153:132,1,136,0|2,0:0|0:0,0:0:0:0:
95,201,13959,1,0,0:0:0:0:
45,119,14126,2,0,L|47:38,1,68
238,48,14459,6,0,B|266:34|266:34|307:115|441:148|435:29|351:56,1,254.999992218018,2|0,0:0|0:0,0:0:0:0:
308,169,15459,2,0,P|415:182|484:28,1,280.49999143982
463,30,16459,5,2,0:0:0:0:
306,73,16793,1,0,0:0:0:0:
213,38,16959,1,0,0:0:0:0:
140,107,17126,2,0,L|140:192,1,68,2|0,0:0|0:0,0:0:0:0:
140,277,17459,2,0,L|140:103,1,170
218,332,18459,6,0,P|273:326|302:299,1,68,2|0,0:0|0:0,0:0:0:0:
381,307,18793,2,0,P|362:275|355:224,1,68
456,222,19126,1,2,0:0:0:0:
497,333,19293,1,0,0:0:0:0:
381,307,19459,2,0,P|362:275|380:135,1,170
371,147,20459,5,2,0:0:0:0:
256,91,20793,1,0,0:0:0:0:
156,126,20959,1,0,0:0:0:0:
224,234,21126,2,0,P|232:194|223:153,1,68,2|0,0:0|0:0,0:0:0:0:
142,255,21459,2,0,P|177:307|204:320,1,68
293,287,21793,2,0,L|371:292,1,68,2|0,0:0|0:0,0:0:0:0:
296,171,22126,2,0,L|208:166,1,68
153,73,22459,5,2,0:0:0:0:
96,173,22626,1,0,0:0:0:0:
217,167,22793,1,0,0:0:0:0:
143,71,22959,1,0,0:0:0:0:
83,171,23126,2,0,L|79:266,1,68,2|0,0:0|0:0,0:0:0:0:
143,327,23459,5,2,0:0:0:0:
218,257,23626,1,2,0:0:0:0:
317,232,23793,1,2,0:0:0:0:
414,259,23959,1,2,0:0:0:0:
476,340,24126,1,2,0:0:0:0:
490,335,24459,6,0,P|498:275|489:240,1,68,2|0,0:0|0:0,0:0:0:0:
459,162,24793,2,0,L|372:153,1,68
292,113,25126,2,0,P|277:150|284:197,1,68,2|0,0:0|0:0,0:0:0:0:
283,276,25459,2,0,B|316:212|246:190|294:108,1,170
283,91,26459,6,0,L|202:90,1,68,2|0,0:0|0:0,0:0:0:0:
119,53,26793,1,0,0:0:0:0:
67,150,26959,1,0,0:0:0:0:
109,274,27126,2,0,P|154:272|187:261,1,68,2|0,0:0|0:0,0:0:0:0:
290,234,27459,6,0,L|283:334,1,68
387,181,27793,2,0,L|400:279,1,68,2|0,0:0|0:0,0:0:0:0:
497,127,28126,2,0,L|490:206,1,68
420,333,28459,6,0,P|371:332|265:304,1,136,2|0,0:0|0:0,0:0:0:0:
281,222,28959,1,0,0:0:0:0:
196,169,29126,2,0,L|106:167,1,68,2|0,0:0|0:0,0:0:0:0:
254,81,29459,6,0,L|413:82,1,136,0|2,0:0|0:0,0:0:0:0:
484,39,29959,1,0,0:0:0:0:
497,137,30126,1,0,0:0:0:0:
449,235,30293,1,0,0:0:0:0:
339,281,30459,6,0,B|305:262|253:289|253:289|222:308|165:267|165:267|98:202|130:104|250:131|279:207|228:271|164:294|101:300|61:277|39:218,1,594.999981842042,2|0,0:0|0:0,0:0:0:0:
43,232,32459,6,0,P|45:164|57:118,1,85,2|0,1:0|0:0,0:0:0:0:
234,99,32793,2,0,P|232:166|223:210,1,85
68,52,33126,2,0,P|116:40|167:43,1,85,2|0,1:0|0:0,0:0:0:0:
315,190,33459,2,0,P|273:196|230:193,1,85,2|0,1:0|0:0,0:0:0:0:
122,192,33793,1,2,1:0:0:0:
221,310,33959,1,0,0:0:0:0:
400,229,34126,6,0,P|404:174|385:132,1,85,2|0,1:0|0:0,0:0:0:0:
294,84,34459,2,0,P|363:112|468:70,1,170,2|0,1:0|0:0,0:0:0:0:
373,11,34959,1,0,0:0:0:0:
244,21,35126,2,0,P|206:21|150:27,1,85,2|0,1:0|0:0,0:0:0:0:
55,119,35459,6,0,L|50:230,1,85,2|0,0:0|0:0,0:0:0:0:
190,290,35793,2,0,L|185:179,1,85,2|0,2:0|0:0,0:0:0:0:
316,98,36126,2,0,L|311:209,1,85,2|0,0:0|0:0,0:0:0:0:
371,275,36459,5,2,1:0:0:0:
439,175,36626,1,0,0:0:0:0:
483,320,36793,1,0,0:0:0:0:
430,180,36959,1,0,0:0:0:0:
361,286,37126,2,0,P|318:299|256:279,1,85,2|0,1:0|0:0,0:0:0:0:
152,220,37459,6,0,P|214:191|324:217,1,170,2|0,1:0|0:0,0:0:0:0:
189,336,37959,1,0,0:0:0:0:
60,303,38126,1,2,1:0:0:0:
56,168,38293,1,2,1:0:0:0:
188,118,38459,2,0,P|247:113|296:123,1,85,2|0,1:0|0:0,0:0:0:0:
397,181,38793,2,0,P|393:241|372:277,1,85
276,124,39126,5,2,1:0:0:0:
74,166,39293,1,2,1:0:0:0:
208,343,39459,1,2,1:0:0:0:
195,119,39626,1,2,1:0:0:0:
70,301,39793,1,2,1:0:0:0:
272,223,39959,1,2,1:0:0:0:
367,344,40126,2,0,P|426:351|477:337,1,85
397,181,40459,6,0,L|395:77,1,85,2|0,1:0|0:0,0:0:0:0:
203,27,40793,2,0,L|199:133,1,85
93,153,41126,1,2,1:0:0:0:
5,68,41293,1,0,0:0:0:0:
44,226,41459,6,0,P|98:239|150:222,1,85,2|0,1:0|0:0,0:0:0:0:
265,316,41793,2,0,P|215:315|172:329,1,85,2|0,1:0|0:0,0:0:0:0:
358,360,42126,1,2,1:0:0:0:
297,219,42293,1,0,2:0:0:0:
457,204,42459,6,0,B|461:121|461:121|421:44,1,170,2|0,1:0|0:0,0:0:0:0:
314,77,42959,1,0,0:0:0:0:
209,96,43126,2,0,P|150:106|98:138,1,85,2|0,1:0|0:0,0:0:0:0:
12,235,43459,2,0,P|72:256|121:249,1,85,2|0,1:0|0:0,0:0:0:0:
124,356,43793,2,0,P|163:357|220:336,1,85,2|0,0:0|0:0,0:0:0:0:
305,225,44126,2,0,P|262:216|202:231,1,85,2|0,0:0|0:0,0:0:0:0:
363,347,44459,5,2,1:0:0:0:
471,297,44626,1,0,0:0:0:0:
347,342,44793,1,0,0:0:0:0:
314,172,44959,1,0,0:0:0:0:
484,191,45126,1,0,0:0:0:0:
392,275,45293,1,0,0:0:0:0:
301,174,45459,6,0,P|241:154|201:121,1,85,2|0,1:0|0:0,0:0:0:0:
386,119,45793,2,0,P|401:172|394:208,1,85,2|0,1:0|0:0,0:0:0:0:
308,321,46126,2,0,L|218:321,1,85,2|0,1:0|0:0,0:0:0:0:
38,236,46459,2,0,L|216:236,1,170,2|0,1:0|0:0,0:0:0:0:
221,124,46959,1,0,0:0:0:0:
124,83,47126,2,0,P|74:82|36:106,1,85
36,248,47459,6,0,L|32:306,1,42.5
133,352,47793,2,0,L|138:301,1,42.5,2|0,0:0|0:0,0:0:0:0:
243,258,48126,2,0,L|240:305,1,42.5,2|0,0:0|0:0,0:0:0:0:
331,361,48459,1,4,0:0:0:0:
223,170,64459,6,0,P|176:162|132:166,1,68
90,244,64793,1,0,0:0:0:0:
256,262,64959,2,0,L|329:260,2,68
161,310,65459,6,0,P|199:354|232:366,1,68
359,322,65793,2,0,P|338:284|303:248,1,68
233,164,66126,2,0,L|310:161,1,68
441,103,66459,6,0,P|447:154|439:196,1,68
396,248,66793,1,0,0:0:0:0:
316,163,66959,1,0,0:0:0:0:
360,55,67126,1,0,0:0:0:0:
453,169,67293,1,0,0:0:0:0:
315,244,67459,2,0,B|278:260|278:260|161:255,1,136
51,122,68126,1,0,0:0:0:0:
59,130,68459,6,0,P|59:189|48:227,1,68
14,323,68793,2,0,L|100:323,1,68
187,244,69126,2,0,P|171:197|156:174,1,68
57,191,69459,1,0,0:0:0:0:
136,95,69626,1,0,0:0:0:0:
247,140,69793,1,0,0:0:0:0:
129,74,69959,1,0,0:0:0:0:
44,192,70126,2,0,P|43:237|50:283,1,68
186,265,70459,6,0,P|217:221|233:123,1,136
319,55,70959,1,0,0:0:0:0:
420,111,71126,2,0,L|416:186,1,68
424,303,71459,1,0,0:0:0:0:
430,311,71793,6,0,P|411:347|375:362,1,59.4999981842042
251,341,72126,2,0,P|237:310|237:266,1,59.4999981842042
360,198,72459,6,0,L|275:184,1,68
175,192,72793,1,0,0:0:0:0:
90,308,72959,1,0,0:0:0:0:
226,264,73126,1,0,0:0:0:0:
90,220,73293,1,0,0:0:0:0:
176,336,73460,6,0,L|253:360,1,68
378,280,73793,2,0,L|300:296,1,68
192,203,74126,2,0,L|273:224,1,68
405,142,74459,6,0,P|341:154|264:124,1,136
346,59,74959,2,0,P|396:44|432:38,1,68
508,72,75293,1,0,0:0:0:0:
511,176,75459,2,0,L|505:249,1,68
409,245,75793,1,0,0:0:0:0:
461,333,75959,1,0,0:0:0:0:
505,181,76126,1,0,0:0:0:0:
375,224,76293,1,0,0:0:0:0:
275,324,76459,6,0,P|326:323|357:309,1,68
205,247,76793,2,0,P|157:238|124:238,1,68
275,344,77126,2,0,P|326:343|357:329,1,68
207,233,77459,2,0,P|159:224|126:224,1,68
36,284,77793,2,0,L|25:366,1,68
158,297,78126,2,0,P|151:251|136:219,1,68
36,117,78459,2,0,B|101:95|103:152|182:110,2,136
321,69,79626,6,0,L|367:62,2,34
311,164,79959,1,0,0:0:0:0:
439,106,80126,1,0,0:0:0:0:
476,257,80293,1,0,0:0:0:0:
315,249,80459,6,0,L|196:254,1,93.5000028533936,4|0,0:0|0:0,0:0:0:0:
431,348,80793,2,0,L|534:352,1,93.5000028533936
316,274,81126,2,0,P|294:341|300:383,1,93.5000028533936
483,201,81459,6,0,P|467:138|442:99,1,93.5000028533936
318,89,81793,1,0,0:0:0:0:
397,198,81959,1,0,0:0:0:0:
416,27,82126,1,0,0:0:0:0:
408,214,82293,1,0,0:0:0:0:
269,162,82459,6,0,P|231:92|293:4,1,187.000005706787
318,89,82959,1,0,0:0:0:0:
135,84,83126,2,0,L|23:89,1,93.5000028533936
206,248,83459,2,0,L|320:255,1,93.5000028533936
452,153,83793,5,0,0:0:0:0:
425,281,83959,1,0,0:0:0:0:
322,146,84126,1,0,0:0:0:0:
421,305,84293,1,0,0:0:0:0:
451,137,84459,2,0,P|443:78|419:40,1,93.5000028533936
245,46,84793,1,0,0:0:0:0:
313,158,84959,1,0,0:0:0:0:
141,88,85126,1,0,0:0:0:0:
202,207,85293,1,0,0:0:0:0:
128,79,85459,6,0,P|53:78|17:93,1,93.5000028533936
179,289,85793,2,0,P|234:287|276:251,1,93.5000028533936
331,63,86126,2,0,P|307:115|315:163,1,93.5000028533936
451,290,86459,2,0,P|387:252|265:270,1,187.000005706787
413,369,86959,2,0,P|471:375|509:360,1,93.5000028533936
488,145,87293,5,0,0:0:0:0:
453,277,87459,1,0,0:0:0:0:
296,120,87626,1,0,0:0:0:0:
473,149,87793,1,0,0:0:0:0:
285,246,87959,1,0,0:0:0:0:
398,69,88126,1,0,0:0:0:0:
386,55,88459,6,0,P|324:42|279:11,1,93.5000028533936
139,149,88793,2,0,P|184:126|222:65,1,93.5000028533936
30,118,89126,2,0,P|25:164|42:211,1,93.5000028533936
137,336,89459,2,0,L|153:229,1,93.5000028533936
291,166,89793,2,0,L|304:280,1,93.5000028533936
412,351,90126,1,0,0:0:0:0:
440,191,90293,1,0,0:0:0:0:
295,271,90459,6,0,B|210:246|177:306|89:248,1,187.000005706787
166,137,90959,1,0,0:0:0:0:
310,271,91126,2,0,P|317:324|296:376,1,93.5000028533936
46,313,91459,2,0,P|29:253|51:204,1,93.5000028533936
188,113,91793,1,0,0:0:0:0:
216,269,91959,1,0,0:0:0:0:
111,196,92126,1,0,0:0:0:0:
288,120,92293,1,0,0:0:0:0:
311,252,92459,6,0,L|310:358,1,93.5000028533936
430,214,92793,2,0,P|391:157|349:132,1,93.5000028533936
209,286,93126,2,0,P|269:277|302:257,1,93.5000028533936
160,114,93459,6,0,P|100:103|31:113,1,93.5000028533936
80,220,93793,1,0,0:0:0:0:
196,285,93959,1,0,0:0:0:0:
273,150,94126,2,0,L|272:48,1,93.5000028533936
428,228,94459,6,0,P|415:285|306:349,1,187.000005706787
181,285,94959,1,0,0:0:0:0:
287,153,95126,2,0,L|394:155,1,93.5000028533936
429,52,95459,2,0,B|371:59|346:23|346:23|296:75|215:39,1,233.75
170,42,96459,6,0,P|155:110|155:126,1,59.4999981842042
258,223,96793,2,0,P|273:155|270:145,1,59.4999981842042
75,159,97126,2,0,P|117:196|135:199,1,59.4999981842042
243,305,97459,6,0,P|291:300|320:277,1,68
131,209,97793,2,0,P|109:252|109:281,1,68
276,138,98126,2,0,P|235:95|200:81,1,76.4999976654053
71,143,98459,6,0,P|36:190|22:313,1,170
136,315,98959,1,0,0:0:0:0:
236,361,99126,2,0,L|336:358,1,76.4999976654053
434,264,99459,2,0,P|381:243|321:143,1,152.999995330811
421,119,99959,1,0,0:0:0:0:
303,173,100126,2,0,P|262:184|206:177,1,76.4999976654053
135,83,100459,5,0,0:0:0:0:
110,214,100626,1,0,0:0:0:0:
245,90,100793,1,0,0:0:0:0:
257,269,100959,1,0,0:0:0:0:
133,98,101126,1,0,0:0:0:0:
21,243,101293,1,0,0:0:0:0:
132,340,101459,2,0,L|229:345,1,76.4999976654053
323,338,101793,1,0,0:0:0:0:
437,227,101959,6,0,P|436:155|417:122,1,76.4999976654053
357,78,102293,1,0,0:0:0:0:
386,290,102459,2,0,P|428:308|518:248,1,152.999995330811
423,150,102959,1,0,0:0:0:0:
310,167,103126,2,0,L|220:172,1,76.4999976654053
145,117,103459,5,0,0:0:0:0:
133,227,103626,1,0,0:0:0:0:
25,104,103793,1,0,0:0:0:0:
24,256,103959,2,0,P|21:307|26:353,1,76.4999976654053
141,341,104293,1,0,0:0:0:0:
281,253,104459,6,0,P|316:220|361:210,1,76.4999976654053
367,309,104793,2,0,P|342:359|306:378,1,76.4999976654053
213,305,105126,2,0,P|195:248|212:205,1,76.4999976654053
360,133,105459,6,0,P|411:164|423:196,1,76.4999976654053
222,143,105793,2,0,P|232:89|255:58,1,76.4999976654053
492,149,106126,2,0,P|492:200|468:237,1,76.4999976654053
357,304,106459,2,0,P|414:282|512:315,1,152.999995330811
430,379,106959,1,0,0:0:0:0:
284,349,107126,2,0,P|271:297|288:258,1,76.4999976654053
331,150,107459,6,0,B|358:190|358:190|355:329,1,152.999995330811
244,174,107959,1,0,0:0:0:0:
355,58,108126,1,0,0:0:0:0:
420,138,108293,1,0,0:0:0:0:
240,84,108459,6,0,L|149:83,1,76.4999976654053
51,158,108793,2,0,P|36:212|40:246,1,76.4999976654053
154,298,109126,2,0,L|231:295,1,76.4999976654053
38,244,109459,6,0,P|27:288|32:338,1,76.4999976654053
121,206,109793,2,0,P|92:166|49:149,1,76.4999976654053
143,310,110126,2,0,P|164:347|199:372,1,76.4999976654053
306,344,110459,2,0,L|478:332,2,152.999995330811
306,344,111459,5,0,0:0:0:0:
261,197,111793,1,0,0:0:0:0:
410,228,112126,1,0,0:0:0:0:
201,129,112459,6,0,P|173:180|184:240,1,93.5000028533936
401,138,112793,2,0,P|381:68|342:31,1,93.5000028533936
158,50,113126,2,0,L|51:52,1,93.5000028533936
273,199,113459,2,0,L|373:202,1,93.5000028533936
191,311,113793,6,0,P|166:247|175:203,1,93.5000028533936
453,186,114126,2,0,P|445:243|401:283,1,93.5000028533936
169,114,114459,2,0,B|219:89|219:89|394:94,1,187.000005706787
268,213,114959,1,0,0:0:0:0:
94,200,115126,2,0,L|-11:199,1,93.5000028533936
152,303,115459,5,0,0:0:0:0:
259,225,115626,1,0,0:0:0:0:
259,363,115793,1,0,0:0:0:0:
172,193,115959,1,0,0:0:0:0:
362,212,116126,1,0,0:0:0:0:
240,359,116293,1,0,0:0:0:0:
362,128,116459,6,0,P|430:160|451:205,1,93.5000028533936
426,300,116793,1,0,0:0:0:0:
265,236,116959,1,0,0:0:0:0:
310,64,117126,2,0,P|367:46|420:66,1,93.5000028533936
221,144,117459,6,0,L|89:138,1,93.5000028533936
0,261,117793,2,0,L|101:257,1,93.5000028533936
291,190,118126,2,0,P|306:137|281:88,1,93.5000028533936
35,64,118459,2,0,L|0:276,1,187.000005706787
133,343,118959,2,0,P|206:338|244:313,2,93.5000028533936
165,257,119459,5,0,0:0:0:0:
290,86,119626,1,0,0:0:0:0:
290,297,119793,1,0,0:0:0:0:
165,126,119959,1,0,0:0:0:0:
367,192,120126,1,0,0:0:0:0:
370,204,120459,6,0,P|442:191|467:170,1,93.5000028533936
280,98,120793,2,0,P|248:142|238:192,1,93.5000028533936
356,370,121126,2,0,P|388:326|398:276,1,93.5000028533936
226,180,121459,2,0,L|111:176,1,93.5000028533936
2,290,121793,2,0,L|105:287,1,93.5000028533936
217,159,122126,2,0,L|102:155,1,93.5000028533936
3,310,122459,2,0,L|197:301,1,187.000005706787
361,189,122959,5,0,0:0:0:0:
443,244,123126,2,0,P|441:303|418:350,1,93.5000028533936
292,136,123459,2,0,P|340:105|408:113,1,93.5000028533936
490,153,123793,1,0,0:0:0:0:
355,203,123959,1,0,0:0:0:0:
283,41,124126,2,0,L|178:41,1,93.5000028533936
78,166,124459,5,0,0:0:0:0:
46,58,124626,1,0,0:0:0:0:
201,58,124793,1,0,0:0:0:0:
170,166,124959,2,0,L|168:274,1,93.5000028533936
355,293,125293,5,0,0:0:0:0:
361,281,125459,2,0,P|298:242|246:239,1,93.5000028533936
98,310,125793,2,0,P|160:343|200:336,1,93.5000028533936
419,348,126126,2,0,P|448:297|441:243,1,93.5000028533936
342,116,126459,2,0,B|270:76|219:147|144:90,1,187.000005706787
47,60,126959,1,0,0:0:0:0:
25,170,127126,2,0,L|23:291,1,93.5000028533936
162,293,127459,6,0,B|273:243|273:353|398:274,1,233.75
408,259,128459,6,0,L|409:140,1,101.999996887207,4|0,0:0|0:0,0:0:0:0:
174,43,128793,2,0,L|177:175,1,101.999996887207
366,338,129126,2,0,P|436:345|476:319,1,101.999996887207
181,236,129459,2,0,P|149:286|149:370,1,101.999996887207
391,167,129793,2,0,L|383:54,1,101.999996887207
146,44,130126,2,0,P|79:61|37:107,1,101.999996887207
311,342,130459,6,0,B|385:337|392:255|392:255|420:288|490:271,1,203.999993774414
378,165,130959,1,0,0:0:0:0:
237,220,131126,2,0,L|107:221,1,101.999996887207
318,62,131459,2,0,P|390:50|448:69,1,101.999996887207
365,174,131793,5,0,0:0:0:0:
165,114,131959,1,0,0:0:0:0:
233,323,132126,1,0,0:0:0:0:
266,136,132293,1,0,0:0:0:0:
69,218,132459,6,0,L|59:346,2,101.999996887207
179,109,132959,1,0,0:0:0:0:
298,248,133126,1,0,0:0:0:0:
85,131,133293,1,0,0:0:0:0:
337,95,133459,6,0,L|444:98,1,101.999996887207
474,231,133793,1,0,0:0:0:0:
280,255,133959,1,0,0:0:0:0:
256,66,134126,2,0,P|296:21|352:15,1,101.999996887207
470,258,134459,2,0,P|425:328|303:348,1,203.999993774414
181,197,134959,1,0,0:0:0:0:
52,343,135126,2,0,L|61:202,1,101.999996887207
314,106,135459,6,0,P|318:187|301:245,1,101.999996887207
142,327,135793,1,0,0:0:0:0:
409,221,135959,1,0,0:0:0:0:
68,65,136126,1,0,0:0:0:0:
63,84,136459,6,0,L|175:83,1,101.999996887207
403,232,136793,2,0,L|277:220,1,101.999996887207
485,309,137126,2,0,P|512:257|505:190,1,101.999996887207
247,143,137459,2,0,P|207:189|204:241,1,101.999996887207
456,112,137793,2,0,P|396:77|333:82,1,101.999996887207
279,333,138126,2,0,P|345:365|404:357,1,101.999996887207
240,131,138459,6,0,B|187:111|187:111|23:118,1,203.999993774414
31,261,138959,1,0,0:0:0:0:
165,342,139126,2,0,L|293:342,1,101.999996887207
415,200,139459,5,0,0:0:0:0:
377,352,139626,1,0,0:0:0:0:
290,158,139793,1,0,0:0:0:0:
463,311,139959,1,0,0:0:0:0:
399,117,140126,1,0,0:0:0:0:
270,326,140293,1,0,0:0:0:0:
264,153,140459,6,0,L|261:36,1,101.999996887207
24,205,140793,2,0,L|22:339,1,101.999996887207
322,227,141126,2,0,P|353:176|350:122,1,101.999996887207
48,93,141459,2,0,P|21:152|25:208,1,101.999996887207
290,308,141793,2,0,P|347:315|391:281,1,101.999996887207
149,125,142126,2,0,P|100:97|47:94,1,101.999996887207
449,354,142459,6,0,P|474:294|351:212,1,203.999993774414
260,259,142959,1,0,0:0:0:0:
114,241,143126,2,0,L|-7:243,1,101.999996887207
255,106,143459,5,0,0:0:0:0:
250,118,144459,6,0,P|241:177|251:233,2,101.999996887207
363,93,145459,2,0,L|489:97,2,101.999996887207
252,40,146459,2,0,L|136:42,1,101.999996887207
69,115,147126,2,0,P|59:170|69:226,1,101.999996887207
74,223,148459,6,0,L|181:219,2,101.999996887207
81,336,149459,2,0,P|135:346|193:323,2,101.999996887207
185,223,150459,2,0,B|236:209|267:127|267:127|301:158|355:123,1,203.999993774414,0|4,0:0|0:0,0:0:0:0:
