osu file format v14

[General]
AudioFilename: audio.mp3
AudioLeadIn: 0
PreviewTime: 66800
Countdown: 0
SampleSet: Soft
StackLeniency: 0.7
Mode: 3
LetterboxInBreaks: 0
SpecialStyle: 0
WidescreenStoryboard: 0

[Editor]
DistanceSpacing: 1.2
BeatDivisor: 4
GridSize: 16
TimelineZoom: 2.1

[Metadata]
Title:Senpai. [MOVIE Ver.]
TitleUnicode:センパイ。[MOVIE Ver.]
Artist:HoneyWorks meets TrySail
ArtistUnicode:HoneyWorks meets TrySail
Creator:Ibrahim
Version:Notice me!
Source:好きになるその瞬間を。~告白実行委員会~
Tags:Suki ni Naru Sono Shuukan ~Kokuhaku Shikko Iin Kai~ opening Nysrogh Maxus
BeatmapID:1148628
BeatmapSetID:541765

[Difficulty]
HPDrainRate:8
CircleSize:4
OverallDifficulty:8
ApproachRate:5
SliderMultiplier:1.4
SliderTickRate:1

[Events]
//Background and Video events
0,0,"BGSENPAI.jpg",0,0
//Break Periods
//Storyboard Layer 0 (Background)
//Storyboard Layer 1 (Fail)
//Storyboard Layer 2 (Pass)
//Storyboard Layer 3 (Foreground)
//Storyboard Sound Samples

[TimingPoints]
1429,370.37037037037,4,2,1,50,1,0
14022,370.37037037037,4,2,1,50,1,0
67355,-100,4,2,1,50,0,1
91059,-100,4,2,1,50,0,0

[HitObjects]
448,192,1336,5,0,0:0:0:0:
320,192,1382,1,0,0:0:0:0:
64,192,1429,1,0,0:0:0:0:
192,192,1429,1,0,0:0:0:0:
320,192,1614,1,0,0:0:0:0:
448,192,1799,1,0,0:0:0:0:
64,192,1984,1,0,0:0:0:0:
192,192,2169,1,0,0:0:0:0:
448,192,2354,1,0,0:0:0:0:
320,192,2540,1,0,0:0:0:0:
192,192,2725,1,0,0:0:0:0:
64,192,2725,1,0,0:0:0:0:
448,192,3280,1,0,0:0:0:0:
192,192,3466,1,0,0:0:0:0:
320,192,3651,1,0,0:0:0:0:
64,192,3836,1,0,0:0:0:0:
192,192,4021,1,0,0:0:0:0:
320,192,4206,1,0,0:0:0:0:
448,192,4391,1,0,0:0:0:0:
64,192,4391,1,0,0:0:0:0:
320,192,4762,1,0,0:0:0:0:
192,192,4947,1,0,0:0:0:0:
448,192,5132,1,0,0:0:0:0:
64,192,5317,1,0,0:0:0:0:
192,192,5503,1,0,0:0:0:0:
320,192,5688,1,0,0:0:0:0:
448,192,5688,1,0,0:0:0:0:
192,192,6058,1,0,0:0:0:0:
64,192,6243,1,0,0:0:0:0:
448,192,6428,1,0,0:0:0:0:
320,192,6614,1,0,0:0:0:0:
192,192,6799,1,0,0:0:0:0:
448,192,6984,1,0,0:0:0:0:
64,192,7169,1,0,0:0:0:0:
192,192,7354,1,0,0:0:0:0:
320,192,7354,1,0,0:0:0:0:
448,192,7540,1,0,0:0:0:0:
64,192,7725,1,0,0:0:0:0:
320,192,7910,1,0,0:0:0:0:
192,192,8095,1,0,0:0:0:0:
448,192,8280,1,0,0:0:0:0:
320,192,8466,1,0,0:0:0:0:
192,192,8651,1,0,0:0:0:0:
64,192,8651,1,0,0:0:0:0:
320,192,9206,1,0,0:0:0:0:
448,192,9391,1,0,0:0:0:0:
192,192,9577,1,0,0:0:0:0:
320,192,9762,1,0,0:0:0:0:
64,192,9947,1,0,0:0:0:0:
192,192,10132,1,0,0:0:0:0:
320,192,10317,1,0,0:0:0:0:
64,192,10317,1,0,0:0:0:0:
192,192,10688,1,0,0:0:0:0:
448,192,10873,1,0,0:0:0:0:
64,192,11058,1,0,0:0:0:0:
320,192,11243,1,0,0:0:0:0:
192,192,11428,1,0,0:0:0:0:
448,192,11614,1,4,0:0:0:0:
64,192,11614,1,2,0:0:0:0:
320,192,11614,1,0,0:0:0:0:
192,192,11984,1,0,0:0:0:0:
320,192,11984,1,0,0:0:0:0:
64,192,12169,1,0,0:0:0:0:
320,192,12169,1,0,0:0:0:0:
64,192,12354,1,8,0:0:0:0:
448,192,12354,1,0,0:0:0:0:
192,192,12540,1,0,0:0:0:0:
448,192,12540,1,0,0:0:0:0:
320,192,12540,1,2,0:0:0:0:
320,192,12725,1,0,0:0:0:0:
192,192,12725,1,8,0:0:0:0:
64,192,12725,1,0,0:0:0:0:
64,192,12910,1,2,0:0:0:0:
320,192,12910,1,0,0:0:0:0:
448,192,12910,1,0,0:0:0:0:
64,192,13095,1,0,0:0:0:0:
192,192,13095,1,8,0:0:0:0:
448,192,13095,1,0,0:0:0:0:
448,192,14021,1,4,0:0:0:0:
320,192,14021,1,2,0:0:0:0:
64,192,14021,128,0,14207:0:0:0:0:
192,192,14207,128,0,14392:0:0:0:0:
320,192,14392,128,0,14577:0:0:0:0:
64,192,14392,1,8,0:0:0:0:
448,192,14392,1,0,0:0:0:0:
448,192,14577,128,0,14947:0:0:0:0:
320,192,14762,1,2,0:0:0:0:
64,192,14762,1,0,0:0:0:0:
192,192,14947,128,0,15133:0:0:0:0:
320,192,15133,128,0,15318:0:0:0:0:
448,192,15133,1,8,0:0:0:0:
64,192,15133,1,0,0:0:0:0:
192,192,15318,1,0,0:0:0:0:
64,192,15503,128,0,15688:0:0:0:0:
192,192,15503,128,2,15688:0:0:0:0:
448,192,15688,1,0,0:0:0:0:
64,192,15873,128,0,16059:0:0:0:0:
192,192,15873,128,0,16059:0:0:0:0:
320,192,15873,1,8,0:0:0:0:
448,192,16059,128,0,16244:0:0:0:0:
320,192,16244,128,0,16429:0:0:0:0:
192,192,16244,1,2,0:0:0:0:
64,192,16429,128,0,16614:0:0:0:0:
192,192,16614,128,0,16799:0:0:0:0:
320,192,16614,1,8,0:0:0:0:
448,192,16614,1,0,0:0:0:0:
448,192,16799,128,0,16984:0:0:0:0:
64,192,16984,128,0,17170:0:0:0:0:
192,192,16984,1,2,0:0:0:0:
320,192,16984,1,4,0:0:0:0:
320,192,17170,128,0,17355:0:0:0:0:
192,192,17355,128,0,17540:0:0:0:0:
64,192,17355,1,8,0:0:0:0:
448,192,17355,1,0,0:0:0:0:
448,192,17540,128,0,17910:0:0:0:0:
192,192,17725,1,0,0:0:0:0:
64,192,17725,1,2,0:0:0:0:
320,192,17910,128,0,18096:0:0:0:0:
448,192,18096,1,0,0:0:0:0:
192,192,18096,128,0,18281:0:0:0:0:
64,192,18096,1,8,0:0:0:0:
320,192,18281,1,0,0:0:0:0:
320,192,18466,128,2,18651:0:0:0:0:
448,192,18466,128,0,18651:0:0:0:0:
192,192,18651,1,0,0:0:0:0:
320,192,18836,128,0,19021:0:0:0:0:
448,192,18836,128,0,19021:0:0:0:0:
64,192,18836,1,8,0:0:0:0:
192,192,19021,128,0,19207:0:0:0:0:
320,192,19207,128,0,19392:0:0:0:0:
448,192,19207,1,2,0:0:0:0:
64,192,19392,128,0,19577:0:0:0:0:
448,192,19577,128,0,19762:0:0:0:0:
192,192,19577,1,8,0:0:0:0:
320,192,19577,1,4,0:0:0:0:
64,192,19762,1,0,0:0:0:0:
192,192,19855,1,8,0:0:0:0:
320,192,19947,1,2,0:0:0:0:
448,192,19947,1,4,0:0:0:0:
64,192,19947,128,0,20133:0:0:0:0:
320,192,20133,128,0,20318:0:0:0:0:
448,192,20318,128,0,20503:0:0:0:0:
192,192,20318,1,8,0:0:0:0:
64,192,20318,1,0,0:0:0:0:
64,192,20503,128,0,20873:0:0:0:0:
192,192,20688,1,0,0:0:0:0:
320,192,20688,1,2,0:0:0:0:
448,192,20873,128,0,21059:0:0:0:0:
320,192,21059,1,0,0:0:0:0:
192,192,21059,128,0,21244:0:0:0:0:
64,192,21059,1,8,0:0:0:0:
448,192,21244,1,0,0:0:0:0:
64,192,21429,128,0,21614:0:0:0:0:
448,192,21429,128,2,21614:0:0:0:0:
320,192,21614,1,0,0:0:0:0:
64,192,21799,128,0,21984:0:0:0:0:
448,192,21799,128,0,21984:0:0:0:0:
192,192,21799,1,8,0:0:0:0:
320,192,21984,1,0,0:0:0:0:
192,192,22077,1,8,0:0:0:0:
64,192,22077,1,0,0:0:0:0:
320,192,22170,1,8,0:0:0:0:
448,192,22170,1,0,0:0:0:0:
192,192,22262,1,8,0:0:0:0:
64,192,22262,1,0,0:0:0:0:
448,192,22355,128,0,22540:0:0:0:0:
320,192,22540,1,8,0:0:0:0:
64,192,22540,128,4,22910:0:0:0:0:
192,192,22540,128,0,22910:0:0:0:0:
320,192,22910,1,8,0:0:0:0:
448,192,22910,1,0,0:0:0:0:
320,192,23096,1,0,0:0:0:0:
192,192,23096,1,2,0:0:0:0:
192,192,23281,1,2,0:0:0:0:
64,192,23281,1,0,0:0:0:0:
448,192,23466,1,8,0:0:0:0:
320,192,23466,1,0,0:0:0:0:
64,192,23466,1,0,0:0:0:0:
192,192,23651,1,2,0:0:0:0:
320,192,23651,1,0,0:0:0:0:
192,192,23836,1,2,0:0:0:0:
448,192,23836,1,0,0:0:0:0:
448,192,24021,1,0,0:0:0:0:
320,192,24021,1,8,0:0:0:0:
64,192,24021,1,0,0:0:0:0:
192,192,24207,1,2,0:0:0:0:
64,192,24207,1,0,0:0:0:0:
192,192,24392,1,2,0:0:0:0:
448,192,24392,1,0,0:0:0:0:
448,192,24577,1,0,0:0:0:0:
320,192,24577,1,8,0:0:0:0:
64,192,24577,1,0,0:0:0:0:
64,192,24762,1,0,0:0:0:0:
192,192,24762,1,0,0:0:0:0:
320,192,24762,1,8,0:0:0:0:
448,192,24947,1,0,0:0:0:0:
192,192,24947,1,2,0:0:0:0:
448,192,25133,1,0,0:0:0:0:
320,192,25133,1,0,0:0:0:0:
64,192,25133,1,8,0:0:0:0:
192,192,25318,1,0,0:0:0:0:
320,192,25410,1,8,0:0:0:0:
448,192,25410,1,0,0:0:0:0:
192,192,25503,1,8,0:0:0:0:
64,192,25503,1,0,0:0:0:0:
320,192,25596,1,8,0:0:0:0:
448,192,25596,1,0,0:0:0:0:
192,192,25688,1,8,0:0:0:0:
64,192,25688,1,0,0:0:0:0:
448,192,25873,1,2,0:0:0:0:
320,192,25873,1,4,0:0:0:0:
64,192,25873,128,0,27355:0:0:0:0:
192,192,26059,1,0,0:0:0:0:
448,192,26244,1,0,0:0:0:0:
192,192,26244,1,2,0:0:0:0:
320,192,26429,1,0,0:0:0:0:
320,192,26614,1,0,0:0:0:0:
448,192,26614,1,2,0:0:0:0:
192,192,26799,1,0,0:0:0:0:
320,192,26984,1,0,0:0:0:0:
448,192,26984,1,2,0:0:0:0:
320,192,27170,1,0,0:0:0:0:
448,192,27355,1,2,0:0:0:0:
192,192,27355,128,0,28096:0:0:0:0:
320,192,27540,1,0,0:0:0:0:
64,192,27725,1,0,0:0:0:0:
448,192,27725,1,2,0:0:0:0:
64,192,27910,1,0,0:0:0:0:
448,192,28096,1,2,0:0:0:0:
320,192,28096,128,0,28836:0:0:0:0:
192,192,28281,1,0,0:0:0:0:
64,192,28466,1,0,0:0:0:0:
448,192,28466,1,2,0:0:0:0:
64,192,28651,1,0,0:0:0:0:
192,192,28836,1,2,0:0:0:0:
448,192,28836,128,0,30318:0:0:0:0:
64,192,29021,1,0,0:0:0:0:
320,192,29207,1,2,0:0:0:0:
64,192,29207,1,0,0:0:0:0:
320,192,29392,1,0,0:0:0:0:
64,192,29577,1,0,0:0:0:0:
192,192,29577,1,2,0:0:0:0:
192,192,29762,1,0,0:0:0:0:
64,192,29947,1,2,0:0:0:0:
320,192,29947,1,0,0:0:0:0:
64,192,30133,1,0,0:0:0:0:
64,192,30318,128,0,31059:0:0:0:0:
192,192,30318,1,2,0:0:0:0:
448,192,30503,1,0,0:0:0:0:
320,192,30688,1,2,0:0:0:0:
448,192,30688,1,0,0:0:0:0:
192,192,30873,1,0,0:0:0:0:
320,192,30966,1,0,0:0:0:0:
192,192,31059,1,2,0:0:0:0:
448,192,31059,128,0,31799:0:0:0:0:
64,192,31244,1,0,0:0:0:0:
192,192,31429,1,2,0:0:0:0:
320,192,31429,1,0,0:0:0:0:
64,192,31614,1,0,0:0:0:0:
192,192,31707,1,0,0:0:0:0:
64,192,31799,1,2,0:0:0:0:
320,192,31799,128,0,32355:0:0:0:0:
192,192,31984,1,0,0:0:0:0:
448,192,32170,1,0,0:0:0:0:
192,192,32170,1,2,0:0:0:0:
64,192,32355,128,0,32725:0:0:0:0:
192,192,32540,1,0,0:0:0:0:
320,192,32540,1,2,0:0:0:0:
448,192,32725,128,0,33281:0:0:0:0:
192,192,32910,1,2,0:0:0:0:
64,192,32910,1,0,0:0:0:0:
64,192,33096,1,0,0:0:0:0:
320,192,33281,1,2,0:0:0:0:
192,192,33281,128,0,33466:0:0:0:0:
448,192,33466,128,0,33651:0:0:0:0:
192,192,33651,1,2,0:0:0:0:
64,192,33651,128,0,33836:0:0:0:0:
320,192,33836,128,0,34207:0:0:0:0:
192,192,34021,1,2,0:0:0:0:
64,192,34021,1,0,0:0:0:0:
448,192,34207,128,0,34762:0:0:0:0:
64,192,34392,1,0,0:0:0:0:
192,192,34392,1,2,0:0:0:0:
320,192,34577,1,0,0:0:0:0:
320,192,34762,1,2,0:0:0:0:
64,192,34762,1,0,0:0:0:0:
192,192,34947,1,0,0:0:0:0:
320,192,35133,1,2,0:0:0:0:
448,192,35133,1,0,0:0:0:0:
192,192,35318,1,0,0:0:0:0:
320,192,35503,1,2,0:0:0:0:
448,192,35503,1,0,0:0:0:0:
64,192,35688,1,0,0:0:0:0:
320,192,35873,1,2,0:0:0:0:
448,192,35873,1,0,0:0:0:0:
448,192,36059,1,8,0:0:0:0:
64,192,36059,128,0,36429:0:0:0:0:
192,192,36059,128,4,36244:0:0:0:0:
320,192,36429,1,8,0:0:0:0:
448,192,36429,1,0,0:0:0:0:
192,192,36429,1,0,0:0:0:0:
64,192,36614,1,0,0:0:0:0:
192,192,36614,1,8,0:0:0:0:
448,192,36614,1,0,0:0:0:0:
320,192,36799,1,2,0:0:0:0:
192,192,36799,1,0,0:0:0:0:
448,192,36984,1,0,0:0:0:0:
320,192,36984,1,0,0:0:0:0:
64,192,36984,1,8,0:0:0:0:
192,192,37170,1,0,0:0:0:0:
320,192,37262,1,8,0:0:0:0:
192,192,37355,1,0,0:0:0:0:
64,192,37355,1,0,0:0:0:0:
448,192,37355,1,8,0:0:0:0:
320,192,37540,1,0,0:0:0:0:
192,192,37633,1,8,0:0:0:0:
448,192,37725,1,2,0:0:0:0:
320,192,37725,1,4,0:0:0:0:
64,192,37725,128,0,39207:0:0:0:0:
192,192,38096,1,8,0:0:0:0:
320,192,38096,1,0,0:0:0:0:
448,192,38281,1,0,0:0:0:0:
320,192,38373,1,0,0:0:0:0:
192,192,38466,1,2,0:0:0:0:
448,192,38466,1,0,0:0:0:0:
448,192,38651,1,0,0:0:0:0:
320,192,38651,1,2,0:0:0:0:
192,192,38836,1,8,0:0:0:0:
320,192,38836,1,0,0:0:0:0:
448,192,39021,1,0,0:0:0:0:
192,192,39114,1,0,0:0:0:0:
320,192,39207,1,2,0:0:0:0:
448,192,39207,128,0,39947:0:0:0:0:
64,192,39577,1,8,0:0:0:0:
192,192,39577,1,0,0:0:0:0:
320,192,39762,1,0,0:0:0:0:
192,192,39855,1,0,0:0:0:0:
64,192,39947,1,2,0:0:0:0:
320,192,39947,128,0,40688:0:0:0:0:
192,192,40133,1,2,0:0:0:0:
448,192,40133,1,0,0:0:0:0:
64,192,40318,1,0,0:0:0:0:
448,192,40318,1,8,0:0:0:0:
192,192,40688,128,0,42170:0:0:0:0:
448,192,40688,1,2,0:0:0:0:
320,192,40873,1,0,0:0:0:0:
64,192,41059,1,8,0:0:0:0:
448,192,41059,1,0,0:0:0:0:
64,192,41429,1,2,0:0:0:0:
320,192,41429,1,0,0:0:0:0:
64,192,41614,1,2,0:0:0:0:
448,192,41614,1,0,0:0:0:0:
320,192,41799,1,8,0:0:0:0:
448,192,41799,1,0,0:0:0:0:
64,192,41984,1,0,0:0:0:0:
320,192,42077,1,0,0:0:0:0:
64,192,42170,128,0,42910:0:0:0:0:
448,192,42170,1,2,0:0:0:0:
320,192,42355,1,2,0:0:0:0:
192,192,42355,1,0,0:0:0:0:
448,192,42540,1,8,0:0:0:0:
320,192,42540,1,0,0:0:0:0:
192,192,42725,1,0,0:0:0:0:
320,192,42818,1,0,0:0:0:0:
192,192,42910,1,2,0:0:0:0:
448,192,42910,128,0,43651:0:0:0:0:
64,192,43096,1,2,0:0:0:0:
320,192,43096,1,0,0:0:0:0:
64,192,43281,1,0,0:0:0:0:
192,192,43281,1,8,0:0:0:0:
320,192,43651,1,2,0:0:0:0:
192,192,43651,128,0,45133:0:0:0:0:
64,192,44021,1,8,0:0:0:0:
320,192,44021,1,0,0:0:0:0:
448,192,44207,1,0,0:0:0:0:
320,192,44299,1,0,0:0:0:0:
64,192,44392,1,2,0:0:0:0:
448,192,44392,1,0,0:0:0:0:
320,192,44577,1,2,0:0:0:0:
64,192,44577,1,0,0:0:0:0:
320,192,44762,1,0,0:0:0:0:
448,192,44762,1,8,0:0:0:0:
320,192,45133,128,0,45873:0:0:0:0:
64,192,45133,1,2,0:0:0:0:
448,192,45318,1,0,0:0:0:0:
448,192,45503,1,0,0:0:0:0:
192,192,45503,1,8,0:0:0:0:
192,192,45873,1,2,0:0:0:0:
64,192,45873,128,0,46614:0:0:0:0:
320,192,46059,1,2,0:0:0:0:
448,192,46059,1,0,0:0:0:0:
448,192,46244,1,0,0:0:0:0:
192,192,46244,1,8,0:0:0:0:
320,192,46614,1,2,0:0:0:0:
448,192,46614,1,0,0:0:0:0:
320,192,46799,1,0,0:0:0:0:
192,192,46799,1,2,0:0:0:0:
192,192,46984,1,0,0:0:0:0:
64,192,46984,1,8,0:0:0:0:
448,192,46984,1,0,0:0:0:0:
320,192,47170,1,0,0:0:0:0:
64,192,47355,1,2,0:0:0:0:
320,192,47355,1,0,0:0:0:0:
192,192,47540,1,2,0:0:0:0:
448,192,47540,1,0,0:0:0:0:
320,192,47725,1,8,0:0:0:0:
448,192,47725,1,0,0:0:0:0:
64,192,47725,1,0,0:0:0:0:
320,192,47910,1,4,0:0:0:0:
192,192,47910,1,2,0:0:0:0:
64,192,47910,128,0,48281:0:0:0:0:
320,192,48281,1,0,0:0:0:0:
448,192,48281,1,2,0:0:0:0:
64,192,48466,1,8,0:0:0:0:
192,192,48466,1,0,0:0:0:0:
448,192,48466,1,0,0:0:0:0:
320,192,48651,1,0,0:0:0:0:
192,192,48651,1,0,0:0:0:0:
64,192,48836,1,0,0:0:0:0:
320,192,48836,1,2,0:0:0:0:
448,192,49021,1,8,0:0:0:0:
64,192,49021,1,0,0:0:0:0:
320,192,49114,1,8,0:0:0:0:
192,192,49207,1,2,0:0:0:0:
448,192,49207,1,0,0:0:0:0:
192,192,49392,1,2,0:0:0:0:
320,192,49392,1,0,0:0:0:0:
64,192,49577,1,2,0:0:0:0:
320,192,49577,1,0,0:0:0:0:
448,192,49577,1,4,0:0:0:0:
192,192,49762,1,0,0:0:0:0:
64,192,49947,1,0,0:0:0:0:
320,192,49947,1,2,0:0:0:0:
192,192,50133,1,0,0:0:0:0:
448,192,50225,1,0,0:0:0:0:
64,192,50318,1,0,0:0:0:0:
320,192,50318,1,2,0:0:0:0:
192,192,50503,1,0,0:0:0:0:
64,192,50688,1,0,0:0:0:0:
320,192,50688,1,2,0:0:0:0:
448,192,50873,1,0,0:0:0:0:
192,192,50966,1,0,0:0:0:0:
64,192,51059,1,0,0:0:0:0:
320,192,51059,1,2,0:0:0:0:
448,192,51244,1,0,0:0:0:0:
320,192,51336,1,0,0:0:0:0:
192,192,51429,1,2,0:0:0:0:
64,192,51429,1,0,0:0:0:0:
448,192,51614,1,0,0:0:0:0:
64,192,51707,1,0,0:0:0:0:
192,192,51799,1,2,0:0:0:0:
320,192,51799,1,0,0:0:0:0:
320,192,51984,1,0,0:0:0:0:
448,192,52077,1,0,0:0:0:0:
192,192,52170,1,2,0:0:0:0:
64,192,52170,1,4,0:0:0:0:
320,192,52355,1,0,0:0:0:0:
448,192,52540,1,2,0:0:0:0:
192,192,52540,1,0,0:0:0:0:
64,192,52540,1,4,0:0:0:0:
320,192,52725,1,0,0:0:0:0:
192,192,52910,1,0,0:0:0:0:
448,192,52910,1,2,0:0:0:0:
64,192,53096,1,0,0:0:0:0:
320,192,53188,1,0,0:0:0:0:
192,192,53281,1,0,0:0:0:0:
448,192,53281,1,2,0:0:0:0:
320,192,53466,1,0,0:0:0:0:
64,192,53559,1,0,0:0:0:0:
192,192,53651,1,0,0:0:0:0:
448,192,53651,1,2,0:0:0:0:
320,192,53836,1,8,0:0:0:0:
192,192,53836,1,0,0:0:0:0:
64,192,53836,1,0,0:0:0:0:
448,192,54021,1,0,0:0:0:0:
64,192,54021,1,2,0:0:0:0:
192,192,54207,1,0,0:0:0:0:
448,192,54207,1,0,0:0:0:0:
320,192,54207,1,8,0:0:0:0:
64,192,54392,1,0,0:0:0:0:
192,192,54392,1,8,0:0:0:0:
320,192,54392,1,0,0:0:0:0:
448,192,54577,1,0,0:0:0:0:
320,192,54670,1,8,0:0:0:0:
192,192,54762,1,0,0:0:0:0:
64,192,54762,1,2,0:0:0:0:
320,192,54947,1,0,0:0:0:0:
192,192,55040,1,8,0:0:0:0:
64,192,55133,1,2,0:0:0:0:
448,192,55133,1,0,0:0:0:0:
192,192,55318,1,0,0:0:0:0:
320,192,55503,1,0,0:0:0:0:
448,192,55503,1,4,0:0:0:0:
64,192,55503,1,2,0:0:0:0:
192,192,55688,1,2,0:0:0:0:
64,192,55688,1,0,0:0:0:0:
320,192,55873,1,8,0:0:0:0:
448,192,55873,1,0,0:0:0:0:
192,192,55873,1,0,0:0:0:0:
64,192,56059,1,0,0:0:0:0:
192,192,56151,1,2,0:0:0:0:
320,192,56244,1,2,0:0:0:0:
448,192,56244,1,0,0:0:0:0:
192,192,56429,1,2,0:0:0:0:
320,192,56429,1,0,0:0:0:0:
192,192,56614,1,0,0:0:0:0:
64,192,56614,1,8,0:0:0:0:
448,192,56614,1,0,0:0:0:0:
320,192,56799,1,0,0:0:0:0:
448,192,56799,1,0,0:0:0:0:
64,192,56984,1,0,0:0:0:0:
192,192,57170,1,2,0:0:0:0:
448,192,57170,1,0,0:0:0:0:
448,192,57355,1,0,0:0:0:0:
320,192,57355,1,8,0:0:0:0:
64,192,57355,1,0,0:0:0:0:
192,192,57540,1,0,0:0:0:0:
320,192,57633,1,2,0:0:0:0:
64,192,57725,1,0,0:0:0:0:
192,192,57725,1,2,0:0:0:0:
64,192,57910,1,0,0:0:0:0:
448,192,57910,1,2,0:0:0:0:
448,192,58096,1,0,0:0:0:0:
320,192,58096,1,8,0:0:0:0:
192,192,58096,1,0,0:0:0:0:
64,192,58281,1,0,0:0:0:0:
64,192,58466,1,0,0:0:0:0:
320,192,58466,1,2,0:0:0:0:
448,192,58466,1,4,0:0:0:0:
192,192,58651,1,2,0:0:0:0:
320,192,58651,1,0,0:0:0:0:
64,192,58836,1,8,0:0:0:0:
192,192,58836,1,0,0:0:0:0:
448,192,58836,1,0,0:0:0:0:
320,192,59021,1,0,0:0:0:0:
192,192,59114,1,2,0:0:0:0:
448,192,59207,1,0,0:0:0:0:
320,192,59207,1,2,0:0:0:0:
192,192,59392,1,2,0:0:0:0:
448,192,59392,1,0,0:0:0:0:
64,192,59577,1,8,0:0:0:0:
192,192,59577,1,0,0:0:0:0:
320,192,59577,1,0,0:0:0:0:
64,192,59762,1,4,0:0:0:0:
320,192,59762,1,0,0:0:0:0:
448,192,59762,1,2,0:0:0:0:
192,192,59947,1,0,0:0:0:0:
320,192,60133,1,0,0:0:0:0:
64,192,60133,1,2,0:0:0:0:
192,192,60318,1,0,0:0:0:0:
448,192,60318,1,0,0:0:0:0:
320,192,60318,1,8,0:0:0:0:
64,192,60503,1,0,0:0:0:0:
320,192,60596,1,8,0:0:0:0:
448,192,60596,1,0,0:0:0:0:
192,192,60688,1,8,0:0:0:0:
64,192,60688,1,0,0:0:0:0:
192,192,60873,1,2,0:0:0:0:
320,192,60873,1,0,0:0:0:0:
320,192,61059,1,2,0:0:0:0:
448,192,61059,1,0,0:0:0:0:
64,192,61244,1,0,0:0:0:0:
192,192,61336,1,2,0:0:0:0:
64,192,61429,1,4,0:0:0:0:
320,192,61429,1,2,0:0:0:0:
448,192,61429,128,0,61799:0:0:0:0:
320,192,61614,128,0,61984:0:0:0:0:
192,192,61799,128,2,62170:0:0:0:0:
64,192,61984,128,0,62355:0:0:0:0:
448,192,62170,128,2,62540:0:0:0:0:
320,192,62355,128,0,62725:0:0:0:0:
192,192,62540,128,2,62910:0:0:0:0:
64,192,62725,128,0,63096:0:0:0:0:
320,192,62910,128,2,63281:0:0:0:0:
192,192,63096,128,0,63466:0:0:0:0:
448,192,63281,128,2,63651:0:0:0:0:
64,192,63466,128,0,63836:0:0:0:0:
320,192,63651,128,2,64021:0:0:0:0:
192,192,63836,128,0,64207:0:0:0:0:
448,192,64021,128,2,64392:0:0:0:0:
64,192,64207,128,0,64392:0:0:0:0:
320,192,64392,1,2,0:0:0:0:
192,192,64392,128,0,65688:0:0:0:0:
64,192,65133,128,0,65503:0:0:0:0:
320,192,65688,128,2,66059:0:0:0:0:
448,192,65688,128,0,66059:0:0:0:0:
64,192,65688,1,4,0:0:0:0:
64,192,66059,128,0,66244:0:0:0:0:
192,192,66059,128,0,66244:0:0:0:0:
320,192,66244,1,2,0:0:0:0:
448,192,66244,1,0,0:0:0:0:
64,192,66429,1,0,0:0:0:0:
192,192,66429,1,8,0:0:0:0:
448,192,66429,1,0,0:0:0:0:
64,192,66614,1,0,0:0:0:0:
320,192,66614,1,2,0:0:0:0:
448,192,66614,1,0,0:0:0:0:
320,192,66799,1,0,0:0:0:0:
192,192,66799,1,8,0:0:0:0:
64,192,66799,1,0,0:0:0:0:
192,192,66984,1,0,0:0:0:0:
320,192,66984,1,0,0:0:0:0:
448,192,66984,1,2,0:0:0:0:
64,192,67170,1,0,0:0:0:0:
192,192,67170,1,8,0:0:0:0:
448,192,67170,1,0,0:0:0:0:
320,192,67355,1,2,0:0:0:0:
448,192,67355,1,4,0:0:0:0:
64,192,67355,128,0,69392:0:0:0:0:
192,192,67540,1,0,0:0:0:0:
192,192,67725,1,8,0:0:0:0:
448,192,67725,1,0,0:0:0:0:
320,192,67910,1,0,0:0:0:0:
448,192,68096,1,0,0:0:0:0:
320,192,68096,1,2,0:0:0:0:
192,192,68281,1,0,0:0:0:0:
192,192,68466,1,0,0:0:0:0:
320,192,68466,1,8,0:0:0:0:
448,192,68651,1,0,0:0:0:0:
448,192,68836,1,0,0:0:0:0:
320,192,68836,1,2,0:0:0:0:
192,192,69021,1,0,0:0:0:0:
320,192,69207,1,8,0:0:0:0:
448,192,69207,1,0,0:0:0:0:
192,192,69392,1,0,0:0:0:0:
448,192,69577,1,0,0:0:0:0:
64,192,69577,1,2,0:0:0:0:
320,192,69762,1,0,0:0:0:0:
64,192,69947,1,0,0:0:0:0:
192,192,69947,1,8,0:0:0:0:
448,192,69947,1,0,0:0:0:0:
192,192,70133,1,0,0:0:0:0:
448,192,70318,128,0,72355:0:0:0:0:
64,192,70318,1,2,0:0:0:0:
192,192,70503,1,0,0:0:0:0:
64,192,70688,1,0,0:0:0:0:
320,192,70688,1,8,0:0:0:0:
192,192,70873,1,0,0:0:0:0:
64,192,71059,1,0,0:0:0:0:
192,192,71059,1,2,0:0:0:0:
320,192,71244,1,0,0:0:0:0:
320,192,71429,1,8,0:0:0:0:
64,192,71429,1,0,0:0:0:0:
192,192,71614,1,0,0:0:0:0:
192,192,71799,1,0,0:0:0:0:
320,192,71799,1,2,0:0:0:0:
64,192,71984,1,0,0:0:0:0:
64,192,72170,1,8,0:0:0:0:
320,192,72170,1,0,0:0:0:0:
192,192,72355,1,0,0:0:0:0:
448,192,72540,1,0,0:0:0:0:
192,192,72540,1,2,0:0:0:0:
64,192,72725,1,0,0:0:0:0:
192,192,72910,1,4,0:0:0:0:
448,192,72910,1,0,0:0:0:0:
320,192,72910,1,8,0:0:0:0:
448,192,73096,1,0,0:0:0:0:
64,192,73096,1,0,0:0:0:0:
320,192,73188,1,8,0:0:0:0:
64,192,73281,1,4,0:0:0:0:
448,192,73281,1,0,0:0:0:0:
192,192,73281,1,2,0:0:0:0:
192,192,73466,1,0,0:0:0:0:
64,192,73651,1,0,0:0:0:0:
320,192,73651,1,8,0:0:0:0:
448,192,73651,1,0,0:0:0:0:
192,192,73836,128,0,74021:0:0:0:0:
64,192,73836,128,0,74021:0:0:0:0:
320,192,74021,1,2,0:0:0:0:
448,192,74021,1,0,0:0:0:0:
64,192,74207,128,0,74392:0:0:0:0:
192,192,74207,128,0,74392:0:0:0:0:
320,192,74392,1,0,0:0:0:0:
448,192,74392,1,8,0:0:0:0:
320,192,74577,128,0,74762:0:0:0:0:
192,192,74577,128,0,74762:0:0:0:0:
64,192,74762,1,2,0:0:0:0:
448,192,74762,1,0,0:0:0:0:
320,192,74947,128,0,75133:0:0:0:0:
192,192,74947,128,0,75133:0:0:0:0:
448,192,75133,1,0,0:0:0:0:
64,192,75133,1,8,0:0:0:0:
320,192,75318,128,0,75503:0:0:0:0:
448,192,75318,128,0,75503:0:0:0:0:
192,192,75503,1,2,0:0:0:0:
64,192,75503,1,0,0:0:0:0:
320,192,75688,128,0,75873:0:0:0:0:
448,192,75688,128,0,75873:0:0:0:0:
64,192,75873,128,4,76244:0:0:0:0:
192,192,75873,128,8,76244:0:0:0:0:
320,192,76244,1,8,0:0:0:0:
448,192,76244,1,0,0:0:0:0:
64,192,76429,1,0,0:0:0:0:
192,192,76429,1,8,0:0:0:0:
448,192,76429,1,0,0:0:0:0:
320,192,76614,1,2,0:0:0:0:
192,192,76614,1,0,0:0:0:0:
64,192,76799,1,0,0:0:0:0:
320,192,76799,1,8,0:0:0:0:
448,192,76799,1,0,0:0:0:0:
192,192,76984,1,2,0:0:0:0:
64,192,76984,1,0,0:0:0:0:
192,192,77170,1,0,0:0:0:0:
320,192,77170,1,8,0:0:0:0:
448,192,77170,1,0,0:0:0:0:
320,192,77355,1,0,0:0:0:0:
64,192,77355,1,2,0:0:0:0:
64,192,77540,1,0,0:0:0:0:
192,192,77540,1,8,0:0:0:0:
448,192,77540,1,0,0:0:0:0:
320,192,77725,1,2,0:0:0:0:
448,192,77725,1,0,0:0:0:0:
320,192,77910,1,0,0:0:0:0:
192,192,77910,1,8,0:0:0:0:
64,192,77910,1,0,0:0:0:0:
64,192,78096,1,0,0:0:0:0:
448,192,78096,1,0,0:0:0:0:
192,192,78096,1,8,0:0:0:0:
320,192,78281,1,0,0:0:0:0:
64,192,78373,1,8,0:0:0:0:
448,192,78373,1,0,0:0:0:0:
320,192,78466,1,0,0:0:0:0:
192,192,78466,1,2,0:0:0:0:
320,192,78651,1,8,0:0:0:0:
448,192,78651,1,0,0:0:0:0:
192,192,78744,1,8,0:0:0:0:
64,192,78744,1,0,0:0:0:0:
320,192,78836,1,8,0:0:0:0:
448,192,78836,1,0,0:0:0:0:
192,192,78929,1,8,0:0:0:0:
64,192,78929,1,0,0:0:0:0:
320,192,79021,1,8,0:0:0:0:
448,192,79021,1,0,0:0:0:0:
192,192,79114,1,8,0:0:0:0:
448,192,79207,128,0,81244:0:0:0:0:
64,192,79207,1,2,0:0:0:0:
320,192,79207,1,4,0:0:0:0:
192,192,79392,1,2,0:0:0:0:
64,192,79392,1,0,0:0:0:0:
192,192,79577,1,0,0:0:0:0:
320,192,79577,1,8,0:0:0:0:
64,192,79762,1,0,0:0:0:0:
192,192,79855,1,8,0:0:0:0:
64,192,79947,1,0,0:0:0:0:
320,192,79947,1,2,0:0:0:0:
192,192,80133,1,2,0:0:0:0:
320,192,80133,1,0,0:0:0:0:
64,192,80318,1,8,0:0:0:0:
192,192,80318,1,0,0:0:0:0:
320,192,80503,1,0,0:0:0:0:
320,192,80688,1,0,0:0:0:0:
64,192,80688,1,2,0:0:0:0:
64,192,80873,1,0,0:0:0:0:
192,192,80873,1,2,0:0:0:0:
192,192,81059,1,0,0:0:0:0:
320,192,81059,1,8,0:0:0:0:
64,192,81244,1,0,0:0:0:0:
192,192,81336,1,0,0:0:0:0:
320,192,81336,1,8,0:0:0:0:
448,192,81429,1,0,0:0:0:0:
64,192,81429,1,2,0:0:0:0:
192,192,81614,1,2,0:0:0:0:
320,192,81614,1,0,0:0:0:0:
448,192,81799,1,0,0:0:0:0:
64,192,81799,1,0,0:0:0:0:
320,192,81799,1,8,0:0:0:0:
64,192,81984,1,0,0:0:0:0:
320,192,82170,128,0,84207:0:0:0:0:
448,192,82170,1,2,0:0:0:0:
192,192,82170,1,0,0:0:0:0:
64,192,82355,1,2,0:0:0:0:
192,192,82355,1,0,0:0:0:0:
64,192,82540,1,8,0:0:0:0:
448,192,82540,1,4,0:0:0:0:
192,192,82725,1,0,0:0:0:0:
448,192,82818,1,8,0:0:0:0:
192,192,82910,1,2,0:0:0:0:
64,192,82910,1,0,0:0:0:0:
64,192,83096,1,2,0:0:0:0:
448,192,83096,1,0,0:0:0:0:
192,192,83281,1,8,0:0:0:0:
448,192,83281,1,0,0:0:0:0:
64,192,83466,1,0,0:0:0:0:
64,192,83651,1,0,0:0:0:0:
192,192,83651,1,2,0:0:0:0:
192,192,83836,1,2,0:0:0:0:
448,192,83836,1,0,0:0:0:0:
64,192,84021,1,0,0:0:0:0:
448,192,84021,1,8,0:0:0:0:
64,192,84207,1,0,0:0:0:0:
192,192,84299,1,8,0:0:0:0:
64,192,84392,1,0,0:0:0:0:
448,192,84392,1,2,0:0:0:0:
320,192,84392,1,4,0:0:0:0:
192,192,84577,1,0,0:0:0:0:
448,192,84577,1,0,0:0:0:0:
320,192,84670,1,8,0:0:0:0:
192,192,84762,1,0,0:0:0:0:
64,192,84762,1,8,0:0:0:0:
448,192,84762,1,0,0:0:0:0:
64,192,84947,1,0,0:0:0:0:
448,192,84947,1,0,0:0:0:0:
192,192,85040,1,8,0:0:0:0:
64,192,85133,1,2,0:0:0:0:
448,192,85133,1,4,0:0:0:0:
320,192,85133,128,0,85688:0:0:0:0:
192,192,85318,1,0,0:0:0:0:
64,192,85503,1,8,0:0:0:0:
448,192,85503,1,0,0:0:0:0:
192,192,85688,128,0,86244:0:0:0:0:
320,192,85873,1,2,0:0:0:0:
448,192,85873,1,0,0:0:0:0:
64,192,86059,1,0,0:0:0:0:
448,192,86244,128,0,86614:0:0:0:0:
320,192,86244,1,8,0:0:0:0:
64,192,86244,1,0,0:0:0:0:
192,192,86429,1,0,0:0:0:0:
64,192,86614,128,0,87170:0:0:0:0:
320,192,86614,1,2,0:0:0:0:
448,192,86799,1,0,0:0:0:0:
320,192,86984,1,0,0:0:0:0:
192,192,86984,1,8,0:0:0:0:
448,192,87170,128,0,87725:0:0:0:0:
192,192,87355,1,2,0:0:0:0:
64,192,87355,1,0,0:0:0:0:
320,192,87540,1,0,0:0:0:0:
320,192,87725,1,0,0:0:0:0:
64,192,87725,1,8,0:0:0:0:
192,192,87725,128,0,87910:0:0:0:0:
448,192,87910,128,0,88096:0:0:0:0:
64,192,88096,1,0,0:0:0:0:
320,192,88096,1,2,0:0:0:0:
192,192,88281,1,0,0:0:0:0:
64,192,88373,1,8,0:0:0:0:
448,192,88373,1,0,0:0:0:0:
320,192,88466,1,0,0:0:0:0:
192,192,88466,1,8,0:0:0:0:
320,192,88651,1,2,0:0:0:0:
448,192,88651,1,0,0:0:0:0:
192,192,88836,1,2,0:0:0:0:
64,192,88836,1,0,0:0:0:0:
320,192,88929,1,8,0:0:0:0:
448,192,89021,1,2,0:0:0:0:
64,192,89021,1,0,0:0:0:0:
192,192,89207,1,0,0:0:0:0:
320,192,89207,1,2,0:0:0:0:
64,192,89392,1,8,0:0:0:0:
192,192,89392,1,0,0:0:0:0:
448,192,89392,1,4,0:0:0:0:
320,192,89577,1,2,0:0:0:0:
448,192,89577,1,0,0:0:0:0:
192,192,89762,1,8,0:0:0:0:
320,192,89762,1,0,0:0:0:0:
64,192,89762,1,0,0:0:0:0:
64,192,89947,1,0,0:0:0:0:
448,192,89947,1,0,0:0:0:0:
192,192,89947,1,8,0:0:0:0:
320,192,90133,1,0,0:0:0:0:
64,192,90225,1,8,0:0:0:0:
448,192,90225,1,0,0:0:0:0:
192,192,90318,1,8,0:0:0:0:
320,192,90318,1,0,0:0:0:0:
64,192,90503,1,0,0:0:0:0:
192,192,90503,1,2,0:0:0:0:
64,192,90688,1,2,0:0:0:0:
448,192,90688,1,0,0:0:0:0:
448,192,90873,1,0,0:0:0:0:
320,192,90873,1,2,0:0:0:0:
192,192,91059,1,4,0:0:0:0:
320,192,91059,1,0,0:0:0:0:
64,192,91059,1,2,0:0:0:0:
448,192,91244,1,0,0:0:0:0:
192,192,91429,1,0,0:0:0:0:
320,192,91614,1,0,0:0:0:0:
64,192,91614,1,2,0:0:0:0:
192,192,91799,1,0,0:0:0:0:
320,192,91799,1,0,0:0:0:0:
448,192,91799,1,4,0:0:0:0:
64,192,91984,1,0,0:0:0:0:
320,192,92170,1,0,0:0:0:0:
192,192,92355,1,0,0:0:0:0:
448,192,92540,1,0,0:0:0:0:
320,192,92540,1,2,0:0:0:0:
64,192,92725,1,0,0:0:0:0:
320,192,92725,1,2,0:0:0:0:
192,192,92910,1,0,0:0:0:0:
64,192,93096,1,2,0:0:0:0:
448,192,93096,1,0,0:0:0:0:
320,192,93188,1,0,0:0:0:0:
448,192,93281,1,0,0:0:0:0:
64,192,93281,1,8,0:0:0:0:
192,192,93281,128,0,93466:0:0:0:0:
320,192,93466,128,0,93651:0:0:0:0:
64,192,93651,128,0,93836:0:0:0:0:
448,192,93836,128,0,94021:0:0:0:0:
320,192,94021,1,8,0:0:0:0:
64,192,94021,128,0,94207:0:0:0:0:
192,192,94021,128,4,94207:0:0:0:0:
448,192,94207,1,0,0:0:0:0:
192,192,94392,128,2,94577:0:0:0:0:
320,192,94392,128,0,94577:0:0:0:0:
64,192,94577,1,0,0:0:0:0:
320,192,94762,128,0,94947:0:0:0:0:
448,192,94762,128,0,94947:0:0:0:0:
192,192,94947,1,0,0:0:0:0:
64,192,94947,1,8,0:0:0:0:
192,192,95133,1,8,0:0:0:0:
448,192,95133,1,0,0:0:0:0:
320,192,95133,1,0,0:0:0:0:
448,192,95318,1,4,0:0:0:0:
320,192,95318,1,8,0:0:0:0:
64,192,95318,1,0,0:0:0:0:
192,192,95503,1,2,0:0:0:0:
64,192,95503,1,0,0:0:0:0:
320,192,95596,1,2,0:0:0:0:
64,192,95688,1,0,0:0:0:0:
448,192,95688,1,2,0:0:0:0:
320,192,95873,1,2,0:0:0:0:
448,192,95873,1,0,0:0:0:0:
64,192,96059,1,0,0:0:0:0:
192,192,96151,1,8,0:0:0:0:
448,192,96151,1,0,0:0:0:0:
64,192,96244,1,0,0:0:0:0:
320,192,96244,1,8,0:0:0:0:
448,192,96429,1,0,0:0:0:0:
64,192,96521,1,0,0:0:0:0:
192,192,96521,1,8,0:0:0:0:
320,192,96614,1,8,0:0:0:0:
448,192,96614,1,0,0:0:0:0:
64,192,96707,1,0,0:0:0:0:
192,192,96799,1,0,0:0:0:0:
64,192,96984,1,0,0:0:0:0:
320,192,96984,1,2,0:0:0:0:
448,192,96984,1,0,0:0:0:0:
64,192,97170,128,0,97355:0:0:0:0:
192,192,97170,128,2,97355:0:0:0:0:
448,192,97170,128,0,97355:0:0:0:0:
64,192,97540,128,0,97725:0:0:0:0:
320,192,97540,128,2,97725:0:0:0:0:
448,192,97540,128,0,97725:0:0:0:0:
64,192,97910,128,0,98096:0:0:0:0:
192,192,97910,128,2,98096:0:0:0:0:
320,192,97910,128,0,98096:0:0:0:0:
192,192,98281,128,0,98466:0:0:0:0:
448,192,98281,128,8,98466:0:0:0:0:
320,192,98281,128,0,98466:0:0:0:0:
448,192,98651,128,0,98836:0:0:0:0:
320,192,98651,128,0,98836:0:0:0:0:
64,192,98651,128,8,98836:0:0:0:0:
192,192,98836,1,2,0:0:0:0:
448,192,99021,1,0,0:0:0:0:
320,192,99021,1,2,0:0:0:0:
448,192,99207,1,0,0:0:0:0:
192,192,99207,1,8,0:0:0:0:
64,192,99207,1,0,0:0:0:0:
320,192,99392,1,0,0:0:0:0:
192,192,99392,1,8,0:0:0:0:
64,192,99392,1,0,0:0:0:0:
64,192,99577,1,0,0:0:0:0:
320,192,99577,1,8,0:0:0:0:
448,192,99577,1,0,0:0:0:0:
448,192,99762,1,0,0:0:0:0:
320,192,99762,1,8,0:0:0:0:
192,192,99762,1,0,0:0:0:0:
192,192,99947,128,0,101429:0:0:0:0:
320,192,99947,128,0,101429:0:0:0:0:
