osu file format v14

[General]
AudioFilename: audio.mp3
AudioLeadIn: 0
PreviewTime: 66199
Countdown: 0
SampleSet: Soft
StackLeniency: 0.7
Mode: 0
LetterboxInBreaks: 0
WidescreenStoryboard: 1

[Editor]
DistanceSpacing: 1.9
BeatDivisor: 4
GridSize: 32
TimelineZoom: 1.5

[Metadata]
Title:Senpai. [MOVIE Ver.]
TitleUnicode:センパイ。 [MOVIE Ver.]
Artist:HoneyWorks meets TrySail
ArtistUnicode:HoneyWorks meets TrySail
Creator:0109-
Version:Notice me!
Source:好きになるその瞬間を。~告白実行委員会~
Tags:suki ni naru sono shunkan wo kokuhaku jikkou iinkai natsukawa shiina asakura momo amamiya sora hokichi gaia astarte
BeatmapID:1316758
BeatmapSetID:624763

[Difficulty]
HPDrainRate:7
CircleSize:4
OverallDifficulty:8.5
ApproachRate:8.7
SliderMultiplier:1.6
SliderTickRate:1

[Events]
//Background and Video events
0,0,"bg.png",0,0
//Break Periods
//Storyboard Layer 0 (Background)
//Storyboard Layer 1 (Fail)
//Storyboard Layer 2 (Pass)
//Storyboard Layer 3 (Foreground)
//Storyboard Sound Samples

[TimingPoints]
830,370.37037037037,4,2,0,40,1,0
830,-133.333333333333,4,2,0,40,0,0
9718,-117.647058823529,4,2,0,50,0,0
11015,-100,4,2,1,60,0,0
11385,-100,4,2,1,40,0,0
11570,-100,4,2,1,50,0,0
11941,-100,4,2,1,55,0,0
12311,-100,4,2,1,60,0,0
13052,-133.333333333333,4,2,0,60,0,0
13422,370.37037037037,4,2,1,70,1,0
25273,-117.647058823529,4,2,1,50,0,0
31196,-117.647058823529,4,2,1,30,0,0
31199,-117.647058823529,4,2,1,30,0,0
31292,-117.647058823529,4,2,1,50,0,0
35459,-100,4,2,1,50,0,0
37125,-100,4,2,1,60,0,0
48974,-100,4,2,1,50,0,0
48977,-117.647058823529,4,2,1,50,0,0
54900,-117.647058823529,4,2,1,60,0,0
54903,-100,4,2,1,60,0,0
57496,-100,4,2,1,50,0,0
57866,-100,4,2,1,60,0,0
60829,-133.333333333333,4,2,1,40,0,0
63051,-133.333333333333,4,2,1,30,0,0
63421,-133.333333333333,4,2,1,40,0,0
63792,-133.333333333333,4,2,1,50,0,0
65088,-100,4,2,1,60,0,0
66755,-100,4,2,1,70,0,1
90459,-117.647058823529,4,2,1,60,0,0
93421,-117.647058823529,4,2,1,70,0,0
94533,-100,4,2,1,70,0,0
98792,-117.647058823529,4,2,1,70,0,0
99440,-117.647058823529,4,2,1,50,0,0
100829,-117.647058823529,4,2,1,30,0,0

[Colours]
Combo1 : 0,225,0
Combo2 : 0,234,234
Combo3 : 9,175,255
Combo4 : 255,140,85

[HitObjects]
80,336,830,6,0,P|88:296|84:268,1,60.0000022888184,2|0,0:0|0:0,0:0:0:0:
40,200,1200,2,0,P|36:168|40:136,1,60.0000022888184,2|2,0:0|0:0,0:0:0:0:
88,52,1570,2,0,P|148:68|212:52,1,120.000004577637,2|2,0:0|0:0,0:0:0:0:
320,12,2126,6,0,L|324:144,1,120.000004577637,2|2,0:0|0:0,0:0:0:0:
387,203,2681,2,0,P|411:171|419:143,1,60.0000022888184,2|2,0:0|0:0,0:0:0:0:
466,69,3052,2,0,P|486:97|498:129,1,60.0000022888184,2|0,0:0|0:0,0:0:0:0:
490,204,3422,2,0,P|486:236|486:272,1,60.0000022888184,0|0,0:0|0:0,0:0:0:0:
494,369,3792,5,2,0:0:0:0:
418,319,3978,2,0,P|361:307|293:327,1,120.000004577637,2|2,0:0|0:0,0:0:0:0:
229,375,4533,2,0,P|215:324|238:256,1,120.000004577637,2|2,0:0|0:0,0:0:0:0:
388,160,5089,6,0,L|264:164,1,120.000004577637,2|2,0:0|0:0,0:0:0:0:
316,80,5644,2,0,P|336:56|352:28,1,60.0000022888184,2|2,0:0|0:0,0:0:0:0:
220,80,6015,2,0,P|204:48|196:20,1,60.0000022888184,2|2,0:0|0:0,0:0:0:0:
140,108,6385,2,0,P|136:144|128:172,1,60.0000022888184,2|0,0:0|0:0,0:0:0:0:
36,232,6755,6,0,P|40:264|52:296,2,60.0000022888184,2|2|2,0:0|0:0|0:0,0:0:0:0:
132,248,7311,2,0,P|176:260|260:244,1,120.000004577637,2|2,0:0|0:0,0:0:0:0:
312,184,7867,1,2,0:0:0:0:
276,340,8052,6,0,L|152:340,1,120.000004577637,2|2,0:0|0:0,0:0:0:0:
60,348,8607,2,0,P|29:343|0:332,1,60.0000022888184,2|2,0:0|0:0,0:0:0:0:
28,240,8978,2,0,P|59:246|88:260,1,60.0000022888184,2|0,0:0|0:0,0:0:0:0:
172,216,9348,2,0,P|200:200|224:176,1,60.0000022888184,2|0,0:0|0:0,0:0:0:0:
104,96,9718,6,0,P|100:136|108:176,1,68.0000012969971,2|0,0:0|0:0,0:0:0:0:
302,160,10089,2,0,P|306:126|302:92,1,68.0000012969971,2|0,0:0|0:0,0:0:0:0:
175,27,10459,1,2,0:0:0:0:
219,180,10644,1,2,0:0:0:0:
324,13,10829,1,2,0:0:0:0:
399,241,11015,6,0,P|329:288|239:270,1,160,6|0,3:2|3:2,0:0:0:0:
151,120,11570,5,10,0:0:0:0:
312,207,11755,1,10,0:0:0:0:
427,52,11941,5,10,0:0:0:0:
219,180,12126,1,10,0:0:0:0:
247,6,12311,5,10,0:0:0:0:
399,241,12496,1,10,0:0:0:0:
399,241,13052,2,0,P|388:279|356:328,1,90.0000034332277,0|0,0:0|0:0,0:0:0:0:
280,287,13422,6,0,L|190:289,1,80,6|2,3:2|0:0,0:0:0:0:
74,311,13792,1,2,3:2:0:0:
188,167,13977,2,0,L|355:177,1,160,2|2,0:0|0:0,0:0:0:0:
215,84,14533,1,8,0:0:0:0:
115,209,14718,1,2,0:0:0:0:
221,68,14903,6,0,L|311:75,1,80,0|2,3:2|0:0,0:0:0:0:
479,33,15273,2,0,L|387:26,1,80,8|2,0:0|0:0,0:0:0:0:
159,5,15644,1,2,3:2:0:0:
300,74,15829,1,2,0:0:0:0:
121,208,16014,1,10,0:0:0:0:
155,27,16199,1,2,0:0:0:0:
33,164,16384,6,0,P|26:210|32:245,1,80,4|2,3:2|0:0,0:0:0:0:
98,332,16755,1,8,0:0:0:0:
256,155,16940,2,0,P|181:153|119:211,1,160,2|2,0:0|0:0,0:0:0:0:
249,361,17496,1,8,0:0:0:0:
213,243,17681,1,2,0:0:0:0:
393,140,17866,6,0,L|390:224,1,80,0|2,3:2|0:0,0:0:0:0:
463,362,18236,1,8,0:0:0:0:
476,138,18421,1,2,0:0:0:0:
314,228,18607,1,0,3:2:0:0:
494,238,18792,1,4,3:2:0:0:
371,70,18977,1,12,0:0:0:0:
245,181,19162,1,8,0:0:0:0:
244,193,19255,1,8,0:0:0:0:
244,204,19347,6,0,P|247:248|267:287,1,80,4|2,3:2|0:0,0:0:0:0:
364,357,19718,1,8,0:0:0:0:
314,124,19903,2,0,P|238:98|164:136,1,160,2|2,0:0|0:0,0:0:0:0:
211,350,20459,1,8,0:0:0:0:
245,181,20644,1,2,0:0:0:0:
102,78,20829,5,0,3:2:0:0:
152,246,21014,1,2,0:0:0:0:
287,38,21199,1,8,0:0:0:0:
446,137,21384,5,2,0:0:0:0:
444,153,21477,1,8,0:0:0:0:
442,169,21570,1,0,3:2:0:0:
440,184,21662,1,8,0:0:0:0:
438,200,21755,1,8,0:3:0:0:
380,332,21940,6,0,P|324:352|256:332,1,120,12|0,0:0|0:0,0:0:0:0:
240,316,22310,1,14,0:0:0:0:
348,148,22496,1,0,3:2:0:0:
316,264,22681,1,0,3:2:0:0:
212,124,22866,5,14,0:0:0:0:
444,64,23051,1,0,3:2:0:0:
292,12,23236,1,0,3:2:0:0:
384,216,23421,5,14,0:0:0:0:
216,44,23607,1,0,3:2:0:0:
172,208,23792,1,0,3:2:0:0:
348,80,23977,5,14,0:0:0:0:
88,24,24162,1,4,3:2:0:0:
88,176,24347,1,0,3:2:0:0:
292,12,24533,5,14,0:0:0:0:
172,208,24718,1,0,3:2:0:0:
196,244,24810,1,8,0:0:0:0:
236,264,24903,1,8,3:2:0:0:
280,260,24996,1,8,0:0:0:0:
320,240,25088,1,8,0:3:0:0:
182,116,25273,5,4,3:2:0:0:
88,176,25459,2,0,P|26:147|4:83,1,136.000002593994,2|2,0:0|0:0,0:0:0:0:
102,14,26014,2,0,L|242:22,1,136.000002593994,2|2,3:2|3:2,0:0:0:0:
340,18,26570,1,2,0:0:0:0:
396,160,26755,6,0,P|401:194|396:236,1,68.0000012969971,2|0,3:2|0:0,0:0:0:0:
316,308,27125,2,0,P|313:274|318:240,1,68.0000012969971,2|0,3:2|0:0,0:0:0:0:
228,120,27496,2,0,P|232:184|228:264,1,136.000002593994,2|2,3:2|3:2,0:0:0:0:
156,328,28051,1,0,0:0:0:0:
104,180,28236,6,0,P|104:216|112:256,1,68.0000012969971,2|0,3:2|0:0,0:0:0:0:
156,328,28607,2,0,P|188:344|232:352,1,68.0000012969971,0|0,3:2|0:0,0:0:0:0:
308,312,28977,1,0,3:2:0:0:
228,255,29162,1,2,0:0:0:0:
386,280,29347,2,0,P|390:320|382:356,1,68.0000012969971,0|2,3:2|0:0,0:0:0:0:
326,184,29718,6,0,P|398:168|462:196,1,136.000002593994,0|0,3:2|3:2,0:0:0:0:
504,276,30273,1,2,0:0:0:0:
469,100,30459,2,0,P|463:66|469:27,1,68.0000012969971,0|2,3:2|0:0,0:0:0:0:
351,3,30829,2,0,P|355:36|349:69,1,68.0000012969971,0|2,3:2|0:0,0:0:0:0:
332,84,31107,1,2,0:0:0:0:
314,94,31199,6,0,P|254:106|178:82,2,136.000002593994,6|2|2,3:2|3:2|3:2,0:0:0:0:
420,40,32125,1,0,0:0:0:0:
488,116,32310,2,0,P|496:160|496:188,1,68.0000012969971,2|0,3:2|0:0,0:0:0:0:
424,316,32681,6,0,P|356:300|284:320,1,136.000002593994,2|0,3:2|3:2,0:0:0:0:
216,380,33236,1,2,0:0:0:0:
172,216,33421,2,0,P|168:256|172:288,1,68.0000012969971,2|0,3:2|0:0,0:0:0:0:
268,220,33792,2,0,P|272:180|264:144,1,68.0000012969971,0|0,3:2|0:0,0:0:0:0:
348,28,34162,6,0,P|344:76|352:168,1,136.000002593994,2|2,3:2|3:2,0:0:0:0:
424,276,34718,2,0,P|432:320|432:352,1,68.0000012969971,2|0,0:0|3:2,0:0:0:0:
268,344,35088,2,0,P|268:300|284:264,1,68.0000012969971,2|0,0:0|3:2,0:0:0:0:
499,189,35459,6,0,P|418:198|346:158,1,160,14|10,0:0|0:0,0:0:0:0:
252,72,36014,1,4,3:2:0:0:
419,68,36199,1,8,0:3:0:0:
235,72,36384,1,4,3:2:0:0:
289,214,36570,1,0,0:0:0:0:
289,214,36662,1,8,0:0:0:0:
289,214,36755,1,8,0:3:0:0:
328,32,36940,5,8,0:3:0:0:
328,32,37033,1,8,0:0:0:0:
328,32,37125,2,0,B|240:64|252:16|168:40,1,160,4|10,3:2|0:0,0:0:0:0:
107,120,37681,1,0,0:0:0:0:
210,116,37866,1,2,3:2:0:0:
48,43,38051,1,0,3:2:0:0:
172,194,38236,2,0,P|216:199|266:186,1,80,10|2,0:0|0:0,0:0:0:0:
388,288,38607,6,0,P|308:264|232:292,2,160,2|10|2,3:2|0:0|3:2,0:0:0:0:
470,365,39533,1,0,3:2:0:0:
506,230,39718,2,0,P|511:188|505:150,1,80,10|0,0:0|0:0,0:0:0:0:
345,147,40088,6,0,L|529:151,1,160,2|8,3:2|0:0,0:0:0:0:
388,64,40644,1,0,0:0:0:0:
288,220,40829,1,2,3:2:0:0:
220,132,41014,1,2,3:2:0:0:
288,240,41199,1,10,0:0:0:0:
428,160,41384,1,2,0:0:0:0:
332,320,41570,6,0,B|260:356|252:300|172:328,1,160,0|8,3:2|0:0,0:0:0:0:
68,380,42125,1,2,0:0:0:0:
98,214,42310,1,2,3:2:0:0:
28,272,42496,1,2,3:2:0:0:
192,172,42681,2,0,P|168:140|128:116,1,80,8|2,0:0|0:0,0:0:0:0:
17,23,43051,6,0,L|185:27,1,160,2|10,3:2|0:0,0:0:0:0:
272,11,43607,1,0,0:0:0:0:
131,129,43792,2,0,P|86:134|44:129,1,80,2|0,3:2|3:2,0:0:0:0:
258,113,44162,2,0,P|297:109|337:114,1,80,10|0,0:0|0:0,0:0:0:0:
298,336,44533,6,0,P|273:263|302:186,1,160,2|8,3:2|0:0,0:0:0:0:
457,266,45088,1,2,0:0:0:0:
457,266,45273,2,0,P|408:273|371:267,1,80,2|0,3:2|3:2,0:0:0:0:
409,67,45644,2,0,P|416:107|406:156,1,80,8|0,0:0|0:0,0:0:0:0:
179,211,46014,6,0,P|172:171|182:122,1,80,2|0,3:2|3:2,0:0:0:0:
258,23,46384,1,8,0:0:0:0:
409,145,46570,2,0,P|449:153|491:146,1,80,2|0,0:0|3:2,0:0:0:0:
330,88,46940,1,2,0:0:0:0:
348,284,47125,1,8,0:0:0:0:
496,116,47310,6,0,L|493:283,1,160,4|2,3:2|3:2,0:0:0:0:
314,377,47866,1,12,0:0:0:0:
367,211,48051,1,2,0:0:0:0:
431,374,48236,1,4,3:2:0:0:
280,288,48421,5,10,0:0:0:0:
252,280,48514,1,8,0:0:0:0:
224,276,48607,1,8,0:0:0:0:
196,280,48699,1,0,0:0:0:0:
168,288,48792,1,8,0:3:0:0:
144,300,48884,1,0,0:0:0:0:
124,316,48977,6,0,P|96:288|80:260,1,68.0000012969971,6|2,3:2|0:0,0:0:0:0:
132,168,49347,2,0,P|136:132|132:96,1,68.0000012969971,2|2,3:2|0:0,0:0:0:0:
232,8,49718,2,0,P|220:56|224:144,1,136.000002593994,2|2,3:2|3:2,0:0:0:0:
332,8,50273,6,0,P|344:56|340:144,1,136.000002593994,2|2,0:0|0:0,0:0:0:0:
284,236,50829,2,0,P|284:276|292:312,1,68.0000012969971,2|2,3:2|0:0,0:0:0:0:
404,228,51199,2,0,P|404:276|392:332,1,102.000001945496,2|2,3:2|0:0,0:0:0:0:
380,356,51570,2,0,L|455:356,1,68.0000012969971,6|0,3:2|0:0,0:0:0:0:
276,340,51940,6,0,L|208:340,1,68.0000012969971,6|2,3:2|0:0,0:0:0:0:
92,268,52310,2,0,L|172:268,1,68.0000012969971,2|2,3:2|0:0,0:0:0:0:
332,200,52681,2,0,P|264:184|188:200,1,136.000002593994,2|2,3:2|3:2,0:0:0:0:
412,264,53236,6,0,P|432:196|408:128,1,136.000002593994,12|8,0:0|0:0,0:0:0:0:
236,84,53792,2,0,P|276:88|312:84,1,68.0000012969971,10|2,0:0|3:2,0:0:0:0:
303,85,54070,1,8,0:0:0:0:
303,85,54162,1,6,3:2:0:0:
148,12,54347,1,2,3:2:0:0:
148,12,54440,1,8,0:0:0:0:
148,12,54533,1,6,3:2:0:0:
172,188,54718,1,2,3:2:0:0:
40,24,54903,6,0,L|36:148,1,120,6|0,3:2|0:0,0:0:0:0:
40,184,55273,1,10,0:0:0:0:
188,100,55459,1,2,0:0:0:0:
196,84,55551,1,8,0:3:0:0:
204,68,55644,1,8,0:3:0:0:
68,20,55829,1,8,0:3:0:0:
172,188,56014,1,10,0:0:0:0:
320,24,56199,6,0,P|348:96|320:184,1,160,2|2,3:2|3:2,0:0:0:0:
190,271,56755,1,10,0:0:0:0:
253,150,56940,1,8,0:3:0:0:
260,135,57033,1,8,0:3:0:0:
267,120,57125,1,8,0:3:0:0:
320,24,57310,1,8,0:3:0:0:
432,216,57496,2,0,P|448:176|452:132,1,80,14|0,0:0|0:0,0:0:0:0:
400,16,57866,5,6,3:2:0:0:
368,156,58051,1,2,3:2:0:0:
248,100,58236,1,10,0:0:0:0:
392,32,58421,1,8,0:3:0:0:
280,188,58607,1,8,0:3:0:0:
384,48,58792,1,8,0:3:0:0:
136,68,58977,1,10,0:0:0:0:
336,276,59162,6,0,P|376:200|352:124,1,160,6|2,3:2|3:2,0:0:0:0:
204,304,59718,2,0,P|236:332|280:352,1,80,12|2,0:0|0:0,0:0:0:0:
269,348,59996,1,8,0:0:0:0:
269,348,60088,1,2,3:2:0:0:
220,188,60273,1,8,0:3:0:0:
92,265,60459,2,0,P|88:304|96:344,1,80,8|8,3:3|0:3,0:0:0:0:
144,148,60829,6,0,P|147:114|143:80,1,60.0000022888184,6|2,3:2|0:0,0:0:0:0:
64,15,61199,2,0,P|61:44|64:74,1,60.0000022888184,0|2,3:2|0:0,0:0:0:0:
144,148,61570,2,0,L|268:148,1,120.000004577637,2|2,3:2|3:2,0:0:0:0:
384,108,62125,2,0,P|332:96|272:56,1,120.000004577637,2|2,0:0|0:0,0:0:0:0:
196,8,62681,2,0,P|168:28|136:40,1,60.0000022888184,2|2,3:2|0:0,0:0:0:0:
36,48,63051,2,0,P|60:72|88:88,1,60.0000022888184,6|2,3:2|0:0,0:0:0:0:
208,96,63421,2,0,P|176:116|144:124,1,60.0000022888184,6|2,3:2|0:0,0:0:0:0:
20,176,63792,5,6,3:2:0:0:
108,204,63977,1,0,0:0:0:0:
40,264,64162,1,0,0:0:0:0:
164,360,64347,2,0,P|188:312|180:244,1,120.000004577637,0|0,0:0|0:0,0:0:0:0:
108,204,64903,1,0,0:0:0:0:
360,216,65088,6,0,P|276:212|216:164,1,160,6|2,3:2|0:0,0:0:0:0:
372,124,65644,1,2,3:2:0:0:
184,92,65829,1,10,0:0:0:0:
400,36,66014,5,10,0:0:0:0:
218,166,66199,1,10,0:0:0:0:
448,96,66384,5,10,0:0:0:0:
140,160,66570,1,10,0:0:0:0:
304,28,66755,5,6,3:2:0:0:
276,252,66940,1,2,0:0:0:0:
164,56,67125,1,8,0:0:0:0:
316,180,67310,1,2,0:0:0:0:
124,296,67496,1,0,3:2:0:0:
168,76,67681,1,2,0:0:0:0:
356,252,67866,1,8,0:0:0:0:
104,149,68051,1,2,0:0:0:0:
264,316,68236,5,2,3:2:0:0:
48,232,68421,1,2,0:0:0:0:
327,158,68607,1,8,0:0:0:0:
251,360,68792,6,0,P|167:364|107:312,1,160,2|2,0:0|0:0,0:0:0:0:
225,174,69347,1,8,0:0:0:0:
200,283,69533,1,2,0:0:0:0:
344,148,69718,5,6,3:2:0:0:
128,124,69903,1,2,0:0:0:0:
352,60,70088,1,8,0:0:0:0:
112,128,70273,1,2,0:0:0:0:
360,152,70459,1,0,3:2:0:0:
168,204,70644,1,2,0:0:0:0:
288,112,70829,1,8,0:0:0:0:
156,216,71014,1,2,0:0:0:0:
380,240,71199,5,2,3:2:0:0:
132,296,71384,1,2,0:0:0:0:
256,32,71570,1,8,0:0:0:0:
448,296,71755,6,0,P|372:324|304:284,1,160,2|2,0:0|0:0,0:0:0:0:
388,96,72310,1,8,0:0:0:0:
380,240,72496,1,2,0:0:0:0:
380,240,72588,1,8,0:0:0:0:
380,240,72681,1,6,3:2:0:0:
204,104,72866,6,0,L|116:104,1,80,2|8,0:0|0:0,0:0:0:0:
300,240,73236,2,0,L|396:240,1,80,2|0,0:0|3:2,0:0:0:0:
204,80,73607,2,0,L|120:80,1,80,2|8,0:0|0:0,0:0:0:0:
384,122,73977,2,0,P|388:82|383:42,1,80,2|0,0:0|3:2,0:0:0:0:
200,236,74347,2,0,P|195:274|200:318,1,80,2|8,0:0|0:0,0:0:0:0:
405,124,74718,2,0,P|409:84|404:44,1,80,2|0,0:0|3:2,0:0:0:0:
300,240,75088,5,2,0:0:0:0:
307,87,75273,1,10,0:0:0:0:
408,288,75459,1,2,0:0:0:0:
124,252,75644,5,14,0:0:0:0:
408,288,75829,1,14,0:0:0:0:
104,240,76199,1,12,0:0:0:0:
408,288,76570,6,0,P|416:244|408:208,1,80,12|2,0:0|3:2,0:0:0:0:
168,176,76940,2,0,L|289:183,1,120,12|0,0:0|0:0,0:0:0:0:
323,186,77310,1,12,0:0:0:0:
468,52,77496,6,0,P|428:40|384:40,1,80,0|2,3:2|0:0,0:0:0:0:
390,39,77773,1,8,0:0:0:0:
390,39,77866,1,0,3:2:0:0:
256,92,78051,1,0,3:2:0:0:
220,96,78144,1,8,0:0:0:0:
188,88,78236,1,8,0:0:0:0:
156,72,78329,1,8,0:0:0:0:
120,68,78421,1,8,0:0:0:0:
84,76,78514,1,8,0:0:0:0:
52,94,78607,5,4,3:2:0:0:
230,11,78792,1,2,3:2:0:0:
120,187,78977,2,0,L|127:357,1,160,14|0,0:0|3:2,0:0:0:0:
267,380,79533,1,2,3:2:0:0:
204,173,79718,1,10,0:0:0:0:
46,250,79903,1,2,0:0:0:0:
261,253,80088,5,2,3:2:0:0:
120,187,80273,1,2,3:2:0:0:
250,93,80459,1,10,0:0:0:0:
386,227,80644,1,2,0:0:0:0:
390,237,80736,1,10,0:0:0:0:
392,248,80829,2,0,P|398:288|388:337,1,80,2|2,3:2|3:2,0:0:0:0:
331,153,81199,2,0,P|376:138|426:141,1,80,8|2,0:0|0:0,0:0:0:0:
509,252,81570,5,4,3:2:0:0:
378,50,81755,1,2,3:2:0:0:
196,206,81940,2,0,L|208:379,1,160,14|0,0:0|3:2,0:0:0:0:
294,260,82496,1,2,3:2:0:0:
95,320,82681,1,10,0:0:0:0:
119,162,82866,1,2,0:0:0:0:
207,365,83051,5,2,3:2:0:0:
265,182,83236,1,2,3:2:0:0:
56,236,83421,1,10,0:0:0:0:
294,260,83607,1,2,0:0:0:0:
311,250,83699,1,10,0:0:0:0:
326,236,83792,6,0,P|344:197|345:149,1,80,6|2,3:2|3:2,0:0:0:0:
344,144,84070,1,8,0:0:0:0:
340,128,84162,1,2,3:2:0:0:
200,270,84347,2,0,L|198:225,1,40,2|8,3:2|0:0,0:0:0:0:
194,33,84533,5,6,3:2:0:0:
346,160,84718,2,0,P|386:165|428:158,1,80,2|8,0:0|0:0,0:0:0:0:
194,130,85088,2,0,P|154:124|115:131,1,80,2|0,0:0|3:2,0:0:0:0:
347,177,85459,2,0,P|387:182|429:175,1,80,2|8,0:0|0:0,0:0:0:0:
192,50,85829,6,0,L|194:134,1,80,2|0,0:0|3:2,0:0:0:0:
331,335,86199,2,0,L|327:249,1,80,2|8,0:0|0:0,0:0:0:0:
164,45,86570,2,0,L|166:129,1,80,2|0,0:0|3:2,0:0:0:0:
208,320,86940,1,2,0:0:0:0:
273,122,87125,1,10,0:0:0:0:
327,255,87310,1,2,0:0:0:0:
91,201,87496,5,14,0:0:0:0:
352,167,87681,2,8,L|393:167,2,40,2|10|0,0:0|0:0|3:2,0:0:0:0:
164,45,88051,2,0,P|158:88|160:127,1,80,8|0,0:3|3:2,0:0:0:0:
165,143,88329,1,8,0:0:0:0:
171,161,88421,1,8,0:3:0:0:
294,330,88607,1,0,3:2:0:0:
262,100,88792,5,12,0:0:0:0:
430,270,88977,1,0,3:2:0:0:
164,145,89162,5,6,3:2:0:0:
466,99,89347,1,8,0:0:0:0:
430,270,89533,5,6,0:0:0:0:
427,285,89625,1,8,0:0:0:0:
425,300,89718,1,8,0:0:0:0:
333,131,89903,1,8,0:3:0:0:
491,206,90088,1,8,0:3:0:0:
356,354,90273,1,8,0:3:0:0:
180,260,90459,6,0,P|244:244|316:268,1,136.000002593994,6|2,3:2|0:0,0:0:0:0:
244,336,91014,1,2,0:0:0:0:
103,305,91199,2,0,P|95:241|135:181,1,136.000002593994,14|2,0:0|0:0,0:0:0:0:
232,160,91755,1,2,0:0:0:0:
84,116,91940,6,0,P|48:112|12:100,1,68.0000012969971,2|2,3:2|3:2,0:0:0:0:
168,56,92310,2,0,P|203:54|244:44,1,68.0000012969971,2|0,0:0|3:2,0:0:0:0:
388,8,92681,2,0,P|407:64|386:136,1,136.000002593994,10|2,0:0|0:0,0:0:0:0:
320,72,93236,1,2,0:0:0:0:
480,196,93421,6,0,P|492:160|492:124,1,68.0000012969971,6|0,3:2|0:0,0:0:0:0:
320,72,93792,2,0,P|301:108|297:143,1,68.0000012969971,2|2,3:2|0:0,0:0:0:0:
348,245,94162,1,10,0:0:0:0:
168,69,94347,1,10,0:0:0:0:
207,294,94533,1,10,0:0:0:0:
217,136,94718,6,0,P|221:208|205:304,1,160,6|8,3:2|0:3,0:0:0:0:
168,69,95273,2,0,P|207:57|258:59,1,80,2|8,3:2|0:3,0:0:0:0:
265,59,95551,1,0,3:2:0:0:
283,66,95644,1,2,3:2:0:0:
372,204,95829,1,0,3:2:0:0:
372,204,95921,1,0,3:2:0:0:
372,204,96014,1,8,3:3:0:0:
392,84,96199,1,0,0:0:0:0:
140,164,96384,5,12,0:0:0:0:
404,72,96570,1,12,0:0:0:0:
120,160,96940,1,12,0:0:0:0:
404,72,97310,1,12,0:0:0:0:
292,352,97681,5,12,0:0:0:0:
304,48,98051,1,12,0:0:0:0:
308,368,98421,1,6,3:2:0:0:
263,121,98792,6,0,P|313:175|241:264,1,204.000003890991,8|6,0:0|0:0,0:0:0:0:
256,192,99440,12,0,100829,0:0:0:0:
