osu file format v14

[General]
AudioFilename: audio.mp3
AudioLeadIn: 0
PreviewTime: 66199
Countdown: 0
SampleSet: Soft
StackLeniency: 0.7
Mode: 0
LetterboxInBreaks: 0
WidescreenStoryboard: 1

[Editor]
DistanceSpacing: 1.1
BeatDivisor: 4
GridSize: 4
TimelineZoom: 1

[Metadata]
Title:Senpai. [MOVIE Ver.]
TitleUnicode:センパイ。 [MOVIE Ver.]
Artist:HoneyWorks meets TrySail
ArtistUnicode:HoneyWorks meets TrySail
Creator:0109-
Version:Easy
Source:好きになるその瞬間を。~告白実行委員会~
Tags:suki ni naru sono shunkan wo kokuhaku jikkou iinkai natsukawa shiina asakura momo amamiya sora hokichi gaia astarte
BeatmapID:1322264
BeatmapSetID:624763

[Difficulty]
HPDrainRate:2
CircleSize:3
OverallDifficulty:2
ApproachRate:3
SliderMultiplier:0.9
SliderTickRate:1

[Events]
//Background and Video events
0,0,"bg.png",0,0
//Break Periods
2,61029,62352
//Storyboard Layer 0 (Background)
//Storyboard Layer 1 (Fail)
//Storyboard Layer 2 (Pass)
//Storyboard Layer 3 (Foreground)
//Storyboard Sound Samples

[TimingPoints]
830,370.37037037037,4,2,0,40,1,0
11015,-100,4,2,1,70,0,0
13052,-100,4,2,0,40,0,0
13422,370.37037037037,4,2,1,70,1,0
66755,-100,4,2,1,70,0,1
90459,-100,4,2,1,60,0,0
94718,-100,4,2,1,70,0,0
100829,-100,4,2,1,5,0,0

[Colours]
Combo1 : 0,225,0
Combo2 : 0,234,234
Combo3 : 9,175,255
Combo4 : 255,140,85

[HitObjects]
100,88,830,6,0,B|184:68|256:100|256:100|328:68|424:88,2,315,2|2|0,0:0|0:0|0:0,0:0:0:0:
160,164,3792,2,0,P|196:240|24:300,2,315,2|2|0,0:0|0:0|0:0,0:0:0:0:
100,240,6755,6,0,P|244:304|384:236,2,315,2|2|0,0:0|0:0|0:0,0:0:0:0:
104,140,9718,2,0,P|152:136|200:144,2,90,2|0|0,0:0|0:0|0:0,0:0:0:0:
220,48,11015,6,0,P|300:84|388:44,2,180,6|0|0,0:0|0:0|0:0,0:0:0:0:
76,12,13052,5,0,0:0:0:0:
22,95,13422,2,0,P|8:160|16:233,2,135,4|0|8,0:0|0:0|0:0,0:0:0:0:
120,98,14903,2,0,P|126:146|120:192,1,90,0|8,0:0|0:0,0:0:0:0:
116,286,15644,2,0,P|161:292|211:286,1,90,0|8,0:0|0:0,0:0:0:0:
299,257,16384,6,0,P|360:274|427:325,2,135,2|0|8,0:0|0:0|0:0,0:0:0:0:
238,178,17866,2,0,P|231:141|238:88,1,90,0|8,0:0|0:0,0:0:0:0:
311,23,18607,2,0,P|361:20|410:27,1,90,0|8,0:0|0:0,0:0:0:0:
481,81,19347,6,0,P|497:146|488:231,2,135,4|0|8,0:0|0:0|0:0,0:0:0:0:
397,134,20829,2,0,P|377:176|346:213,1,90,0|8,0:0|0:0,0:0:0:0:
307,299,21570,2,0,P|266:321|211:333,1,90,0|8,0:0|0:0,0:0:0:0:
124,312,22310,6,0,P|88:244|104:180,1,135,14|14,0:0|0:0,0:0:0:0:
196,76,23421,2,0,L|336:80,1,135,14|14,0:0|0:0,0:0:0:0:
472,32,24533,2,0,P|484:80|480:128,1,90,14|0,0:0|0:0,0:0:0:0:
408,188,25273,6,0,P|404:236|412:284,1,90,6|0,0:0|0:0,0:0:0:0:
452,368,26014,2,0,P|404:376|356:364,1,90,2|0,0:0|0:0,0:0:0:0:
280,316,26755,2,0,P|236:312|180:320,2,90,2|0|0,0:0|0:0|0:0,0:0:0:0:
364,367,27866,1,0,0:0:0:0:
432,292,28236,6,0,P|460:204|424:124,1,180,2|0,0:0|0:0,0:0:0:0:
336,168,29347,1,0,0:0:0:0:
264,100,29718,2,0,P|176:80|88:104,1,180,2|0,0:0|0:0,0:0:0:0:
44,192,30829,1,0,0:0:0:0:
136,228,31199,6,0,P|180:236|236:224,1,90,2|0,0:0|0:0,0:0:0:0:
312,180,31940,2,0,P|324:224|316:276,1,90,2|0,0:0|0:0,0:0:0:0:
244,332,32681,2,0,P|320:360|408:320,1,180,2|0,0:0|0:0,0:0:0:0:
432,224,33792,1,0,0:0:0:0:
396,132,34162,6,0,P|328:116|256:136,1,135,2|2,0:0|0:0,0:0:0:0:
216,216,35088,1,2,0:0:0:0:
168,128,35459,2,0,L|24:140,1,135,6|8,0:0|0:0,0:0:0:0:
68,48,36384,2,0,L|164:40,1,90,0|8,0:0|0:0,0:0:0:0:
256,40,37125,6,0,L|352:44,2,90,6|8|0,0:0|0:0|0:0,0:0:0:0:
204,124,38236,1,8,0:0:0:0:
288,180,38607,2,0,P|340:192|388:188,2,90,0|8|0,0:0|0:0|0:0,0:0:0:0:
204,124,39718,1,8,0:0:0:0:
120,176,40088,6,0,P|88:256|124:348,1,180
204,292,41199,1,8,0:0:0:0:
284,348,41570,2,0,P|368:360|448:312,1,180
372,248,42681,1,8,0:0:0:0:
448,184,43051,6,0,P|456:136|452:92,1,90,0|8,0:0|0:0,0:0:0:0:
356,76,43792,2,0,P|328:36|292:8,1,90,0|8,0:0|0:0,0:0:0:0:
196,12,44533,2,0,P|176:88|200:192,1,180
292,216,45644,1,8,0:0:0:0:
216,280,46014,6,0,P|148:300|76:276,1,135,0|2,0:0|0:0,0:0:0:0:
52,192,46940,1,2,0:0:0:0:
100,104,47310,2,0,P|168:88|240:112,1,135,6|8,0:0|0:0,0:0:0:0:
288,184,48236,2,0,P|340:188|388:180,1,90,0|8,0:0|0:0,0:0:0:0:
464,136,48977,6,0,P|475:185|462:241,1,90,6|0,0:0|0:0,0:0:0:0:
411,304,49718,2,0,L|271:325,2,135,2|2|2,0:0|0:0|0:0,0:0:0:0:
355,221,51199,2,0,L|261:234,1,90,2|0,0:0|0:0,0:0:0:0:
167,243,51940,6,0,P|141:281|123:331,1,90,2|0,0:0|0:0,0:0:0:0:
36,365,52681,2,0,P|36:292|25:213,2,135,2|2|2,0:0|0:0|0:0,0:0:0:0:
125,321,54162,2,0,P|122:263|116:224,1,90,2|0,0:0|0:0,0:0:0:0:
103,133,54903,6,0,P|151:142|196:170,1,90,6|0,0:0|0:0,0:0:0:0:
266,220,55644,2,0,L|278:361,2,135,2|2|2,0:0|0:0|0:0,0:0:0:0:
311,132,57125,2,0,P|316:82|308:33,1,90,2|0,0:0|0:0,0:0:0:0:
213,22,57866,6,0,P|166:19|118:26,2,90,2|0|0,0:0|0:0|0:0,0:0:0:0:
311,132,59162,2,0,P|375:152|451:128,1,135,6|8,0:0|0:0,0:0:0:0:
422,37,60088,2,0,P|378:29|326:33,1,90,0|8,0:0|0:0,0:0:0:0:
237,59,60829,1,2,0:0:0:0:
256,192,63792,12,0,65088,0:0:0:0:
72,80,66755,6,0,P|64:128|72:172,1,90,6|8,0:0|0:0,0:0:0:0:
152,224,67496,2,0,P|208:232|252:224,1,90,0|8,0:0|0:0,0:0:0:0:
304,152,68236,2,0,P|372:140|444:156,2,135,0|0|8,0:0|0:0|0:0,0:0:0:0:
240,76,69718,6,0,P|288:56|332:48,1,90,0|8,0:0|0:0,0:0:0:0:
424,32,70459,2,0,P|472:40|512:56,1,90,0|8,0:0|0:0,0:0:0:0:
508,156,71199,2,0,L|504:300,2,135,0|0|8,0:0|0:0|0:0,0:0:0:0:
408,144,72681,6,0,L|404:284,1,135,6|2,0:0|0:0,0:0:0:0:
328,340,73607,1,2,0:0:0:0:
228,340,73977,2,0,P|216:292|220:248,2,90,2|2|2,0:0|0:0|0:0,0:0:0:0:
300,208,75273,1,2,0:0:0:0:
220,148,75644,6,0,P|148:152|92:188,1,135,6|2,0:0|0:0,0:0:0:0:
52,276,76570,1,2,0:0:0:0:
12,184,76940,2,0,L|8:80,2,90,2|2|2,0:0|0:0|0:0,0:0:0:0:
52,276,78051,1,2,0:0:0:0:
116,142,78607,6,0,P|164:130|212:130,1,90,6|8,0:0|0:0,0:0:0:0:
285,72,79347,2,0,P|329:84|377:88,1,90,0|8,0:0|0:0,0:0:0:0:
443,158,80088,2,0,P|423:206|423:294,2,135,0|0|8,0:0|0:0|0:0,0:0:0:0:
344,166,81570,6,0,P|296:182|252:182,1,90,0|8,0:0|0:0,0:0:0:0:
166,142,82310,2,0,P|118:142|66:154,1,90,0|8,0:0|0:0,0:0:0:0:
39,242,83051,2,0,L|31:378,2,135,0|0|8,0:0|0:0|0:0,0:0:0:0:
127,287,84533,6,0,P|187:311|263:303,1,135,6|2,0:0|0:0,0:0:0:0:
350,274,85459,1,2,0:0:0:0:
441,311,85829,2,0,P|445:263|433:215,2,90,2|2|2,0:0|0:0|0:0,0:0:0:0:
309,380,87125,1,2,0:0:0:0:
248,302,87496,6,0,P|244:234|276:174,1,135,6|2,0:0|0:0,0:0:0:0:
362,131,88421,1,2,0:0:0:0:
291,61,88792,2,0,L|191:57,2,90,2|2|2,0:0|0:0|0:0,0:0:0:0:
385,28,89903,1,2,0:0:0:0:
497,125,90459,6,0,L|509:309,2,180,6|8|0,0:0|0:0|0:0,0:0:0:0:
313,49,92681,1,8,0:0:0:0:
128,116,93421,6,0,L|116:300,1,180,0|8,0:0|0:0,0:0:0:0:
256,344,94718,2,0,P|320:320|392:328,1,135,6|8,0:0|0:0,0:0:0:0:
484,336,95644,2,0,P|496:288|496:244,1,90,0|8,0:0|0:0,0:0:0:0:
416,192,96384,6,0,L|276:204,1,135,14|8,0:0|0:0,0:0:0:0:
184,176,97310,1,8,0:0:0:0:
236,92,97681,2,0,P|284:80|328:80,2,90,8|8|8,0:0|0:0|0:0,0:0:0:0:
184,176,98792,1,8,0:0:0:0:
256,192,99347,12,0,100829,0:0:0:0:
