osu file format v14

[General]
AudioFilename: audio.mp3
AudioLeadIn: 0
PreviewTime: 66199
Countdown: 0
SampleSet: Soft
StackLeniency: 0.7
Mode: 0
LetterboxInBreaks: 0
WidescreenStoryboard: 1

[Editor]
Bookmarks: 48967
DistanceSpacing: 1.7
BeatDivisor: 4
GridSize: 32
TimelineZoom: 1

[Metadata]
Title:Senpai. [MOVIE Ver.]
TitleUnicode:センパイ。 [MOVIE Ver.]
Artist:HoneyWorks meets TrySail
ArtistUnicode:HoneyWorks meets TrySail
Creator:0109-
Version:Collab Hard
Source:好きになるその瞬間を。~告白実行委員会~
Tags:suki ni naru sono shunkan wo kokuhaku jikkou iinkai natsukawa shiina asakura momo amamiya sora hokichi gaia astarte
BeatmapID:1321510
BeatmapSetID:624763

[Difficulty]
HPDrainRate:5
CircleSize:4
OverallDifficulty:5
ApproachRate:7.3
SliderMultiplier:1.4
SliderTickRate:1

[Events]
//Background and Video events
0,0,"bg.png",0,0
//Break Periods
//Storyboard Layer 0 (Background)
//Storyboard Layer 1 (Fail)
//Storyboard Layer 2 (Pass)
//Storyboard Layer 3 (Foreground)
//Storyboard Sound Samples

[TimingPoints]
830,370.37037037037,4,2,0,40,1,0
830,-142.857142857143,4,2,0,40,0,0
9718,-142.857142857143,4,2,0,50,0,0
11015,-142.857142857143,4,2,1,60,0,0
11385,-142.857142857143,4,2,1,40,0,0
11570,-142.857142857143,4,2,1,50,0,0
11941,-142.857142857143,4,2,1,55,0,0
12311,-142.857142857143,4,2,1,60,0,0
13052,-100,4,2,0,60,0,0
13329,-100,4,2,0,60,0,0
13422,370.37037037037,4,2,1,70,1,0
13422,-100,4,2,1,70,0,0
25270,-100,4,2,1,50,0,0
25273,-133.333333333333,4,2,1,50,0,0
31196,-133.333333333333,4,2,1,30,0,0
31288,-133.333333333333,4,2,1,50,0,0
35459,-133.333333333333,4,2,1,50,0,0
35644,-100,4,2,1,50,0,0
37122,-100,4,2,1,60,0,0
48977,-100,4,2,1,50,0,0
54900,-100,4,2,1,60,0,0
57492,-100,4,2,1,50,0,0
57863,-100,4,2,1,60,0,0
60829,-100,4,2,1,40,0,0
63048,-100,4,2,1,30,0,0
63418,-100,4,2,1,40,0,0
63792,-100,4,2,1,50,0,0
65088,-100,4,2,1,60,0,0
66755,-90.9090909090909,4,2,1,70,0,1
90455,-90.9090909090909,4,2,1,60,0,1
90459,-125,4,2,1,60,0,0
93418,-125,4,2,1,70,0,0
93421,-111.111111111111,4,2,1,70,0,0
94533,-111.111111111111,4,2,1,70,0,0
94718,-100,4,2,1,70,0,0
98792,-100,4,2,1,70,0,0
99437,-100,4,2,1,50,0,0
100825,-100,4,2,1,30,0,0
100829,-100,4,2,1,30,0,0

[Colours]
Combo1 : 0,225,0
Combo2 : 0,234,234
Combo3 : 9,175,255
Combo4 : 255,140,85

[HitObjects]
255,195,830,6,0,P|215:203|190:197,2,48.9999985046387,2|0|2,0:0|0:0|0:0,0:0:0:0:
304,134,1385,1,2,0:0:0:0:
368,178,1570,2,0,P|389:231|382:278,1,97.9999970092774,2|2,0:0|0:0,0:0:0:0:
324,321,2126,6,0,L|206:322,1,97.9999970092774,2|2,0:0|0:0,0:0:0:0:
160,278,2681,2,0,P|145:254|143:227,1,48.9999985046387,2|2,0:0|0:0,0:0:0:0:
120,158,3052,2,0,L|14:152,1,97.9999970092774,2|0,0:0|0:0,0:0:0:0:
194,129,3792,6,0,P|200:161|195:183,1,48.9999985046387,2|2,0:0|0:0,0:0:0:0:
171,251,4163,2,0,P|168:275|174:298,1,48.9999985046387,0|2,0:0|0:0,0:0:0:0:
246,330,4533,2,0,P|308:312|358:320,1,97.9999970092774,2|2,0:0|0:0,0:0:0:0:
417,329,5089,6,0,B|426:291|426:291|418:216,1,97.9999970092774,2|2,0:0|0:0,0:0:0:0:
380,164,5644,2,0,P|348:159|320:165,1,48.9999985046387,2|2,0:0|0:0,0:0:0:0:
257,188,6015,1,2,0:0:0:0:
190,147,6200,2,0,P|161:134|95:146,1,97.9999970092774,2|0,0:0|0:0,0:0:0:0:
142,205,6755,6,0,L|141:267,1,48.9999985046387,2|2,0:0|0:0,0:0:0:0:
215,280,7126,2,0,L|215:329,1,48.9999985046387,2|2,0:0|0:0,0:0:0:0:
290,349,7496,2,0,B|320:351|320:351|358:345,2,48.9999985046387,0|2|2,0:0|0:0|0:0,0:0:0:0:
215,280,8052,6,0,P|153:273|115:290,1,97.9999970092774,2|2,0:0|0:0,0:0:0:0:
45,265,8607,2,0,P|42:240|32:218,1,48.9999985046387,2|2,0:0|0:0,0:0:0:0:
66,147,8978,2,0,L|170:143,1,97.9999970092774,2|2,0:0|0:0,0:0:0:0:
305,210,9718,6,0,P|318:160|305:101,2,97.9999970092774,2|2|2,0:0|0:0|0:0,0:0:0:0:
253,269,10644,1,2,0:0:0:0:
177,246,10829,1,2,0:0:0:0:
142,147,11015,6,0,P|189:139|251:171,1,97.9999970092774,6|0,3:2|3:2,0:0:0:0:
315,135,11570,2,0,L|382:127,1,48.9999985046387,10|10,0:0|0:0,0:0:0:0:
344,210,11941,2,0,L|295:204,1,48.9999985046387,10|10,0:0|0:0,0:0:0:0:
241,140,12311,1,10,0:0:0:0:
246,56,12496,1,10,0:0:0:0:
281,220,13052,5,0,0:0:0:0:
97,150,13422,6,0,P|91:112|96:77,2,70,6|2|2,3:2|0:0|3:2,0:0:0:0:
183,196,13977,2,0,P|262:176|327:210,1,140,2|2,0:0|0:0,0:0:0:0:
394,252,14533,2,0,P|407:219|408:185,1,70,8|2,0:0|0:0,0:0:0:0:
359,100,14903,6,0,L|454:87,2,70,0|2|8,3:2|0:0|0:0,0:0:0:0:
263,122,15459,1,2,0:0:0:0:
179,173,15644,1,2,3:2:0:0:
201,267,15829,1,2,0:0:0:0:
299,277,16014,1,10,0:0:0:0:
338,186,16199,1,2,0:0:0:0:
430,217,16384,6,0,L|430:297,2,70,4|2|8,3:2|0:0|0:0,0:0:0:0:
397,124,16940,2,0,P|332:105|255:161,1,140,2|2,0:0|0:0,0:0:0:0:
186,191,17496,2,0,L|107:191,1,70,8|2,0:0|0:0,0:0:0:0:
46,121,17866,6,0,P|41:82|50:47,2,70,0|2|8,3:2|0:0|0:0,0:0:0:0:
116,191,18421,1,2,0:0:0:0:
83,283,18607,2,0,P|121:288|156:279,1,70,0|4,3:2|3:2,0:0:0:0:
241,241,18977,2,0,P|275:234|309:239,1,70,12|8,0:0|0:0,0:0:0:0:
354,260,19255,1,8,0:0:0:0:
354,260,19347,6,0,P|366:211|352:162,2,70,4|2|8,3:2|0:0|0:0,0:0:0:0:
280,324,19903,2,0,L|130:326,1,140,2|2,0:0|0:0,0:0:0:0:
65,262,20459,2,0,B|57:218|57:218|66:176,1,70,8|2,0:0|0:0,0:0:0:0:
126,119,20829,6,0,P|86:96|43:97,2,70,0|2|8,3:2|0:0|0:0,0:0:0:0:
183,198,21384,2,0,P|174:222|176:252,1,35,2|8,0:0|0:0,0:0:0:0:
182,281,21570,2,0,P|188:308|212:328,1,35,0|8,3:2|0:0,0:0:0:0:
238,331,21755,1,8,0:3:0:0:
277,173,21940,1,12,0:0:0:0:
277,173,22310,6,0,L|444:173,1,140,14|0,0:0|3:2,0:0:0:0:
388,267,22866,2,0,L|231:266,1,140,14|0,0:0|3:2,0:0:0:0:
168,207,23421,2,0,P|150:151|154:132,1,70,14|0,0:0|3:2,0:0:0:0:
197,54,23792,5,0,3:2:0:0:
291,81,23977,1,14,0:0:0:0:
227,158,24162,1,4,3:2:0:0:
133,128,24347,1,0,3:2:0:0:
133,128,24440,1,0,0:0:0:0:
133,128,24533,1,14,0:0:0:0:
32,190,24718,2,0,L|23:152,4,35,0|8|8|8|8,3:2|0:0|3:2|0:0|0:3,0:0:0:0:
106,279,25273,6,0,P|143:298|171:298,1,52.5000020027161,4|2,3:2|0:0,0:0:0:0:
230,267,25644,2,0,P|251:252|277:246,1,52.5000020027161,0|2,3:2|0:0,0:0:0:0:
356,272,26014,2,0,L|357:158,1,105.000004005432,2|2,3:2|3:2,0:0:0:0:
284,123,26570,1,2,0:0:0:0:
195,169,26755,6,0,P|166:173|132:166,1,52.5000020027161,2|0,3:2|0:0,0:0:0:0:
144,80,27125,2,0,P|172:78|201:83,1,52.5000020027161,2|0,3:2|0:0,0:0:0:0:
284,123,27496,2,0,B|339:142|327:107|394:127,1,105.000004005432,2|2,3:2|3:2,0:0:0:0:
447,182,28051,1,0,0:0:0:0:
380,255,28236,6,0,L|323:253,1,52.5000020027161,2|0,3:2|0:0,0:0:0:0:
256,207,28607,2,0,L|199:205,1,52.5000020027161,0|0,3:2|0:0,0:0:0:0:
179,124,28977,1,0,3:2:0:0:
95,91,29162,2,0,P|92:62|96:38,2,52.5000020027161,2|0|2,0:0|3:2|0:0,0:0:0:0:
96,180,29718,6,0,B|106:215|99:251,1,52.5000020027161,0|0,3:2|0:0,0:0:0:0:
57,303,30088,2,0,B|55:339|62:354,1,52.5000020027161,0|2,3:2|0:0,0:0:0:0:
146,358,30459,2,0,L|270:353,1,105.000004005432,0|0,3:2|3:2,0:0:0:0:
291,280,31014,1,2,0:0:0:0:
291,280,31107,1,2,0:0:0:0:
291,280,31199,6,0,P|283:234|288:168,2,105.000004005432,6|2|2,3:2|3:2|3:2,0:0:0:0:
123,261,32310,2,0,L|119:196,1,52.5000020027161,2|0,3:2|0:0,0:0:0:0:
40,180,32681,6,0,P|76:134|141:125,1,105.000004005432,2|0,3:2|3:2,0:0:0:0:
199,145,33236,1,2,0:0:0:0:
257,204,33421,2,0,L|374:198,1,105.000004005432,2|0,3:2|3:2,0:0:0:0:
261,333,34162,6,0,L|150:334,1,105.000004005432,2|2,3:2|3:2,0:0:0:0:
93,286,34718,2,0,P|101:244|94:224,1,52.5000020027161,2|0,0:0|3:2,0:0:0:0:
103,151,35088,2,0,P|100:125|108:100,1,52.5000020027161,2|0,0:0|3:2,0:0:0:0:
204,99,35459,5,14,0:0:0:0:
204,99,35829,1,10,0:0:0:0:
285,175,36014,1,4,3:2:0:0:
218,264,36199,1,8,0:3:0:0:
131,192,36384,1,4,3:2:0:0:
204,99,36570,1,0,0:0:0:0:
204,99,36662,1,8,0:0:0:0:
204,99,36755,2,0,P|240:101|256:97,3,35,8|0|8|8,0:3|0:0|0:3|0:0,0:0:0:0:
293,84,37125,6,0,P|316:120|302:217,1,140,4|10,3:2|0:0,0:0:0:0:
257,298,37681,1,0,0:0:0:0:
191,224,37866,2,0,P|141:221|93:236,2,70,2|0|10,3:2|3:2|0:0,0:0:0:0:
257,298,38421,1,2,0:0:0:0:
344,253,38607,6,0,P|359:205|338:116,1,140,2|10,3:2|0:0,0:0:0:0:
273,47,39162,1,0,0:0:0:0:
197,108,39347,2,0,P|187:155|199:193,1,70,2|0,3:2|3:2,0:0:0:0:
273,229,39718,2,0,P|277:263|267:296,1,70,10|0,0:0|0:0,0:0:0:0:
182,247,40088,6,0,P|99:253|39:242,2,140,2|8|2,3:2|0:0|3:2,0:0:0:0:
269,200,41014,1,2,3:2:0:0:
219,115,41199,2,0,P|264:101|306:112,1,70,10|2,0:0|0:0,0:0:0:0:
358,169,41570,6,0,P|354:253|299:295,2,140,0|8|2,3:2|0:0|3:2,0:0:0:0:
301,87,42496,1,2,3:2:0:0:
220,142,42681,1,8,0:0:0:0:
211,44,42866,1,2,0:0:0:0:
220,142,43051,6,0,L|221:288,2,140,2|10|2,3:2|0:0|3:2,0:0:0:0:
211,44,43977,1,0,3:2:0:0:
136,108,44162,2,0,P|84:118|57:110,1,70,10|0,0:0|0:0,0:0:0:0:
138,15,44533,6,0,P|204:48|227:136,1,140,2|8,3:2|0:0,0:0:0:0:
186,194,45088,1,2,0:0:0:0:
237,277,45273,2,0,L|244:366,1,70,2|0,3:2|3:2,0:0:0:0:
337,321,45644,2,0,L|342:251,1,70,8|0,0:0|0:0,0:0:0:0:
351,156,46014,6,0,P|394:132|477:156,1,140,2|8,3:2|0:0,0:0:0:0:
411,229,46570,2,0,P|364:261|281:237,1,140,2|2,0:0|0:0,0:0:0:0:
235,159,47125,1,8,0:0:0:0:
150,253,47310,6,0,B|193:242|193:242|242:251|242:251|315:237,1,140,4|2,3:2|3:2,0:0:0:0:
379,210,47866,1,12,0:0:0:0:
324,128,48051,2,0,P|315:107|317:88,2,35,2|0|4,0:0|0:0|3:2,0:0:0:0:
425,124,48421,2,0,P|434:103|432:84,2,35,10|8|8,0:0|0:0|0:0,0:0:0:0:
379,210,48792,1,8,0:3:0:0:
440,276,48977,6,0,P|476:284|524:288,1,70,6|2,3:2|0:0,0:0:0:0:
472,380,49347,2,0,P|437:376|403:368,1,70,2|2,3:2|0:0,0:0:0:0:
287,282,49718,2,0,P|215:310|143:310,1,140,2|2,3:2|3:2,0:0:0:0:
42,327,50273,6,0,B|38:275|70:239|70:239|47:224|39:191,1,140,2|2,0:0|0:0,0:0:0:0:
131,162,50829,2,0,P|139:117|142:80,1,70,2|2,3:2|0:0,0:0:0:0:
67,28,51199,2,0,P|27:38|-5:44,1,70,2|0,3:2|0:0,0:0:0:0:
186,91,51570,2,0,P|220:96|254:106,1,70,6|0,3:2|0:0,0:0:0:0:
369,82,51940,6,0,P|369:42|357:6,2,70,6|2|2,3:2|0:0|3:2,0:0:0:0:
328,172,52496,1,2,0:0:0:0:
328,172,52681,2,0,P|364:216|456:216,1,140,2|2,3:2|3:2,0:0:0:0:
488,328,53236,6,0,P|416:338|332:356,1,140,12|8,0:0|0:0,0:0:0:0:
284,280,53792,1,10,0:0:0:0:
208,344,53977,1,2,3:2:0:0:
208,344,54070,1,8,0:0:0:0:
208,344,54162,2,0,L|88:336,1,105,6|8,3:2|0:0,0:0:0:0:
80,312,54533,2,0,P|43:315|0:328,1,70,6|2,3:2|3:2,0:0:0:0:
44,228,54903,6,0,P|53:191|52:148,1,70,6|0,3:2|3:2,0:0:0:0:
100,76,55273,2,0,P|121:109|164:140,1,70,10|2,0:0|0:0,0:0:0:0:
192,144,55551,1,8,0:3:0:0:
192,144,55644,2,0,P|221:132|272:120,1,70,8|8,0:3|0:3,0:0:0:0:
304,36,56014,1,10,0:0:0:0:
304,36,56199,6,0,L|456:56,1,140,2|2,3:2|3:2,0:0:0:0:
500,136,56755,1,10,0:0:0:0:
424,200,56940,1,8,0:3:0:0:
424,200,57033,1,8,0:3:0:0:
424,200,57125,2,0,P|428:240|436:280,1,70,8|8,0:3|0:3,0:0:0:0:
324,360,57496,2,0,P|317:325|314:290,1,70,14|0,0:0|0:0,0:0:0:0:
320,168,57866,6,0,P|286:188|236:200,1,70,6|2,3:2|3:2,0:0:0:0:
188,268,58236,2,0,L|104:256,1,70,10|8,0:0|0:3,0:0:0:0:
55,182,58607,2,0,B|29:132|64:90|64:90|119:122,1,140,8|10,0:3|0:0,0:0:0:0:
216,64,59162,6,0,P|323:43|372:32,1,140,6|2,3:2|3:2,0:0:0:0:
452,52,59718,2,0,P|468:108|428:136,1,105,12|8,0:0|0:0,0:0:0:0:
408,176,60088,2,0,P|452:190|484:204,1,70,2|8,3:2|0:3,0:0:0:0:
468,296,60459,2,0,P|435:283|402:272,1,70,8|8,3:3|0:3,0:0:0:0:
288,220,60829,6,0,P|298:259|300:304,1,70,6|2,3:2|0:0,0:0:0:0:
224,348,61199,2,0,L|132:332,1,70,0|2,3:2|0:0,0:0:0:0:
108,248,61570,2,0,B|61:252|24:264|24:264|1:245|-4:208,1,140,2|2,3:2|3:2,0:0:0:0:
36,128,62125,1,2,0:0:0:0:
36,128,62218,1,2,0:0:0:0:
36,128,62310,6,0,L|128:112,1,70,0|2,3:2|0:0,0:0:0:0:
156,32,62681,2,0,L|248:16,1,70,2|2,3:2|0:0,0:0:0:0:
320,36,63051,2,0,P|352:76|324:168,1,140,6|6,3:2|3:2,0:0:0:0:
256,216,63607,6,0,P|244:192|240:136,1,70,2|6,0:0|3:2,0:0:0:0:
238,149,65088,6,0,L|232:308,1,140,6|2,3:2|0:0,0:0:0:0:
148,340,65644,2,0,P|113:354|72:364,2,70,2|10|10,3:2|0:0|0:0,0:0:0:0:
80,268,66199,1,10,0:0:0:0:
112,176,66384,1,10,0:0:0:0:
212,156,66570,1,10,0:0:0:0:
272,256,66755,6,0,P|315:270|368:276,1,77.0000023498536,6|2,3:2|0:0,0:0:0:0:
428,216,67125,2,0,L|416:124,1,77.0000023498536,8|2,0:0|0:0,0:0:0:0:
320,76,67496,2,0,L|329:0,2,77.0000023498536,0|2|8,3:2|0:0|0:0,0:0:0:0:
236,132,68051,1,2,0:0:0:0:
236,132,68236,6,0,P|214:122|152:112,1,77.0000023498536,2|2,3:2|0:0,0:0:0:0:
92,40,68607,1,8,0:0:0:0:
12,152,68792,2,0,P|25:213|36:312,1,154.000004699707,2|2,0:0|0:0,0:0:0:0:
112,368,69347,2,0,P|151:378|204:380,1,77.0000023498536,8|2,0:0|0:0,0:0:0:0:
272,236,69718,6,0,P|233:239|196:248,1,77.0000023498536,6|2,3:2|0:0,0:0:0:0:
116,188,70088,2,0,P|112:136|144:104,2,77.0000023498536,8|2|0,0:0|0:0|3:2,0:0:0:0:
76,280,70644,1,2,0:0:0:0:
76,280,70829,2,0,P|36:270|-16:268,1,77.0000023498536,8|2,0:0|0:0,0:0:0:0:
112,368,71199,6,0,P|151:378|204:380,1,77.0000023498536,2|2,3:2|0:0,0:0:0:0:
280,336,71570,1,8,0:0:0:0:
293,211,71755,2,0,L|277:39,1,154.000004699707,2|2,0:0|0:0,0:0:0:0:
378,66,72310,2,0,P|405:83|462:90,1,77.0000023498536,8|2,0:0|0:0,0:0:0:0:
498,95,72588,1,8,0:0:0:0:
498,95,72681,6,0,P|474:135|474:199,1,77.0000023498536,6|2,3:2|0:0,0:0:0:0:
504,256,73051,1,8,0:0:0:0:
504,256,73236,2,0,B|392:268|392:268|390:293|380:320,1,154.000004699707,2|2,0:0|0:0,0:0:0:0:
292,348,73792,1,8,0:0:0:0:
292,348,73977,6,0,P|256:340|220:296,1,77.0000023498536,2|0,0:0|3:2,0:0:0:0:
136,180,74347,2,0,P|147:215|126:268,1,77.0000023498536,2|8,0:0|0:0,0:0:0:0:
140,352,74718,2,0,P|48:368|4:316,1,154.000004699707,2|2,0:0|0:0,0:0:0:0:
44,236,75273,2,0,L|28:148,1,77.0000023498536,10|2,0:0|0:0,0:0:0:0:
104,92,75644,5,14,0:0:0:0:
104,92,75829,2,0,L|112:8,1,77.0000023498536,14|2,0:0|3:2,0:0:0:0:
200,64,76199,2,0,B|237:62|280:48|280:48|312:67|364:80,1,154.000004699707,12|12,0:0|0:0,0:0:0:0:
444,64,76755,1,2,3:2:0:0:
444,64,76940,6,0,P|464:100|464:148,1,77.0000023498536,12|0,0:0|3:2,0:0:0:0:
376,212,77310,2,0,P|360:256|368:300,1,77.0000023498536,12|0,0:0|3:2,0:0:0:0:
280,360,77681,2,0,P|236:312|132:332,1,154.000004699707,2|0,0:0|3:2,0:0:0:0:
76,252,78236,2,0,P|67:234|64:208,3,38.5000011749268,8|8|8|8,0:0|0:0|0:0|0:0,0:0:0:0:
48,176,78607,6,0,P|55:140|56:92,1,77.0000023498536,4|2,3:2|3:2,0:0:0:0:
148,6,78977,2,0,B|184:58|228:66|228:66|251:42|292:26,1,154.000004699707,14|0,0:0|3:2,0:0:0:0:
369,32,79533,1,2,3:2:0:0:
369,32,79718,2,0,P|395:60|391:118,1,77.0000023498536,10|2,0:0|0:0,0:0:0:0:
360,200,80088,6,0,P|391:188|448:180,2,77.0000023498536,2|2|10,3:2|3:2|0:0,0:0:0:0:
288,272,80644,1,2,0:0:0:0:
288,272,80736,1,10,0:0:0:0:
288,272,80829,2,0,P|250:268|180:256,1,77.0000023498536,2|2,3:2|3:2,0:0:0:0:
136,200,81199,2,0,P|76:208|68:284,1,115.50000352478,8|2,0:0|0:0,0:0:0:0:
32,296,81570,6,0,P|45:325|56:372,1,77.0000023498536,4|2,3:2|3:2,0:0:0:0:
176,280,81940,2,0,P|181:188|188:104,1,154.000004699707,14|0,0:0|3:2,0:0:0:0:
244,44,82496,1,2,3:2:0:0:
244,44,82681,2,0,P|280:56|328:56,1,77.0000023498536,10|2,0:0|0:0,0:0:0:0:
396,120,83051,6,0,L|484:108,2,77.0000023498536,2|2|10,3:2|3:2|0:0,0:0:0:0:
316,180,83607,1,2,0:0:0:0:
316,180,83699,1,10,0:0:0:0:
316,180,83792,2,0,P|300:228|320:256,1,77.0000023498536,6|2,3:2|3:2,0:0:0:0:
340,268,84070,1,8,0:0:0:0:
340,268,84162,2,0,P|356:316|336:344,1,77.0000023498536,2|2,3:2|3:2,0:0:0:0:
252,380,84533,5,6,3:2:0:0:
192,300,84718,2,0,P|156:295|100:284,1,77.0000023498536,2|8,0:0|0:0,0:0:0:0:
48,200,85088,2,0,B|56:152|28:116|28:116|56:115|96:84,1,154.000004699707,2|2,0:0|0:0,0:0:0:0:
136,4,85644,1,8,0:0:0:0:
252,92,85829,6,0,P|296:128|260:232,1,154.000004699707,2|2,0:0|0:0,0:0:0:0:
224,296,86384,1,8,0:0:0:0:
311,248,86570,2,0,P|350:233|403:232,1,77.0000023498536,2|0,0:0|3:2,0:0:0:0:
200,168,86940,2,0,P|161:164|126:150,1,77.0000023498536,2|10,0:0|0:0,0:0:0:0:
72,64,87310,1,2,0:0:0:0:
112,176,87496,6,0,P|121:213|128:260,1,77.0000023498536,14|2,0:0|0:0,0:0:0:0:
112,300,87773,1,10,0:0:0:0:
112,300,87866,1,0,3:2:0:0:
213,335,88051,2,0,P|265:355|337:351,1,115.50000352478,8|8,0:3|0:0,0:0:0:0:
357,315,88421,2,0,L|445:303,1,77.0000023498536,8|0,0:3|3:2,0:0:0:0:
497,218,88792,6,0,P|505:174|473:130,1,77.0000023498536,12|0,0:0|3:2,0:0:0:0:
393,101,89162,1,6,3:2:0:0:
316,160,89347,1,8,0:0:0:0:
228,116,89533,1,6,0:0:0:0:
228,116,89625,1,8,0:0:0:0:
228,116,89718,2,0,L|148:104,1,77.0000023498536,8|8,0:0|0:3,0:0:0:0:
68,160,90088,2,0,P|54:195|63:232,1,77.0000023498536,8|8,0:3|0:3,0:0:0:0:
88,328,90459,6,0,B|168:372|168:304|260:332,1,168,6|2,3:2|0:0,0:0:0:0:
336,356,91199,2,0,B|380:364|404:320|404:320|406:275|382:247|382:247|413:234|420:196,1,224,14|2,0:0|3:2,0:0:0:0:
340,160,92125,6,0,B|268:148|268:148|260:129|244:112,1,112,2|0,3:2|3:2,0:0:0:0:
176,60,92681,2,0,P|204:100|132:196,1,168,10|2,0:0|0:0,0:0:0:0:
76,136,93421,6,0,P|46:129|8:128,1,62.9999980773926,6|0,3:2|0:0,0:0:0:0:
8,224,93792,2,0,P|39:225|70:232,1,62.9999980773926,2|2,3:2|0:0,0:0:0:0:
124,308,94162,2,0,P|110:347|108:392,2,62.9999980773926,10|10|10,0:0|0:0|0:0,0:0:0:0:
201,197,94718,6,0,P|187:130|173:37,1,140,6|8,3:2|0:3,0:0:0:0:
276,20,95273,2,0,P|309:39|352:48,1,70,2|8,3:2|0:3,0:0:0:0:
388,64,95551,1,0,3:2:0:0:
388,64,95644,2,0,L|468:56,1,70,2|0,3:2|3:2,0:0:0:0:
496,96,95921,1,0,3:2:0:0:
496,96,96014,2,0,P|516:144|500:184,1,70,8|0,3:3|0:0,0:0:0:0:
460,248,96384,5,12,0:0:0:0:
460,248,96570,1,12,0:0:0:0:
360,220,96940,5,12,0:0:0:0:
260,188,97310,1,12,0:0:0:0:
160,152,97681,1,12,0:0:0:0:
68,208,98051,6,0,P|52:248|72:292,1,70,12|0,0:0|3:2,0:0:0:0:
120,356,98421,2,0,P|153:344|212:340,1,70,6|8,3:2|0:0,0:0:0:0:
268,272,98792,1,8,0:0:0:0:
368,304,98977,1,8,0:0:0:0:
460,248,99162,6,0,P|464:213|449:182,1,70,6|2,0:0|0:0,0:0:0:0:
256,192,99440,12,0,100829,0:0:0:0:
