osu file format v14

[General]
AudioFilename: audio.mp3
AudioLeadIn: 0
PreviewTime: 216340
Countdown: 0
SampleSet: Soft
StackLeniency: 0.6
Mode: 0
LetterboxInBreaks: 0
WidescreenStoryboard: 1

[Editor]
DistanceSpacing: 1.7
BeatDivisor: 4
GridSize: 4
TimelineZoom: 2.2

[Metadata]
Title:Holy Flag
TitleUnicode:Holy Flag
Artist:HoneyWorks ft. GUMI
ArtistUnicode:HoneyWorks ft. GUMI
Creator:R4UP1
Version:Holy Caterpie
Source:
Tags:Japanese Anime Vocaloid
BeatmapID:966859
BeatmapSetID:450672

[Difficulty]
HPDrainRate:5
CircleSize:4
OverallDifficulty:8
ApproachRate:9
SliderMultiplier:2.3
SliderTickRate:1

[Events]
//Background and Video events
0,0,"Background.jpg",0,0
Video,0,"Gumi.mp4"
//Break Periods
2,26721,32467
2,95448,101194
//Storyboard Layer 0 (Background)
//Storyboard Layer 1 (Fail)
//Storyboard Layer 2 (Pass)
//Storyboard Layer 3 (Foreground)
//Storyboard Sound Samples

[TimingPoints]
340,545.454545454546,4,2,0,60,1,0
9067,-100,4,1,0,60,0,0
26521,-100,4,3,0,60,0,0
34430,-83.3333333333333,4,1,0,60,0,0
35249,-100,4,1,0,60,0,0
60340,-133.333333333333,4,2,0,60,0,0
60885,-200,4,2,0,60,0,0
61430,-83.3333333333333,4,1,0,80,0,1
72340,-100,4,1,0,80,0,1
72885,-133.333333333333,4,1,0,80,0,1
73430,-333.333333333333,4,1,0,60,0,0
75340,-133.333333333333,4,1,0,60,0,0
77794,-83.3333333333333,4,1,0,80,0,1
93067,-133.333333333333,4,2,0,5,0,0
94158,-333.333333333333,4,2,0,5,0,0
95249,-100,4,3,0,60,0,0
103976,-100,4,1,0,60,0,0
129067,-133.333333333333,4,1,0,60,0,0
129612,-200,4,2,0,60,0,0
130158,-83.3333333333333,4,1,0,80,0,1
141067,-100,4,1,0,80,0,1
141612,-133.333333333333,4,1,0,80,0,1
142158,-333.333333333333,4,1,0,60,0,0
144067,-133.333333333333,4,1,0,60,0,0
146521,-83.3333333333333,4,1,0,80,0,1
163703,-83.3333333333333,4,2,0,5,0,1
163976,-100,4,2,0,60,0,0
172703,-100,4,1,0,60,0,0
181158,-100,4,2,0,50,0,0
198612,-166.666666666667,4,3,0,70,0,0
213067,-100,4,3,0,70,0,0
216340,-83.3333333333333,4,1,0,80,0,1
227249,-100,4,1,0,80,0,1
227794,-133.333333333333,4,1,0,80,0,1
228340,-333.333333333333,4,1,0,60,0,0
230249,-100,4,1,0,60,0,0
232703,-83.3333333333333,4,1,0,80,0,1
247976,-100,4,1,0,80,0,1
249067,-133.333333333333,4,1,0,80,0,1
249612,-200,4,2,0,20,0,0

[Colours]
Combo1 : 224,219,3
Combo2 : 200,145,40
Combo3 : 205,74,18
Combo4 : 112,193,57

[HitObjects]
256,192,6885,12,2,9067,0:0:0:0:
110,178,9340,5,0,0:0:0:0:
176,114,9476,1,0,0:0:0:0:
208,199,9612,2,0,P|167:252|108:270,1,115,8|0,0:0|0:0,0:0:0:0:
320,276,10158,5,2,0:0:0:0:
412,75,10430,1,0,0:0:0:0:
455,153,10567,1,0,0:0:0:0:
363,148,10703,2,0,B|321:166|321:166|302:194|302:194|269:201|253:222,1,115,8|0,0:0|0:0,0:0:0:0:
70,75,11249,6,0,B|93:147|93:147|136:198,1,115,2|0,0:0|0:0,0:0:0:0:
170,113,11658,1,0,0:0:0:0:
170,113,11794,2,0,L|142:236,1,115,8|0,0:0|0:0,0:0:0:0:
401,322,12340,6,0,P|377:265|403:212,1,115,2|0,0:0|0:0,0:0:0:0:
450,267,12749,2,0,L|451:330,1,57.5,0|8,0:0|0:0,0:0:0:0:
321,150,13158,1,0,0:0:0:0:
150,301,13430,6,0,P|120:240|53:221,1,115,2|0,0:0|0:0,0:0:0:0:
65,306,13840,1,0,0:0:0:0:
65,306,13976,2,0,L|170:205,1,115,8|0,0:0|0:0,0:0:0:0:
427,161,14521,6,0,P|364:182|336:241,1,115,2|0,0:0|0:0,0:0:0:0:
422,247,14931,1,0,0:0:0:0:
422,247,15067,2,0,L|317:146,1,115,8|0,0:0|0:0,0:0:0:0:
67,70,15612,6,0,B|135:85|135:85|195:84,1,115,2|0,0:0|0:0,0:0:0:0:
239,155,16021,1,0,0:0:0:0:
292,79,16158,1,8,0:0:0:0:
366,239,16430,1,0,0:0:0:0:
366,239,16703,6,0,B|324:232|300:241|300:241|279:233|279:233|250:240|215:237,1,115,4|0,0:0|0:0,0:0:0:0:
84,144,17249,2,0,B|125:137|150:146|150:146|171:138|171:138|199:145|235:142,1,115,4|0,0:0|0:0,0:0:0:0:
101,250,17794,6,0,P|74:182|95:126,1,115,2|0,0:0|0:0,0:0:0:0:
15,87,18203,1,0,0:0:0:0:
83,143,18340,2,0,P|155:145|215:108,1,115,8|0,0:0|0:0,0:0:0:0:
398,290,18885,6,0,L|413:155,1,115,2|0,0:0|0:0,0:0:0:0:
325,342,19294,1,0,0:0:0:0:
325,342,19430,2,0,P|298:276|232:241,1,115,8|0,0:0|0:0,0:0:0:0:
45,242,19976,6,0,P|107:230|159:164,1,115,2|0,0:0|0:0,0:0:0:0:
68,165,20385,1,0,0:0:0:0:
68,165,20521,2,0,L|209:165,1,115,8|0,0:0|0:0,0:0:0:0:
385,111,21067,6,0,B|366:142|346:157|346:157|349:185|349:185|326:205|325:231,1,115,4|0,0:0|0:0,0:0:0:0:
233,38,21612,2,0,B|241:73|237:98|237:98|259:115|259:115|257:146|275:165,1,115,4|0,0:0|0:0,0:0:0:0:
410,256,22158,6,0,P|370:302|290:309,1,115,2|0,0:0|0:0,0:0:0:0:
265,230,22567,1,0,0:0:0:0:
265,230,22703,2,0,P|202:266|136:256,1,115,8|0,0:0|0:0,0:0:0:0:
48,78,23249,6,0,P|88:124|168:131,1,115,2|0,0:0|0:0,0:0:0:0:
193,52,23658,1,0,0:0:0:0:
193,52,23794,2,0,P|256:88|322:78,1,115,8|0,0:0|0:0,0:0:0:0:
447,198,24340,6,0,P|374:207|306:237,1,115,2|0,0:0|0:0,0:0:0:0:
251,249,24749,1,0,0:0:0:0:
251,249,24885,2,0,P|324:258|392:288,1,115,8|0,0:0|0:0,0:0:0:0:
195,315,25430,5,4,0:0:0:0:
195,315,25703,1,0,0:0:0:0:
116,275,25840,1,0,0:0:0:0:
97,189,25976,1,0,0:0:0:0:
152,121,26112,1,0,0:0:0:0:
239,129,26249,2,0,B|264:204|264:204|281:161,1,115,0|2,0:0|0:0,0:0:0:0:
413,102,33067,5,0,0:0:0:0:
327,255,33612,1,0,0:0:0:0:
274,162,33885,1,0,0:0:0:0:
203,241,34158,5,0,0:0:0:0:
191,253,34226,1,0,0:0:0:0:
177,263,34294,1,0,0:0:0:0:
162,271,34362,1,0,0:0:0:0:
147,276,34430,2,0,P|96:293|73:316,1,68.9999978942872,4|0,0:0|0:0,0:0:0:0:
138,352,34703,2,0,L|166:205,1,137.999995788574,8|0,0:0|0:0,0:0:0:0:
434,103,35249,6,0,P|404:170|356:192,1,115
351,108,35658,2,0,P|328:92|292:83,1,57.5,0|0,0:0|0:0,0:0:0:0:
187,127,36067,1,0,0:0:0:0:
187,127,36340,2,0,B|241:179|241:179|185:173,1,115,0|0,0:0|0:0,0:0:0:0:
357,113,36885,6,0,P|380:174|362:226,1,115
405,318,37430,2,0,P|434:269|493:258,1,115
405,318,37840,2,0,P|368:321|332:310,1,57.5,0|0,0:0|0:0,0:0:0:0:
233,220,38249,1,0,0:0:0:0:
233,220,38521,2,0,B|230:278|230:278|211:300|207:338,1,115,0|0,0:0|0:0,0:0:0:0:
159,174,39067,6,0,P|202:139|278:137,1,115
388,209,39612,2,0,L|348:239,1,28.75
259,264,39885,1,0,0:0:0:0:
95,176,40158,2,0,L|131:151,1,28.75
254,140,40430,1,0,0:0:0:0:
101,290,40703,6,0,P|90:228|100:160,1,115
254,140,41249,2,0,P|265:202|255:270,1,115
165,96,41794,2,0,B|199:53|263:40|310:60|310:60|320:115|382:143|450:106|448:51,1,345
379,45,42749,2,0,L|379:114,1,57.5,0|2,0:0|0:0,0:0:0:0:
157,265,43158,5,0,0:0:0:0:
97,203,43294,1,0,0:0:0:0:
116,119,43430,1,0,0:0:0:0:
195,83,43567,1,0,0:0:0:0:
278,105,43703,1,0,0:0:0:0:
305,187,43840,1,0,0:0:0:0:
259,259,43976,6,0,P|202:234|180:174,1,115,4|0,0:0|0:0,0:0:0:0:
245,37,44521,1,0,0:0:0:0:
111,269,44794,1,0,0:0:0:0:
325,108,45067,2,0,L|251:127,1,57.5
99,164,45340,1,0,0:0:0:0:
254,321,45612,2,0,B|289:290|289:290|315:220,1,115
442,91,46158,6,0,L|427:137,1,28.75
397,242,46430,1,0,0:0:0:0:
312,91,46703,1,0,0:0:0:0:
156,225,46976,2,0,L|167:191,1,28.75
202,73,47249,1,0,0:0:0:0:
233,276,47521,2,0,P|182:308|118:305,1,115,0|0,0:0|0:0,0:0:0:0:
258,183,48067,5,0,0:0:0:0:
327,233,48203,1,0,0:0:0:0:
346,317,48340,2,0,P|403:299|437:246,1,115
307,138,48885,1,0,0:0:0:0:
439,92,49158,2,0,L|366:119,1,57.5
307,138,49430,2,0,P|245:131|193:96,1,115
42,173,49976,2,0,P|103:179|156:215,1,115
258,180,50521,1,0,0:0:0:0:
75,295,50794,1,0,0:0:0:0:
307,273,51067,6,0,P|246:283|193:313,1,115
366,216,51613,2,0,P|310:189|250:181,1,115
448,200,52158,2,0,P|419:146|374:103,1,115
381,108,52703,6,0,P|346:157|290:153,1,115
468,140,53249,2,0,L|442:212,1,57.5
419,275,53521,1,0,0:0:0:0:
493,137,53794,2,0,L|449:265,1,115
330,328,54340,2,0,P|267:325|217:287,1,115
91,187,54885,2,0,L|121:155,1,28.75
111,295,55158,1,0,0:0:0:0:
173,78,55430,1,0,0:0:0:0:
320,139,55703,2,0,L|290:127,1,28.75
173,78,55976,1,0,0:0:0:0:
242,224,56249,1,0,0:0:0:0:
322,255,56385,1,0,0:0:0:0:
406,238,56521,2,0,P|453:199|453:139,1,115,0|0,0:0|0:0,0:0:0:0:
397,85,56930,1,0,0:0:0:0:
285,171,57067,6,0,L|268:50,1,115
210,223,57476,1,0,0:0:0:0:
190,254,57612,2,0,L|173:133,1,115
100,335,58158,2,0,L|83:214,1,115
61,49,58703,1,0,0:0:0:0:
280,316,58976,1,0,0:0:0:0:
381,176,59249,6,0,B|450:135|450:135|438:171,1,115
435,199,59590,1,0,0:0:0:0:
427,229,59658,1,0,0:0:0:0:
438,258,59726,1,0,0:0:0:0:
456,283,59794,2,0,P|426:331|364:348,1,115
288,305,60340,6,0,P|318:270|366:253,1,86.2500032901765
242,365,60885,6,0,P|220:338|210:299,1,57.5
67,205,61430,6,0,P|112:142|174:98,1,137.999995788574
264,93,61840,1,0,0:0:0:0:
214,183,61976,2,0,P|276:136|348:114,1,137.999995788574,8|0,0:0|0:0,0:0:0:0:
240,304,62521,6,0,P|206:263|221:172,1,137.999995788574
299,240,62930,1,0,0:0:0:0:
386,184,63067,2,0,P|397:250|359:305,1,137.999995788574,8|0,0:0|0:0,0:0:0:0:
45,301,63612,6,0,P|77:239|137:174,1,137.999995788574
210,133,64021,1,0,0:0:0:0:
279,210,64158,1,8,0:0:0:0:
121,343,64430,1,0,0:0:0:0:
238,37,64703,6,0,L|198:174,1,137.999995788574
170,269,65112,1,0,0:0:0:0:
338,243,65249,2,0,B|281:284|281:284|275:326|248:347,1,137.999995788574,8|0,0:0|0:0,0:0:0:0:
220,185,65794,6,0,P|290:198|349:267,1,137.999995788574
378,146,66203,1,0,0:0:0:0:
411,331,66340,1,8,0:0:0:0:
466,51,66612,1,0,0:0:0:0:
466,51,66885,6,0,P|381:88|331:78,1,137.999995788574
75,182,67430,2,0,P|160:219|210:209,1,137.999995788574
431,207,67976,6,0,P|377:157|314:155,1,137.999995788574
204,352,68385,1,0,0:0:0:0:
204,352,68521,2,0,P|254:298|256:235,1,137.999995788574
73,140,68930,1,0,0:0:0:0:
73,140,69067,2,0,P|127:190|190:192,1,137.999995788574
305,26,69476,1,0,0:0:0:0:
305,26,69612,2,0,P|255:80|253:143,1,137.999995788574
447,319,70158,6,0,L|370:175,1,137.999995788574
339,292,70567,1,0,0:0:0:0:
377,104,70703,1,8,0:0:0:0:
447,319,70976,1,0,0:0:0:0:
377,104,71249,6,0,P|302:87|250:122,1,137.999995788574
202,226,71794,2,0,P|277:243|329:208,1,137.999995788574
165,86,72340,6,0,P|117:124|101:177,1,115
236,226,72885,6,0,P|216:187|169:159,1,86.2500032901765
83,261,73430,6,0,P|137:290|157:228,1,137.999995788574
314,93,75340,6,0,L|331:147,1,43.1250016450883
351,216,75612,1,0,0:0:0:0:
138,143,76158,1,0,0:0:0:0:
310,286,76703,1,0,0:0:0:0:
107,301,77044,5,0,0:0:0:0:
89,288,77112,1,0,0:0:0:0:
83,267,77180,1,0,0:0:0:0:
92,247,77249,2,0,P|140:201|136:139,1,129.375004935265
70,175,77794,6,0,P|128:213|208:216,1,137.999995788574
294,63,78340,1,0,0:0:0:0:
158,321,78612,1,0,0:0:0:0:
408,197,78885,5,0,0:0:0:0:
153,141,79158,1,0,0:0:0:0:
311,261,79430,5,0,0:0:0:0:
355,55,79703,1,0,0:0:0:0:
109,185,79976,6,0,P|153:247|210:277,1,137.999995788574
380,114,80521,2,0,P|313:89|229:92,1,137.999995788574
326,321,81067,2,0,P|344:250|317:178,1,137.999995788574
120,273,81612,6,0,P|153:302|190:315,1,68.9999978942872
269,253,81885,2,0,P|235:223|199:211,1,68.9999978942872
126,190,82158,1,0,0:0:0:0:
251,335,82430,1,0,0:0:0:0:
254,106,82703,5,0,0:0:0:0:
136,296,82976,1,0,0:0:0:0:
381,263,83249,5,0,0:0:0:0:
87,123,83521,1,0,0:0:0:0:
397,124,83794,1,0,0:0:0:0:
128,278,84067,1,0,0:0:0:0:
256,40,84340,6,0,L|256:185,1,137.999995788574
355,267,84885,2,0,P|295:233|253:173,1,137.999995788574
157,267,85430,2,0,P|216:233|259:173,1,137.999995788574
357,46,85976,6,0,B|374:108|342:153|342:153|325:111|296:91|257:88,1,206.999993682861
256,177,86521,1,2,0:0:0:0:
76,104,86794,1,0,0:0:0:0:
436,104,87067,1,0,0:0:0:0:
255,299,87340,1,0,0:0:0:0:
256,45,87612,5,0,0:0:0:0:
349,316,87885,1,0,0:0:0:0:
111,148,88158,1,0,0:0:0:0:
401,148,88430,1,0,0:0:0:0:
163,316,88703,2,0,P|90:309|24:316,1,137.999995788574
232,220,89249,2,0,P|304:213|371:220,1,137.999995788574
167,136,89794,2,0,P|94:129|28:136,1,137.999995788574
276,63,90340,6,0,B|297:80|293:112|293:112|337:81|389:91|418:131|429:173|397:216,1,241.499992630005
340,169,90885,1,2,0:0:0:0:
43,280,91158,1,0,0:0:0:0:
455,280,91430,1,0,0:0:0:0:
78,192,91703,5,0,0:0:0:0:
434,192,91976,1,0,0:0:0:0:
257,344,92249,5,0,0:0:0:0:
256,33,92521,1,0,0:0:0:0:
256,177,92794,1,0,0:0:0:0:
92,144,93067,6,0,P|114:184|155:209,1,86.2500032901765
299,125,93612,2,0,P|256:113|211:126,1,86.2500032901765
364,206,94158,6,0,P|413:160|399:80,1,137.999995788574,0|2,0:0|0:0,0:0:0:0:
357,123,101794,5,0,0:0:0:0:
256,306,102340,1,0,0:0:0:0:
122,108,102612,2,0,L|143:168,1,57.5
171,244,102885,1,2,0:0:0:0:
171,244,103158,6,0,L|192:181,1,57.5
341,171,103430,2,0,L|307:107,1,57.5
181,64,103703,2,0,L|223:4,1,57.5
445,177,103976,6,0,P|423:243|373:274,1,115
248,228,104385,1,0,0:0:0:0:
248,228,104521,2,0,L|307:123,1,115,0|0,0:0|0:0,0:0:0:0:
123,204,105067,2,0,B|145:273|145:273|186:311,1,115
81,40,105612,6,0,L|47:156,1,115
176,301,106158,2,0,P|211:251|214:191,1,115
51,280,106567,1,0,0:0:0:0:
51,280,106703,2,0,P|73:336|122:371,1,115,0|0,0:0|0:0,0:0:0:0:
259,326,107249,2,0,P|314:289|374:279,1,115
457,96,107794,6,0,P|395:107|352:135,1,115
295,307,108340,1,0,0:0:0:0:
144,174,108612,1,0,0:0:0:0:
277,206,108885,1,0,0:0:0:0:
153,288,109158,1,0,0:0:0:0:
277,206,109430,6,0,L|233:326,1,115
72,160,109976,2,0,P|111:111|180:89,1,115
277,206,110521,2,0,P|371:216|295:160,1,230
277,206,111340,2,0,L|278:143,1,57.5
277,73,111612,1,2,0:0:0:0:
441,228,111885,5,0,0:0:0:0:
379,295,112021,1,0,0:0:0:0:
295,329,112157,1,0,0:0:0:0:
204,322,112294,1,0,0:0:0:0:
125,276,112430,1,0,0:0:0:0:
75,200,112566,1,0,0:0:0:0:
89,127,112703,2,0,P|162:107|112:194,1,230,4|0,0:0|0:0,0:0:0:0:
221,46,113521,2,0,L|251:103,1,57.5
394,127,113794,1,0,0:0:0:0:
182,165,114067,2,0,L|149:228,1,57.5
13,264,114340,2,0,B|53:313|53:313|117:329,1,115
329,181,114885,6,0,L|342:218,1,28.75
375,304,115158,1,0,0:0:0:0:
197,165,115430,1,0,0:0:0:0:
453,83,115703,2,0,L|438:125,1,28.75
375,304,115976,1,0,0:0:0:0:
240,196,116249,5,0,0:0:0:0:
154,207,116385,1,0,0:0:0:0:
123,288,116521,2,0,P|135:338|192:367,1,115,0|0,0:0|0:0,0:0:0:0:
288,234,116930,1,0,0:0:0:0:
288,234,117067,2,0,P|227:253|198:293,1,115
419,312,117612,2,0,L|386:184,1,115
308,35,118158,6,0,L|291:157,1,115
280,223,118567,1,0,0:0:0:0:
178,88,118703,2,0,L|138:206,1,115,0|0,0:0|0:0,0:0:0:0:
234,314,119249,2,0,P|297:289|325:247,1,115
197,169,119794,6,0,P|241:138|305:128,1,115
120,162,120340,2,0,P|137:111|183:65,1,115
53,202,120885,2,0,P|37:150|47:86,1,115
82,320,121430,6,0,L|205:296,1,115
345,297,121976,2,0,L|421:318,2,57.5
216,220,122521,2,0,P|187:176|220:106,1,115
343,99,122930,1,0,0:0:0:0:
343,99,123067,2,0,P|299:157|257:163,1,115
61,90,123612,6,0,L|104:89,1,28.75
269,90,123885,1,0,0:0:0:0:
152,184,124158,1,0,0:0:0:0:
279,261,124430,2,0,L|272:314,1,28.75
152,184,124703,2,0,P|102:171|121:216,1,115
375,326,125249,5,0,0:0:0:0:
441,271,125385,1,0,0:0:0:0:
453,186,125521,2,0,L|336:179,1,115
59,164,126067,2,0,L|176:157,1,115
356,64,126612,1,0,0:0:0:0:
255,319,126885,1,0,0:0:0:0:
156,64,127158,1,0,0:0:0:0:
403,221,127430,1,0,0:0:0:0:
109,221,127703,1,0,0:0:0:0:
214,114,127976,6,0,B|249:80|293:78|293:78|293:118,1,115
292,133,128317,1,0,0:0:0:0:
298,161,128385,1,0,0:0:0:0:
315,183,128453,1,0,0:0:0:0:
334,204,128521,2,0,P|390:226|448:213,1,115
166,229,129067,6,0,P|137:187|138:151,1,86.2500032901765
221,58,129612,5,0,0:0:0:0:
234,72,129680,1,0,0:0:0:0:
246,89,129748,1,0,0:0:0:0:
256,106,129816,1,0,0:0:0:0:
265,124,129884,1,0,0:0:0:0:
271,143,129952,1,0,0:0:0:0:
276,163,130021,1,0,0:0:0:0:
278,183,130089,1,0,0:0:0:0:
279,203,130158,6,0,P|298:266|362:321,1,137.999995788574,2|0,0:0|0:0,0:0:0:0:
367,226,130567,1,0,0:0:0:0:
389,139,130703,2,0,P|408:202|472:257,1,137.999995788574,8|0,0:0|0:0,0:0:0:0:
453,70,131249,6,0,P|392:57|320:92,1,137.999995788574
256,145,131658,1,0,0:0:0:0:
186,86,131794,2,0,P|125:57|59:70,1,137.999995788574,8|0,0:0|0:0,0:0:0:0:
96,244,132340,6,0,B|161:273|161:273|206:323,1,137.999995788574
256,248,132749,1,0,0:0:0:0:
306,323,132885,2,0,B|351:273|351:273|416:244,1,137.999995788574,8|0,0:0|0:0,0:0:0:0:
351,27,133430,6,0,P|318:96|249:100,1,137.999995788574
177,73,133840,1,0,0:0:0:0:
97,113,133976,2,0,P|173:112|207:172,1,137.999995788574,8|0,0:0|0:0,0:0:0:0:
375,217,134521,6,0,L|236:247,1,137.999995788574
78,288,134930,1,0,0:0:0:0:
78,288,135067,2,0,L|231:325,1,137.999995788574,8|0,0:0|0:0,0:0:0:0:
383,182,135612,6,0,P|394:108|426:46,1,137.999995788574
249,94,136158,2,0,P|175:91|113:135,1,137.999995788574
308,292,136703,6,0,P|368:336|452:332,1,137.999995788574
232,252,137112,1,0,0:0:0:0:
232,252,137249,2,0,P|243:325|305:382,1,137.999995788574
208,172,137658,1,0,0:0:0:0:
208,172,137794,2,0,P|164:232|168:316,1,137.999995788574
248,96,138203,1,0,0:0:0:0:
248,96,138340,2,0,P|174:107|117:169,1,137.999995788574
308,292,138885,6,0,P|344:236|332:152,1,137.999995788574
128,140,139430,2,0,P|176:192|256:204,1,137.999995788574
148,64,139976,1,0,0:0:0:0:
151,272,140249,1,0,0:0:0:0:
364,64,140521,1,0,0:0:0:0:
361,272,140794,1,0,0:0:0:0:
152,156,141067,6,0,L|256:216,1,115
361,272,141612,6,0,L|285:316,1,86.2500032901765
157,277,142158,6,0,B|221:309|221:309|297:317,1,137.999995788574
288,316,144067,6,0,L|299:253,1,43.1250016450883
311,188,144340,1,0,0:0:0:0:
125,274,144885,1,0,0:0:0:0:
416,206,145430,1,0,0:0:0:0:
208,64,145771,5,0,0:0:0:0:
190,75,145840,1,0,0:0:0:0:
173,87,145908,1,0,0:0:0:0:
154,97,145976,2,0,B|114:125|114:125|119:182|192:178,1,129.375004935265
223,131,146521,6,0,P|283:101|350:143,1,137.999995788574
256,290,147067,1,0,0:0:0:0:
158,192,147340,1,0,0:0:0:0:
256,94,147612,1,0,0:0:0:0:
354,191,147885,1,0,0:0:0:0:
165,275,148158,5,0,0:0:0:0:
165,109,148430,1,0,0:0:0:0:
347,109,148703,1,0,0:0:0:0:
347,275,148976,1,0,0:0:0:0:
53,192,149249,5,0,0:0:0:0:
459,192,149521,1,0,0:0:0:0:
128,192,149794,5,0,0:0:0:0:
383,192,150066,1,0,0:0:0:0:
256,189,150340,2,0,B|265:237|250:260|250:260|262:285|262:285|251:304|256:330,1,137.999995788574
255,35,150885,5,0,0:0:0:0:
368,113,151158,1,0,0:0:0:0:
96,212,151430,1,0,0:0:0:0:
403,317,151703,1,0,0:0:0:0:
442,87,151976,5,0,0:0:0:0:
280,165,152249,1,0,0:0:0:0:
47,151,152521,5,0,0:0:0:0:
209,229,152794,1,0,0:0:0:0:
379,333,153067,5,0,0:0:0:0:
499,77,153340,1,0,0:0:0:0:
255,332,153612,5,0,0:0:0:0:
255,14,153885,1,0,0:0:0:0:
133,333,154158,5,0,0:0:0:0:
13,77,154431,1,0,0:0:0:0:
328,102,154703,6,0,B|366:136|400:137|400:137|364:173|368:238|428:267,1,206.999993682861
452,193,155249,1,2,0:0:0:0:
39,193,155521,1,0,0:0:0:0:
369,332,155794,5,0,0:0:0:0:
108,85,156067,1,0,0:0:0:0:
255,319,156340,5,0,0:0:0:0:
214,74,156612,1,0,0:0:0:0:
166,234,156885,5,0,0:0:0:0:
346,150,157158,1,0,0:0:0:0:
136,136,157430,6,0,P|92:163|62:245,1,137.999995788574
376,136,157976,2,0,P|420:163|450:245,1,137.999995788574
204,184,158521,2,0,B|256:232|256:232|312:180,1,137.999995788574
168,268,159067,6,0,B|208:304|256:320|256:320|303:303|352:264,1,206.999993682861
255,75,159612,1,0,0:0:0:0:
256,320,159885,1,2,0:0:0:0:
420,192,160158,5,0,0:0:0:0:
92,192,160430,1,0,0:0:0:0:
360,328,160703,5,0,0:0:0:0:
256,40,160976,1,0,0:0:0:0:
152,328,161249,1,0,0:0:0:0:
256,200,161521,1,0,0:0:0:0:
472,96,161794,6,0,P|402:106|328:96,1,137.999995788574
40,192,162340,2,0,P|104:202|184:192,1,137.999995788574
472,288,162885,2,0,P|398:279|328:288,1,137.999995788574
208,320,163294,1,0,0:0:0:0:
352,176,163430,1,0,0:0:0:0:
352,176,163703,6,0,L|344:216,1,34.4999989471436
168,128,163976,6,0,B|104:108|104:108|104:168|48:204,1,172.5,2|0,0:0|0:0,0:0:0:0:
344,128,164794,2,0,B|408:108|408:108|408:168|464:204,1,172.5,2|0,0:0|0:0,0:0:0:0:
484,124,165340,1,0,0:0:0:0:
256,256,165612,1,0,0:0:0:0:
256,160,165885,5,0,0:0:0:0:
256,256,166021,1,0,0:0:0:0:
160,64,166158,2,0,P|98:104|84:208,1,172.5
352,64,166976,2,0,P|413:104|428:208,1,172.5
368,240,167521,2,0,P|304:248|252:284,1,115
132,196,168067,1,0,0:0:0:0:
312,108,168340,6,0,B|351:105|376:88|376:88|404:112|404:112|448:88|488:104,1,172.5
200,108,169158,2,0,B|160:105|136:88|136:88|108:112|108:112|64:88|24:104,1,172.5
60,172,169703,2,0,B|73:240|73:240|112:288,1,115
360,236,170249,6,0,L|304:208,1,57.5
236,216,170521,2,0,L|408:300,1,172.5
176,104,171340,6,0,L|116:108,1,57.5
336,124,171612,1,0,0:0:0:0:
336,124,171885,6,0,L|408:144,1,57.5
424,208,172158,2,0,L|404:264,1,57.5
336,232,172430,2,0,L|308:304,1,57.5,8|0,0:0|0:0,0:0:0:0:
208,336,172703,1,2,0:0:0:0:
208,336,172976,6,0,L|208:264,1,57.5
108,220,173249,1,0,0:0:0:0:
108,220,173521,6,0,L|108:140,1,57.5
220,132,173794,1,0,0:0:0:0:
220,132,174067,6,0,L|220:74,1,57.5
220,212,174340,1,0,0:0:0:0:
300,212,174612,6,0,L|364:212,1,57.5
220,212,174885,1,0,0:0:0:0:
220,292,175158,6,0,L|220:356,1,57.5
220,212,175431,1,0,0:0:0:0:
140,212,175703,6,0,L|76:212,1,57.5
220,212,175976,1,0,0:0:0:0:
192,56,176249,6,0,P|152:100|80:116,1,115
320,88,176794,5,0,0:0:0:0:
344,104,176862,1,0,0:0:0:0:
364,124,176930,1,0,0:0:0:0:
380,148,176999,1,0,0:0:0:0:
388,176,177067,2,0,P|368:248|328:272,1,115
136,264,177612,2,0,P|156:192|196:168,1,115
337,268,178158,6,0,B|366:316|366:316|421:346,1,115
175,268,178703,2,0,B|145:316|145:316|91:346,1,115
256,192,179249,1,2,0:0:0:0:
256,192,179385,12,0,180885,0:0:0:0:
378,95,181158,5,0,0:0:0:0:
406,229,181430,2,0,L|418:289,4,57.5,0|0|0|0|8,0:0|0:0|0:0|0:0|0:0,0:0:0:0:
284,102,182249,6,0,P|222:117|182:159,1,115
172,183,182658,1,0,0:0:0:0:
163,216,182794,1,0,0:0:0:0:
170,249,182930,1,0,0:0:0:0:
189,277,183067,1,8,0:0:0:0:
420,229,183340,5,0,0:0:0:0:
320,118,183612,1,0,0:0:0:0:
285,119,183748,1,0,0:0:0:0:
251,122,183884,1,0,0:0:0:0:
217,129,184021,1,0,0:0:0:0:
183,138,184158,2,0,P|126:172|99:233,1,115,8|0,0:0|0:0,0:0:0:0:
7,225,184703,6,0,P|41:282|102:309,1,115,8|0,0:0|0:0,0:0:0:0:
156,295,185044,2,0,L|170:262,2,28.75
208,348,185249,2,0,P|242:319|264:234,1,115
395,78,185794,6,0,L|421:210,1,115
117,78,186340,2,0,L|91:210,1,115
256,160,186885,2,0,L|256:280,1,115
392,336,187430,6,0,B|439:343|468:326|468:326|436:301,1,115
335,252,187976,2,0,B|367:195|357:139|357:139|404:93,1,172.5
339,91,188521,2,0,P|282:99|217:90,1,115
36,142,189067,6,0,L|104:142,1,57.5
216,173,189340,2,0,L|155:206,1,57.5
158,304,189612,5,0,0:0:0:0:
175,281,189680,1,0,0:0:0:0:
200,268,189748,1,0,0:0:0:0:
229,263,189816,1,0,0:0:0:0:
257,266,189884,1,0,0:0:0:0:
284,276,189952,1,0,0:0:0:0:
307,293,190020,1,0,0:0:0:0:
325,316,190089,1,0,0:0:0:0:
346,336,190158,6,0,L|430:336,1,57.5
477,174,190430,2,0,L|413:182,1,57.5
83,105,190703,2,0,L|200:147,1,115
86,258,191249,1,0,0:0:0:0:
277,173,191521,6,0,L|304:164,3,28.75
382,173,191794,2,0,B|353:221|353:221|286:247,1,115
68,316,192340,1,0,0:0:0:0:
68,316,192612,2,0,L|148:292,1,57.5
440,124,192885,6,0,P|374:99|328:120,1,115
237,178,193430,1,0,0:0:0:0:
237,178,193703,6,0,L|158:177,1,57.5
361,290,193976,2,0,L|401:237,1,57.5
353,68,194249,2,0,L|311:116,1,57.5
122,326,194521,1,0,0:0:0:0:
63,188,194794,6,0,P|78:164|101:146,1,57.5
176,164,195067,2,0,P|161:189|140:208,1,57.5
88,72,195340,2,0,P|100:44|124:24,1,57.5
164,88,195612,6,0,B|189:70|197:40|197:40|223:55|223:109,1,115
453,156,196158,2,0,B|428:137|420:107|420:107|394:122|394:176,1,115
448,273,196703,1,0,0:0:0:0:
448,273,196976,6,0,L|368:273,1,57.5
106,193,197249,1,0,0:0:0:0:
106,193,197521,6,0,L|176:194,1,57.5
446,51,197794,1,0,0:0:0:0:
446,51,198067,6,0,L|398:97,1,57.5
82,339,198340,1,0,0:0:0:0:
210,219,198612,5,0,0:0:0:0:
209,224,198680,1,0,0:0:0:0:
209,230,198748,1,0,0:0:0:0:
209,236,198816,1,0,0:0:0:0:
210,241,198885,2,0,P|229:278|266:297,1,68.9999978942872,8|0,0:0|0:0,0:0:0:0:
377,236,199430,5,0,0:0:0:0:
377,222,199498,1,0,0:0:0:0:
377,208,199566,1,0,0:0:0:0:
377,194,199634,1,0,0:0:0:0:
377,180,199702,1,0,0:0:0:0:
377,167,199770,1,0,0:0:0:0:
377,153,199839,1,0,0:0:0:0:
377,139,199907,1,0,0:0:0:0:
352,110,199976,6,0,P|315:128|292:157,1,68.9999978942872,8|0,0:0|0:0,0:0:0:0:
256,84,200385,1,0,0:0:0:0:
215,149,200521,2,0,P|191:124|160:110,1,68.9999978942872
144,184,200930,1,0,0:0:0:0:
144,184,201067,2,0,L|143:265,1,68.9999978942872
224,316,201612,5,0,0:0:0:0:
237,316,201680,1,0,0:0:0:0:
251,316,201748,1,0,0:0:0:0:
265,316,201816,1,0,0:0:0:0:
279,316,201884,1,0,0:0:0:0:
293,316,201952,1,0,0:0:0:0:
306,316,202021,1,0,0:0:0:0:
320,316,202089,1,0,0:0:0:0:
334,316,202158,6,0,L|408:316,1,68.9999978942872,8|0,0:0|0:0,0:0:0:0:
460,264,202567,1,0,0:0:0:0:
388,236,202703,2,0,L|388:156,1,68.9999978942872
312,184,203112,1,0,0:0:0:0:
312,184,203249,2,0,L|312:108,1,68.9999978942872
220,56,203794,5,0,0:0:0:0:
218,69,203862,1,0,0:0:0:0:
215,83,203930,1,0,0:0:0:0:
210,96,203998,1,0,0:0:0:0:
204,108,204066,1,0,0:0:0:0:
195,119,204134,1,0,0:0:0:0:
186,129,204203,1,0,0:0:0:0:
175,138,204271,1,0,0:0:0:0:
164,145,204340,6,0,P|128:176|108:208,1,68.9999978942872,8|0,0:0|0:0,0:0:0:0:
104,268,204749,1,0,0:0:0:0:
160,320,204885,2,0,P|196:289|216:257,1,68.9999978942872
288,144,205430,6,0,B|294:168|308:176|308:176|304:196|304:196|324:212,1,68.9999978942872
408,216,205976,2,0,B|414:240|428:248|428:248|424:268|424:268|444:284,1,68.9999978942872
380,44,206521,2,0,B|386:68|400:76|400:76|396:96|396:96|416:112,1,68.9999978942872
280,284,207067,2,0,B|286:308|300:316|300:316|296:336|296:336|316:352,1,68.9999978942872
228,152,207612,6,0,P|168:116|92:128,1,137.999995788574
91,131,208226,1,0,0:0:0:0:
81,140,208294,1,0,0:0:0:0:
72,150,208362,1,0,0:0:0:0:
64,161,208430,1,0,0:0:0:0:
58,173,208499,1,0,0:0:0:0:
53,185,208567,1,0,0:0:0:0:
49,198,208635,1,0,0:0:0:0:
47,211,208703,6,0,P|63:249|94:283,1,68.9999978942872,8|0,0:0|0:0,0:0:0:0:
163,249,209112,1,0,0:0:0:0:
235,296,209249,2,0,L|315:296,1,68.9999978942872
460,304,209658,1,0,0:0:0:0:
460,304,209794,6,0,P|416:256|432:188,1,137.999995788574
440,180,210408,1,0,0:0:0:0:
448,168,210476,1,0,0:0:0:0:
452,156,210544,1,0,0:0:0:0:
452,144,210612,1,0,0:0:0:0:
448,132,210680,1,0,0:0:0:0:
440,120,210749,1,0,0:0:0:0:
432,112,210817,1,0,0:0:0:0:
420,108,210885,6,0,P|380:113|344:136,1,68.9999978942872,8|0,0:0|0:0,0:0:0:0:
288,180,211294,1,0,0:0:0:0:
288,180,211430,2,0,L|228:179,1,34.4999989471436
212,256,211703,2,0,L|170:255,1,34.4999989471436
97,249,211976,6,0,B|58:217|58:217|44:245,1,68.9999978942872
46,309,212385,1,0,0:0:0:0:
160,343,212521,1,0,0:0:0:0:
184,336,212589,1,0,0:0:0:0:
208,325,212657,1,0,0:0:0:0:
229,310,212725,1,0,0:0:0:0:
247,291,212793,1,0,0:0:0:0:
261,270,212861,1,0,0:0:0:0:
272,246,212930,1,0,0:0:0:0:
278,221,212998,1,0,0:0:0:0:
279,195,213067,6,0,L|279:123,1,57.5,8|0,0:0|0:0,0:0:0:0:
361,240,213340,2,0,L|361:177,1,57.5
441,285,213612,2,0,L|441:226,1,57.5
441,152,213885,2,0,L|440:90,1,57.5
440,19,214158,1,2,0:0:0:0:
256,192,214294,12,0,216340,0:0:0:0:
340,89,216612,5,0,0:0:0:0:
414,139,216749,1,0,0:0:0:0:
428,227,216885,2,0,P|376:279|295:300,1,137.999995788574,8|0,0:0|0:0,0:0:0:0:
190,233,217294,5,0,0:0:0:0:
190,233,217430,2,0,B|256:168|256:168|256:227,1,137.999995788574
97,300,217840,5,0,0:0:0:0:
97,300,217976,2,0,P|73:249|91:167,1,137.999995788574,8|0,0:0|0:0,0:0:0:0:
137,78,218385,5,0,0:0:0:0:
137,78,218521,2,0,P|189:120|276:110,1,137.999995788574
372,50,218930,5,0,0:0:0:0:
372,50,219067,2,0,B|359:139|359:139|324:192,1,137.999995788574,8|0,0:0|0:0,0:0:0:0:
415,214,219476,5,0,0:0:0:0:
415,214,219612,2,0,L|396:353,1,137.999995788574
257,220,220021,5,0,0:0:0:0:
257,220,220158,2,0,L|226:368,1,137.999995788574,8|0,0:0|0:0,0:0:0:0:
103,258,220567,2,0,P|98:223|109:185,1,68.9999978942872
400,112,220976,6,0,L|332:152,1,68.9999978942872
172,228,221249,1,8,0:0:0:0:
108,124,221521,6,0,L|76:64,2,68.9999978942872
404,124,222067,2,0,L|436:64,2,68.9999978942872
205,154,222612,5,0,0:0:0:0:
256,240,222749,1,0,0:0:0:0:
307,154,222885,1,0,0:0:0:0:
173,233,223158,5,0,0:0:0:0:
256,92,223295,1,0,0:0:0:0:
339,233,223431,1,0,0:0:0:0:
149,122,223703,5,0,0:0:0:0:
256,305,223840,1,0,0:0:0:0:
364,122,223976,1,0,0:0:0:0:
127,276,224249,5,0,0:0:0:0:
256,56,224386,1,0,0:0:0:0:
385,276,224522,1,0,0:0:0:0:
149,124,224794,6,0,P|111:132|74:157,1,68.9999978942872
149,124,225067,2,0,P|214:168|268:145,1,137.999995788574
319,77,225476,1,0,0:0:0:0:
350,217,225612,1,8,0:0:0:0:
157,254,225885,5,0,0:0:0:0:
357,254,226021,1,0,0:0:0:0:
256,194,226158,2,0,L|257:52,1,137.999995788574
403,136,226703,2,0,P|397:213|342:258,1,137.999995788574
206,237,227249,6,0,P|169:281|174:337,1,115
278,258,227794,6,0,P|276:212|237:167,1,86.2500032901765
199,122,228340,6,0,P|171:190|212:240,1,137.999995788574
256,56,230249,6,0,L|256:120,1,57.5
256,188,230521,1,0,0:0:0:0:
400,248,231067,1,0,0:0:0:0:
112,248,231612,1,0,0:0:0:0:
256,116,231953,5,0,0:0:0:0:
256,96,232021,1,0,0:0:0:0:
256,76,232090,1,0,0:0:0:0:
256,56,232158,2,0,B|253:89|260:120|260:120|252:164|252:164|264:204|256:244,1,172.5
256,316,232703,5,2,0:0:0:0:
368,176,232976,1,0,0:0:0:0:
144,176,233249,1,0,0:0:0:0:
260,320,233521,1,0,0:0:0:0:
256,40,233794,5,0,0:0:0:0:
144,304,234067,1,0,0:0:0:0:
260,44,234340,1,0,0:0:0:0:
368,304,234612,1,0,0:0:0:0:
100,140,234885,1,0,0:0:0:0:
412,140,235158,1,0,0:0:0:0:
96,224,235430,5,0,0:0:0:0:
416,224,235703,1,0,0:0:0:0:
148,344,235976,5,0,0:0:0:0:
340,36,236249,1,0,0:0:0:0:
364,344,236521,5,0,0:0:0:0:
172,36,236794,1,0,0:0:0:0:
400,140,237067,5,0,0:0:0:0:
94,271,237340,1,0,0:0:0:0:
112,139,237612,5,0,0:0:0:0:
416,271,237885,1,0,0:0:0:0:
94,271,238158,6,0,P|87:203|112:140,1,137.999995788574
400,140,238703,2,0,P|424:203|417:271,1,137.999995788574
184,268,239249,6,0,B|161:283|131:274|131:274|112:296|112:296|86:296|52:320,1,137.999995788574
328,268,239794,2,0,B|350:283|381:274|381:274|400:296|400:296|426:296|460:320,1,137.999995788574
256,192,240340,2,0,B|260:164|252:144|252:144|260:116|260:116|252:84|256:52,1,137.999995788574
184,268,240885,6,0,P|255:330|328:264,1,206.999993682861
256,259,241430,1,2,0:0:0:0:
413,336,241703,1,0,0:0:0:0:
99,336,241976,1,0,0:0:0:0:
256,56,242249,1,0,0:0:0:0:
460,104,242521,5,0,0:0:0:0:
296,192,242794,1,0,0:0:0:0:
52,104,243067,5,0,0:0:0:0:
216,192,243340,1,0,0:0:0:0:
152,280,243612,6,0,P|108:227|112:159,1,137.999995788574
360,280,244158,2,0,P|403:227|399:159,1,137.999995788574
231,161,244703,2,0,P|254:212|281:163,1,137.999995788574
120,36,245249,6,0,B|128:88|100:124|64:136|64:136|76:176|76:176|76:224,1,206.999993682861
36,56,245794,1,2,0:0:0:0:
256,332,246067,1,0,0:0:0:0:
476,56,246340,1,0,0:0:0:0:
256,192,246612,1,0,0:0:0:0:
0,264,246885,5,0,0:0:0:0:
512,120,247158,1,0,0:0:0:0:
0,120,247430,5,0,0:0:0:0:
512,264,247703,1,0,0:0:0:0:
180,140,247976,6,0,B|152:192|152:192|176:244,1,115
337,242,248521,2,0,B|360:192|360:192|332:140,1,115
256,112,249067,6,0,L|256:204,1,86.2500032901765
256,320,249476,6,0,L|256:276,1,43.1250016450883,0|2,0:0|0:0,0:0:0:0:
