osu file format v14

[General]
AudioFilename: audio.mp3
AudioLeadIn: 0
PreviewTime: 2930
Countdown: 0
SampleSet: Soft
StackLeniency: 0.4
Mode: 0
LetterboxInBreaks: 0
WidescreenStoryboard: 0

[Editor]
Bookmarks: 3112,11839,20566,29293,33112
DistanceSpacing: 2.2
BeatDivisor: 6
GridSize: 32
TimelineZoom: 2.1

[Metadata]
Title:Kawaiku Naritai (Short Ver.)
TitleUnicode:可愛くなりたい (Short Ver.)
Artist:HoneyWorks feat.sana
ArtistUnicode:HoneyWorks feat.鎖那
Creator:yaleufeu
Version:Shyo's Hard
Source:
Tags:cute utaite sharuresu shyotamaze
BeatmapID:1154460
BeatmapSetID:544647

[Difficulty]
HPDrainRate:5
CircleSize:4
OverallDifficulty:6.5
ApproachRate:7.5
SliderMultiplier:1.5
SliderTickRate:1

[Events]
//Background and Video events
0,0,"Kawaiku Naritai.png",0,0
Video,2498,"video.avi"
//Break Periods
//Storyboard Layer 0 (Background)
//Storyboard Layer 1 (Fail)
//Storyboard Layer 2 (Pass)
//Storyboard Layer 3 (Foreground)
//Storyboard Sound Samples

[TimingPoints]
3112,545.454545454546,4,2,1,60,1,0
33112,-100,4,2,1,5,0,0

[Colours]
Combo1 : 255,0,128
Combo2 : 255,128,0
Combo3 : 0,102,255
Combo4 : 128,128,255

[HitObjects]
416,320,3112,6,0,L|320:352,1,75,4|0,0:0|0:0,0:0:0:0:
386,238,3657,2,0,L|314:261,1,75,8|0,0:0|0:0,0:0:0:0:
356,156,4202,1,0,0:0:0:0:
468,161,4475,1,0,0:0:0:0:
386,238,4748,2,0,L|314:261,1,75,8|0,0:0|0:0,0:0:0:0:
246,128,5293,6,0,P|286:65|356:41,1,150,2|8,0:0|0:0,0:0:0:0:
356,156,6112,1,0,0:0:0:0:
323,243,6293,1,0,0:0:0:0:
314,261,6384,2,0,L|242:237,1,75
160,159,6930,2,0,L|88:135,1,75,8|0,0:0|0:0,0:0:0:0:
137,277,7475,6,0,L|65:253,2,75,4|0|8,0:0|0:0|0:0,0:0:0:0:
242,237,8293,1,0,0:0:0:0:
251,147,8475,1,0,0:0:0:0:
245,127,8566,2,0,P|226:96|195:74,1,75
88,135,9112,2,0,L|160:159,1,75,8|0,0:0|0:0,0:0:0:0:
65,253,9657,6,0,L|137:277,2,75,2|0|8,0:0|0:0|0:0,0:0:0:0:
159,158,10475,1,0,0:0:0:0:
224,309,10748,1,8,0:0:0:0:
351,205,11021,1,8,0:0:0:0:
266,127,11202,2,0,L|260:152,1,25,8|8,0:0|0:0,0:0:0:0:
242,237,11475,2,0,L|235:261,1,25,8|8,0:0|0:0,0:0:0:0:
305,309,11748,1,8,0:0:0:0:
325,316,11839,6,0,P|362:319|398:309,1,75,4|0,0:0|0:0,0:0:0:0:
424,198,12384,2,0,P|387:195|351:205,1,75,8|0,0:0|0:0,0:0:0:0:
242,237,12930,1,0,0:0:0:0:
159,158,13202,1,0,0:0:0:0:
225,67,13475,2,0,P|251:93|266:127,1,75,8|0,0:0|0:0,0:0:0:0:
137,277,14021,6,0,P|72:242|39:164,1,150,2|8,0:0|0:0,0:0:0:0:
159,158,14839,1,0,0:0:0:0:
229,222,15021,1,0,0:0:0:0:
242,237,15112,2,0,L|314:261,1,75
338,151,15657,2,0,L|266:127,1,75,8|0,0:0|0:0,0:0:0:0:
137,277,16202,5,4,0:0:0:0:
159,158,16475,1,0,0:0:0:0:
242,237,16748,2,0,L|314:261,1,75,8|0,0:0|0:0,0:0:0:0:
406,240,17202,1,0,0:0:0:0:
420,225,17293,2,0,P|440:194|448:158,1,75
366,83,17839,2,0,P|346:114|338:151,1,75,8|0,0:0|0:0,0:0:0:0:
482,265,18384,5,4,0:0:0:0:
448,157,18657,1,0,0:0:0:0:
395,334,18930,1,8,0:0:0:0:
338,150,19202,1,8,0:0:0:0:
482,265,19475,1,8,0:0:0:0:
313,260,19748,1,8,0:0:0:0:
448,157,20021,2,0,L|467:142,3,25,8|8|8|8,0:0|0:0|0:0|0:0,0:0:0:0:
395,334,20566,6,0,P|366:358|329:370,1,75,4|0,0:0|0:0,0:0:0:0:
224,332,21112,2,0,P|206:300|199:259,1,75,8|0,0:0|0:0,0:0:0:0:
273,175,21566,1,0,0:0:0:0:
288,190,21657,2,0,P|305:222|312:259,1,75,2|0,0:0|0:0,0:0:0:0:
224,332,22202,2,0,P|206:300|199:259,1,75,8|0,0:0|0:0,0:0:0:0:
395,334,22748,6,0,P|366:358|329:370,1,75,4|0,0:0|0:0,0:0:0:0:
313,259,23293,1,8,0:0:0:0:
420,226,23566,1,0,0:0:0:0:
338,148,23839,2,0,P|366:125|405:113,1,75,2|0,0:0|0:0,0:0:0:0:
484,191,24384,2,0,P|455:214|420:226,1,75,8|0,0:0|0:0,0:0:0:0:
283,54,24930,5,4,0:0:0:0:
383,2,25202,1,0,0:0:0:0:
466,78,25475,2,0,P|437:101|402:113,1,75,8|0,0:0|0:0,0:0:0:0:
292,146,26021,2,0,P|257:159|228:182,1,75
248,294,26566,2,0,P|283:281|312:259,1,75,8|0,0:0|0:0,0:0:0:0:
207,70,27112,6,0,P|171:83|142:106,1,75,4|0,0:0|0:0,0:0:0:0:
141,202,27566,2,0,P|145:214|151:226,1,25,8|8,0:0|0:0,0:0:0:0:
248,295,27930,2,8,P|283:282|313:259,1,75,8|0,0:0|0:0,0:0:0:0:
316,161,28384,2,0,P|312:149|307:138,1,25,8|8,0:0|0:0,0:0:0:0:
207,70,28748,2,0,L|186:57,3,25,8|8|8|8,0:0|0:0|0:0|0:0,0:0:0:0:
229,182,29293,5,4,0:0:0:0:
256,192,29430,12,0,33112,0:0:0:0:
