osu file format v14

[General]
AudioFilename: audio.mp3
AudioLeadIn: 0
PreviewTime: 2930
Countdown: 0
SampleSet: Soft
StackLeniency: 0.4
Mode: 0
LetterboxInBreaks: 0
WidescreenStoryboard: 0

[Editor]
DistanceSpacing: 1.6
BeatDivisor: 6
GridSize: 32
TimelineZoom: 2.1

[Metadata]
Title:Kawaiku Naritai (Short Ver.)
TitleUnicode:可愛くなりたい (Short Ver.)
Artist:HoneyWorks feat.sana
ArtistUnicode:HoneyWorks feat.鎖那
Creator:yaleufeu
Version:Sharu's Insane
Source:
Tags:cute utaite sharuresu shyotamaze
BeatmapID:1154153
BeatmapSetID:544647

[Difficulty]
HPDrainRate:6
CircleSize:4.3
OverallDifficulty:7.5
ApproachRate:8.5
SliderMultiplier:3
SliderTickRate:1

[Events]
//Background and Video events
0,0,"Kawaiku Naritai.png",0,0
Video,2498,"video.avi"
//Break Periods
//Storyboard Layer 0 (Background)
//Storyboard Layer 1 (Fail)
//Storyboard Layer 2 (Pass)
//Storyboard Layer 3 (Foreground)
//Storyboard Sound Samples

[TimingPoints]
3112,545.454545454546,4,2,1,60,1,0
33112,-100,4,2,1,5,0,0

[Colours]
Combo1 : 255,0,128
Combo2 : 255,128,0
Combo3 : 0,102,255
Combo4 : 128,128,255

[HitObjects]
168,254,3112,6,0,P|201:211|256:199,1,100,4|0,0:0|0:0,0:0:0:0:
245,279,3384,1,0,0:0:0:0:
111,320,3566,1,0,0:0:0:0:
81,312,3657,2,0,P|28:245|30:202,1,100,8|0,0:0|0:0,0:0:0:0:
25,157,3930,1,0,0:0:0:0:
204,88,4112,1,0,0:0:0:0:
227,102,4202,2,0,P|246:150|239:208,1,100
245,279,4475,1,0,0:0:0:0:
152,161,4657,1,0,0:0:0:0:
125,164,4748,2,0,P|139:256|172:251,1,150,8|0,0:0|0:0,0:0:0:0:
405,197,5293,6,0,B|455:152|467:93|467:93|459:48|399:5,1,200,2|0,0:0|0:0,0:0:0:0:
326,36,5748,1,0,0:0:0:0:
307,61,5839,2,0,P|298:110|329:168,1,100,8|0,0:0|0:0,0:0:0:0:
383,100,6112,1,0,0:0:0:0:
210,125,6293,2,0,P|160:129|116:108,1,100
124,205,6566,1,0,0:0:0:0:
121,234,6657,2,0,P|92:274|38:293,1,100
198,255,6930,2,0,B|240:275|240:275|375:253,1,150,8|0,0:0|0:0,0:0:0:0:
512,95,7475,5,4,0:0:0:0:
288,54,7657,1,0,0:0:0:0:
281,84,7748,2,0,P|312:148|363:160,1,100
429,82,8021,2,0,P|403:29|344:9,1,100,8|0,0:0|0:0,0:0:0:0:
354,87,8293,1,0,0:0:0:0:
343,259,8475,2,0,L|333:126,1,100
434,241,8748,1,0,0:0:0:0:
437,271,8839,2,0,P|419:323|365:357,1,100
241,255,9112,2,0,P|268:187|336:159,1,150,8|0,0:0|0:0,0:0:0:0:
317,317,9566,5,0,0:0:0:0:
299,342,9657,2,0,P|268:355|179:345,1,100,2|0,0:0|0:0,0:0:0:0:
144,243,9930,2,0,P|190:259|240:255,1,100
335,159,10202,2,0,P|288:175|238:171,1,100,8|0,0:0|0:0,0:0:0:0:
117,79,10475,2,0,P|163:95|213:91,1,100
265,36,10748,1,8,0:0:0:0:
335,158,10930,5,8,0:0:0:0:
335,158,11021,1,8,0:0:0:0:
503,212,11202,5,8,0:0:0:0:
503,212,11293,1,8,0:0:0:0:
341,317,11475,5,8,0:0:0:0:
341,317,11566,1,8,0:0:0:0:
494,353,11748,5,8,0:0:0:0:
494,353,11839,2,0,P|440:373|374:354,1,100,4|0,0:0|0:0,0:0:0:0:
341,317,12112,1,0,0:0:0:0:
114,365,12293,1,0,0:0:0:0:
111,335,12384,2,0,P|131:272|184:240,1,100,8|0,0:0|0:0,0:0:0:0:
196,326,12657,1,0,0:0:0:0:
55,206,12839,2,0,P|58:139|135:70,1,150
185,73,13202,1,0,0:0:0:0:
155,250,13384,1,0,0:0:0:0:
162,220,13475,2,0,P|215:167|295:174,1,150,8|0,0:0|0:0,0:0:0:0:
484,310,14021,6,0,B|440:359|385:372|385:372|330:363|303:328,1,200,2|0,0:0|0:0,0:0:0:0:
327,230,14475,1,0,0:0:0:0:
349,216,14566,2,0,P|404:214|451:241,1,100,8|0,0:0|0:0,0:0:0:0:
382,297,14839,1,0,0:0:0:0:
255,263,15021,2,0,P|250:210|283:165,1,100
312,338,15293,1,0,0:0:0:0:
291,359,15384,2,0,P|231:363|184:335,1,100
134,183,15657,2,0,P|135:254|39:300,1,150,8|0,0:0|0:0,0:0:0:0:
52,121,16112,5,0,0:0:0:0:
70,98,16202,2,0,P|116:79|166:81,1,100,4|0,0:0|0:0,0:0:0:0:
229,165,16475,2,0,P|183:184|133:182,1,100
262,71,16748,2,0,P|321:124|331:169,1,100,8|0,0:0|0:0,0:0:0:0:
326,216,17021,1,0,0:0:0:0:
409,83,17202,2,0,L|400:190,1,100
346,33,17475,1,0,0:0:0:0:
371,21,17566,2,0,P|431:15|467:40,1,100
439,213,17839,2,0,B|400:183|400:183|409:76,1,150,8|0,0:0|0:0,0:0:0:0:
432,323,18293,5,0,0:0:0:0:
402,296,18384,2,0,P|334:284|281:316,1,100,4|0,0:0|0:0,0:0:0:0:
174,369,18657,2,0,P|218:316|217:254,1,100
227,135,18930,2,0,P|250:199|304:229,1,100,8|0,0:0|0:0,0:0:0:0:
407,143,19202,1,8,0:0:0:0:
407,143,19475,6,0,P|340:130|287:162,1,100,8|0,0:0|0:0,0:0:0:0:
306,294,19748,2,0,P|349:242|348:180,1,100,8|0,0:0|0:0,0:0:0:0:
328,56,20021,2,0,P|304:61|281:71,1,50,8|8,0:0|0:0,0:0:0:0:
151,116,20202,1,8,0:0:0:0:
179,119,20293,2,0,P|203:124|226:134,1,50,8|0,0:0|0:0,0:0:0:0:
210,294,20475,5,0,0:0:0:0:
188,313,20566,2,0,P|125:321|73:277,1,100,4|0,0:0|0:0,0:0:0:0:
180,211,20839,2,0,P|232:209|288:255,1,100
306,294,21112,1,8,0:0:0:0:
305,105,21293,2,0,P|341:177|416:199,1,150
406,99,21657,2,0,P|381:38|334:9,1,100,2|0,0:0|0:0,0:0:0:0:
139,99,21930,2,0,P|194:131|239:128,1,100
305,105,22202,1,8,0:0:0:0:
402,199,22384,2,0,P|383:277|314:316,1,150
271,265,22748,6,0,B|252:220|188:207|188:207|147:226,1,150,4|0,0:0|0:0,0:0:0:0:
67,375,23293,2,0,B|126:350|126:350|159:303,1,100,8|0,0:0|0:0,0:0:0:0:
57,188,23566,2,0,P|55:264|76:291,1,100
240,184,23839,2,0,P|183:130|94:142,1,150,2|0,0:0|0:0,0:0:0:0:
322,96,24384,2,0,P|379:42|468:54,1,168.75,8|0,0:0|0:0,0:0:0:0:
451,213,24930,6,0,P|441:164|409:126,1,100,4|0,0:0|0:0,0:0:0:0:
359,205,25202,2,0,P|373:262|413:298,1,100
272,263,25475,1,8,0:0:0:0:
269,235,25566,2,0,P|209:193|111:264,1,200
179,377,26021,2,0,L|195:278,1,100
46,185,26293,2,0,P|19:231|33:307,1,100
129,128,26566,2,0,P|102:102|41:91,2,75,8|8|0,0:0|0:0|0:0,0:0:0:0:
331,96,27112,6,0,P|351:140|341:188,1,100,4|0,0:0|0:0,0:0:0:0:
194,278,27384,2,0,P|223:238|268:222,1,100
421,304,27657,2,0,P|371:298|334:265,1,100,8|0,0:0|0:0,0:0:0:0:
449,152,27930,2,0,L|432:249,1,75,8|8,0:0|0:0,0:0:0:0:
278,340,28384,5,8,0:0:0:0:
272,303,28474,1,8,0:0:0:0:
331,96,28748,5,8,0:0:0:0:
301,123,28839,1,8,0:0:0:0:
261,132,28930,1,8,0:0:0:0:
222,122,29021,1,8,0:0:0:0:
186,104,29112,1,8,0:0:0:0:
146,104,29202,1,8,0:0:0:0:
109,121,29293,5,4,0:0:0:0:
256,192,29430,12,0,33112,0:0:0:0:
